<?xml version="1.0" standalone="no"?>
<!DOCTYPE svg PUBLIC "-//W3C//DTD SVG 1.1//EN" "http://www.w3.org/Graphics/SVG/1.1/DTD/svg11.dtd" >
<svg xmlns="http://www.w3.org/2000/svg" xmlns:xlink="http://www.w3.org/1999/xlink" version="1.1">
<metadata></metadata>
<defs>
<font id="uni_sansthin_caps" horiz-adv-x="1396" >
<font-face units-per-em="2048" ascent="1548" descent="-500" />
<missing-glyph horiz-adv-x="503" />
<glyph horiz-adv-x="0" />
<glyph horiz-adv-x="682" />
<glyph unicode=" "  horiz-adv-x="503" />
<glyph unicode="&#x09;" horiz-adv-x="503" />
<glyph unicode="&#xa0;" horiz-adv-x="503" />
<glyph unicode="!" horiz-adv-x="397" d="M135 61q0 26 19 45t45 19t44.5 -19t18.5 -45t-18.5 -44.5t-44.5 -18.5t-45 18.5t-19 44.5zM172 270v1182h51v-1182h-51z" />
<glyph unicode="&#x22;" horiz-adv-x="544" d="M160 1090v360h51l-25 -360h-26zM348 1090v360h51l-24 -360h-27z" />
<glyph unicode="#" horiz-adv-x="1492" d="M92 489l10 41h332l117 400h-377l12 43h379l142 479h47l-144 -479h412l139 479h51l-145 -479h334l-15 -43h-335l-115 -400h379l-12 -41h-379l-148 -489h-49l150 489h-410l-148 -489h-49l150 489h-328zM479 530h412l117 400h-412z" />
<glyph unicode="$" horiz-adv-x="1198" d="M119 209l47 20q66 -96 179 -150t239 -54v694q-52 11 -93 21.5t-90 28.5t-86 38t-73 50t-59 65.5t-37.5 83.5t-14.5 104q0 90 38.5 160.5t103.5 112.5t144 63.5t167 23.5v146h41v-146q139 -5 250.5 -60t173.5 -163l-48 -18q-52 89 -153.5 138t-222.5 54v-659 q78 -16 137.5 -34t123 -50.5t105 -74t68 -106t26.5 -145.5q0 -88 -39.5 -161t-105.5 -118.5t-147 -70.5t-168 -25v-172h-41v172q-138 0 -263.5 58.5t-201.5 173.5zM182 1110q0 -61 21 -111t56 -85t88 -63.5t109 -46.5t128 -34v651q-77 -2 -147.5 -22t-128.5 -57t-92 -97 t-34 -135zM625 25q74 0 144.5 21.5t129 61t94 103t35.5 141.5q0 68 -22 122t-57 90.5t-90 66t-108.5 47t-125.5 33.5v-686z" />
<glyph unicode="%" horiz-adv-x="1462" d="M98 1079q0 174 78 270.5t205 96.5q133 0 208 -97.5t75 -273.5q0 -169 -79 -268.5t-204 -99.5q-136 0 -209.5 95.5t-73.5 276.5zM158 1079q0 -168 53.5 -242.5t169.5 -74.5q114 0 169.5 76t55.5 237t-59 239.5t-168 78.5q-113 0 -167 -78t-54 -236zM209 -72l1008 1594 l40 -25l-1005 -1595q-9 5 -23.5 14t-19.5 12zM799 358q0 174 78 270.5t204 96.5q133 0 208 -97.5t75 -273.5q0 -169 -79 -268.5t-204 -99.5q-136 0 -209 95.5t-73 276.5zM854 358q0 -167 54 -242t171 -75q114 0 171 76t57 235q0 161 -60.5 239.5t-169.5 78.5 q-223 0 -223 -312z" />
<glyph unicode="&#x26;" horiz-adv-x="1247" d="M98 365q0 248 338 446q-85 100 -135.5 185.5t-50.5 164.5q0 132 95 212.5t228 80.5q116 0 201.5 -77t85.5 -193q0 -64 -24.5 -120t-71 -100t-93.5 -75.5t-112 -65.5l-47 -28l416 -457l127 201l35 -19l-129 -211l225 -256h-60l-188 211q-66 -89 -128.5 -146.5t-142 -91.5 t-169.5 -34q-170 0 -285 102.5t-115 270.5zM150 369q0 -153 97.5 -243.5t266.5 -90.5q115 0 214.5 73.5t176.5 184.5l-438 489q-317 -185 -317 -413zM301 1165q0 -132 180 -336q59 29 101.5 53.5t88.5 58.5t74.5 67t47 76.5t18.5 91.5q0 102 -69 167.5t-175 65.5 q-110 0 -188 -69.5t-78 -174.5z" />
<glyph unicode="'" horiz-adv-x="364" d="M160 1087v363h55l-16 -363h-39z" />
<glyph unicode="(" horiz-adv-x="503" d="M123 702q0 227 66.5 448.5t193.5 410.5l37 -29q-121 -177 -182.5 -391.5t-61.5 -442.5q0 -227 64.5 -443t189.5 -396l-39 -23q-132 190 -200 413t-68 453z" />
<glyph unicode=")" horiz-adv-x="503" d="M76 1511l33 21l-3 -2q1 0 2.5 1t4 2.5t4.5 2.5q129 -190 196.5 -421t67.5 -472q0 -494 -256 -868l-43 26q244 373 244 838q0 230 -63.5 453t-186.5 419z" />
<glyph unicode="*" horiz-adv-x="905" d="M121 1200q2 7 4 21t4 20l311 -104q0 49 -2 157t-2 158h41l-4 -317q87 27 148.5 48.5t100 36t52.5 19.5l12 -41l-301 -94l195 -266l-33 -23l-192 266q-30 -45 -98.5 -137t-94.5 -129l-33 27l203 262q-29 9 -311 96z" />
<glyph unicode="+" horiz-adv-x="1181" d="M102 674v47h473v463h46v-463h456v-47h-456v-465h-46v465h-473z" />
<glyph unicode="," horiz-adv-x="393" d="M59 -248l113 332h72l-140 -332h-45z" />
<glyph unicode="-" horiz-adv-x="862" d="M156 590v49h551v-49h-551z" />
<glyph unicode="." horiz-adv-x="438" d="M156 57q0 26 18.5 45t44.5 19t45 -19t19 -45t-19 -44.5t-45 -18.5t-44.5 18.5t-18.5 44.5z" />
<glyph unicode="/" horiz-adv-x="761" d="M63 -18l599 1499l36 -13q-167 -423 -298 -754.5t-192.5 -487.5t-101.5 -257q-35 9 -43 13z" />
<glyph unicode="0" horiz-adv-x="1280" d="M152 367v716q0 96 43.5 172t115 122t156 69.5t174.5 23.5q89 0 173.5 -23.5t155.5 -69.5t114.5 -122t43.5 -172v-716q0 -95 -43.5 -171t-114.5 -122t-155.5 -70t-173.5 -24t-174 24t-156.5 70t-115 122t-43.5 171zM203 367q0 -72 26.5 -130t69.5 -95.5t101 -63t118 -36.5 t123 -11q62 0 122 11t117.5 36.5t100.5 63t69.5 95.5t26.5 130v716q0 89 -39.5 157t-105 105.5t-139 55.5t-152.5 18q-63 0 -123 -10.5t-118 -36t-101 -63t-69.5 -96t-26.5 -130.5v-716z" />
<glyph unicode="1" horiz-adv-x="595" d="M41 1126l297 324h70v-1450h-50v1399l-284 -301z" />
<glyph unicode="2" horiz-adv-x="1124" d="M90 47l698 731q160 167 160 312q0 135 -108.5 229t-284.5 100q-133 4 -233 -50.5t-156 -160.5l-45 21q60 124 165.5 181.5t270.5 59.5q192 -1 318 -111t126 -272q0 -81 -45.5 -171.5t-128.5 -176.5l-659 -688h836v-51h-891z" />
<glyph unicode="3" horiz-adv-x="1163" d="M92 195l43 26q73 -100 173.5 -146t240.5 -46q84 0 162 23t140.5 66t100 112t37.5 153q0 186 -104.5 283.5t-290.5 95.5h-139v49h139q148 0 239 79t91 228q0 76 -33 136t-88 96t-121.5 54.5t-138.5 18.5q-113 0 -204.5 -39t-145.5 -118l-41 20q118 184 395 184 q65 0 126 -13t116 -41.5t95.5 -69t64.5 -99.5t24 -129q0 -236 -203 -325q79 -29 134 -72.5t83.5 -99t40.5 -113t12 -127.5q-1 -96 -43.5 -173.5t-112 -126.5t-156 -75t-179.5 -26q-313 0 -457 215z" />
<glyph unicode="4" horiz-adv-x="1171" d="M63 469l799 981h72v-995h141v-47h-141v-408h-51v408h-787zM115 455h768l2 946z" />
<glyph unicode="5" horiz-adv-x="1175" d="M125 190l49 25q57 -86 166 -135t231 -49q443 0 443 481q0 114 -60.5 200.5t-157 129.5t-210.5 43q-116 0 -208.5 -21.5t-191.5 -72.5l-22 -3v662h827v-47h-776v-547q189 81 373 78q72 -1 140 -17t129.5 -50t107.5 -82.5t73.5 -118t28.5 -152.5q0 -253 -119 -395 t-377 -142q-142 0 -260 54t-186 159z" />
<glyph unicode="6" horiz-adv-x="1265" d="M152 367v716q0 93 43 169t114.5 122.5t160.5 71.5t185 24q144 0 260.5 -49t178.5 -147l-47 -25q-54 88 -157.5 130t-234.5 42q-88 0 -168 -21.5t-144 -62t-102 -107t-38 -149.5v-426q38 66 93.5 113t119 70.5t121 33t118.5 9.5q76 -1 147.5 -16.5t134.5 -47.5t110 -76.5 t74.5 -108t27.5 -138.5v-127q0 -93 -41.5 -168t-112 -122t-158 -72t-182.5 -25q-96 -1 -185 24t-160.5 71.5t-114.5 122.5t-43 169zM203 369q0 -83 38 -149.5t102 -107t144 -62t168 -21.5q117 0 215.5 36.5t163 115.5t64.5 188v123q0 109 -64.5 187.5t-163 115t-215.5 36.5 q-120 0 -220 -36t-166 -114.5t-66 -188.5v-123z" />
<glyph unicode="7" horiz-adv-x="1009" d="M80 1401v49h858l29 -49l-766 -1401h-58l764 1401h-827z" />
<glyph unicode="8" horiz-adv-x="1257" d="M121 391q0 151 70 248.5t221 142.5q-62 20 -107 57.5t-69.5 84t-36 94.5t-11.5 100q1 84 36.5 152.5t94.5 111.5t133.5 65.5t155.5 22.5h39q81 0 155 -22.5t134 -65.5t95.5 -111.5t35.5 -152.5q0 -50 -11 -97t-34.5 -93.5t-68.5 -84t-107 -59.5q288 -80 291 -393 q-2 -96 -44 -175t-111 -130t-155.5 -78.5t-179.5 -27.5h-39q-125 0 -233.5 46.5t-180 142t-73.5 222.5zM170 393q0 -72 26.5 -133.5t70 -103.5t100.5 -72t118 -43.5t123 -13.5h39q62 0 123 13.5t118 43.5t100.5 72t70 103.5t26.5 133.5q0 369 -438 369h-39q-438 0 -438 -369 zM236 1118q0 -70 21.5 -125.5t57 -90.5t84.5 -57.5t100.5 -32t108.5 -9.5h39q73 0 136 16t118 50.5t87 98t32 150.5q0 76 -31 136.5t-84.5 96.5t-119 55t-138.5 19h-39q-99 0 -181 -31.5t-136.5 -103t-54.5 -172.5z" />
<glyph unicode="9" horiz-adv-x="1265" d="M117 956v127q0 93 41.5 168t111.5 122t157.5 72t182.5 25q97 1 185 -23t159.5 -70t115 -122t44.5 -172v-714q0 -93 -43 -169t-114.5 -123.5t-161 -72.5t-185.5 -24q-306 0 -436 204l49 25q55 -89 157 -134.5t230 -45.5q88 0 168.5 22.5t144.5 64.5t102 109t38 150v403 q-37 -56 -83 -96t-89 -61.5t-96 -33.5t-93 -15t-92 -3q-76 1 -147.5 16.5t-134 47.5t-109.5 76.5t-74.5 108t-27.5 138.5zM168 958q0 -109 64 -188t162.5 -115.5t215.5 -36.5q89 0 169 21.5t144.5 62t103 107t38.5 149.5v123q0 83 -38.5 149.5t-103 107t-144.5 62t-169 21.5 q-117 0 -215.5 -36.5t-162.5 -115.5t-64 -188v-123z" />
<glyph unicode=":" horiz-adv-x="438" d="M156 117q0 26 18.5 44.5t44.5 18.5t45 -18.5t19 -44.5t-19 -45t-45 -19t-44.5 19t-18.5 45zM156 891q0 26 18.5 44.5t44.5 18.5t45 -18.5t19 -44.5t-19 -45t-45 -19t-44.5 19t-18.5 45z" />
<glyph unicode=";" horiz-adv-x="557" d="M168 -203l90 295h84l-123 -295h-51zM223 860q0 26 19 45t45 19t44.5 -19t18.5 -45t-18.5 -44.5t-44.5 -18.5t-45 18.5t-19 44.5z" />
<glyph unicode="&#x3c;" horiz-adv-x="905" d="M98 594v53l660 389v-53l-615 -362l615 -359v-51q-111 67 -329.5 191.5t-330.5 191.5z" />
<glyph unicode="=" horiz-adv-x="1083" d="M160 455v45h764v-45h-764zM160 737v45h764v-45h-764z" />
<glyph unicode="&#x3e;" horiz-adv-x="911" d="M147 211v47l623 363q-75 44 -292.5 170.5t-330.5 191.5v53q112 -68 333.5 -194.5t332.5 -194.5v-53z" />
<glyph unicode="?" horiz-adv-x="925" d="M72 1319q66 64 157 102.5t183 38.5q82 0 157.5 -25t136.5 -71.5t97 -121.5t35 -167q-1 -94 -36 -173t-94 -132.5t-134 -86.5t-158 -42l-13 -395h-36l-9 430q116 7 214 56.5t159.5 140t59.5 204.5q-2 108 -58 186t-140.5 114t-184.5 36q-76 0 -161 -35t-147 -88zM330 49 q0 23 16 39t39 16q22 0 38.5 -16t16.5 -39t-16.5 -38t-38.5 -15q-23 0 -39 15t-16 38z" />
<glyph unicode="@" horiz-adv-x="1595" d="M125 616q0 153 56 287.5t152 229.5t227.5 149.5t277.5 54.5q185 0 334 -71.5t236 -204t87 -301.5q0 -125 -43.5 -235.5t-109.5 -180t-142.5 -108t-144.5 -33.5q-129 8 -92 168q-125 -174 -297 -174q-112 0 -174 76t-62 188q0 102 31 200.5t85.5 178t139 128t182.5 48.5 q27 0 51.5 -4t56 -17.5t54.5 -35.5t41 -63.5t23 -96.5l10 -2l61 174h43l-180 -537l-12 -36t-9.5 -35.5t-6 -36t2 -30t11 -26.5t25 -15.5t40.5 -6.5q91 0 177 70.5t140 190t54 251.5q0 160 -86 284t-223.5 187t-298.5 63q-195 0 -350 -90.5t-239.5 -245t-84.5 -342.5 q0 -118 31.5 -220.5t87 -179t133 -131t168.5 -80t195 -22.5t210 37l13 -38q-111 -36 -221.5 -39.5t-207.5 23t-180.5 84t-143.5 138t-94 191t-34 237.5zM471 465q0 -100 56 -163.5t149 -63.5q59 0 116 31t102.5 83t80.5 113.5t57 128.5q17 50 23.5 103t0 105t-27 91.5 t-64 62.5t-104.5 19q-75 1 -140 -31.5t-109.5 -86t-77 -121.5t-47.5 -137.5t-15 -133.5z" />
<glyph unicode="A" horiz-adv-x="1228" d="M37 0l536 1450h82l537 -1450h-55l-193 518h-659l-193 -518h-55zM303 569h623l-308 832h-8z" />
<glyph unicode="B" horiz-adv-x="1284" d="M190 0v1450h531q166 0 272.5 -93t106.5 -259q0 -96 -36.5 -173t-109.5 -120l-63 -35l72 -25q57 -24 99.5 -65.5t65 -91.5t32.5 -100q9 -45 9 -92v-9q-2 -109 -36.5 -186t-97 -120t-140 -62t-176.5 -19h-529zM242 49h479h13q176 1 278 79q106 82 106 261q0 354 -390 354 h-7h-479v-694zM242 793h479q150 0 240 76t90 227q0 147 -93 227t-237 80h-479v-610z" />
<glyph unicode="C" horiz-adv-x="1196" d="M160 385v680q0 96 44 175t117.5 128t164 75.5t188.5 26.5q143 0 265.5 -53.5t184.5 -154.5l-45 -33q-55 91 -168.5 141.5t-242.5 50.5q-86 0 -166.5 -22.5t-146 -65.5t-105 -112.5t-39.5 -155.5v-680q0 -86 39.5 -155t105 -111.5t146 -65t166.5 -22.5q129 0 241 46.5 t170 135.5l45 -23q-62 -101 -187 -155.5t-269 -54.5q-77 0 -150 16t-138 49.5t-114 81t-77.5 114t-28.5 144.5z" />
<glyph unicode="D" horiz-adv-x="1312" d="M190 0v1450h490q98 0 180.5 -23t147.5 -68.5t102 -121.5t37 -176v-674q0 -99 -37 -174.5t-102 -121.5t-147.5 -68.5t-180.5 -22.5h-490zM242 51h438q88 0 162 19t131.5 58.5t90 105.5t32.5 153v674q0 88 -32.5 154.5t-90 106t-131 58.5t-162.5 19h-438v-1348z" />
<glyph unicode="E" horiz-adv-x="1157" d="M190 0v1450h863v-51h-811v-649h749v-56h-749v-643h811v-51h-863z" />
<glyph unicode="F" horiz-adv-x="1099" d="M190 0v1450h836v-51h-784v-676h712v-51h-712v-672h-52z" />
<glyph unicode="G" horiz-adv-x="1298" d="M160 391v674q0 96 43.5 175t115.5 128t162 75.5t187 26.5q142 0 264 -54.5t184 -155.5l-47 -31q-53 95 -162.5 142.5t-242.5 47.5q-87 0 -167 -22.5t-144.5 -65t-103 -111.5t-38.5 -155v-674q0 -88 39 -158.5t104 -114t145.5 -66.5t168.5 -23q87 0 167.5 23t146 66.5 t105 114.5t39.5 158v275h-444v49h496v-324q0 -99 -43.5 -179t-116.5 -129.5t-163 -76t-187 -26.5t-186.5 26.5t-162 76t-116 129.5t-43.5 179z" />
<glyph unicode="H" horiz-adv-x="1398" d="M190 0v1450h52v-700h915v700h51v-1450h-51v698h-915v-698h-52z" />
<glyph unicode="I" horiz-adv-x="432" d="M190 0v1450h52v-1450h-52z" />
<glyph unicode="J" horiz-adv-x="1181" d="M55 272l51 17q29 -87 98 -148t148 -86.5t164 -25.5q82 0 158 22t138.5 64.5t100 111.5t37.5 156v1020h-483v47h534v-1067q0 -96 -41.5 -174.5t-111 -127.5t-155.5 -75t-179 -26q-103 0 -195 32t-164 99.5t-100 160.5z" />
<glyph unicode="K" horiz-adv-x="1210" d="M190 0v1450h52v-881l858 881h65l-669 -698l669 -752h-59l-647 715l-217 -217v-498h-52z" />
<glyph unicode="L" horiz-adv-x="1009" d="M190 0v1450h52v-1399h725v-51h-777z" />
<glyph unicode="M" horiz-adv-x="1632" d="M190 0v1450h109l518 -1174l516 1174h109v-1450h-51v1413h-19l-520 -1184h-70l-522 1170l-18 -2v-1397h-52z" />
<glyph unicode="N" horiz-adv-x="1374" d="M190 0v1450h80l863 -1401v1401h51v-1450h-88l-850 1384l-2 -1384h-54z" />
<glyph unicode="O" d="M158 391v670q0 98 46 178t122.5 129t171.5 75.5t198 26.5q82 0 160 -16t147 -50t121 -81.5t82.5 -115t30.5 -146.5v-670q0 -98 -46 -178t-123.5 -130t-173 -76.5t-198.5 -26.5t-198 26.5t-171.5 76.5t-122.5 130t-46 178zM209 391q0 -116 71.5 -199.5t179.5 -122 t236 -38.5q94 0 180 23t156 66t112 113.5t42 157.5v670q0 92 -42 163t-113 113t-156.5 63t-180.5 21q-95 -1 -179.5 -22.5t-154 -64t-110.5 -113t-41 -160.5v-670z" />
<glyph unicode="P" horiz-adv-x="1232" d="M190 0v1450h512q107 -1 193.5 -40t140.5 -102t82.5 -139.5t28.5 -158.5q0 -81 -28.5 -156.5t-81.5 -137.5t-139 -99.5t-193 -38.5h-463v-578h-52zM242 629h460q96 0 173 33t124 88t72 122.5t25 139.5q0 73 -25.5 141.5t-73 124.5t-124 90t-171.5 35h-460v-774z" />
<glyph unicode="Q" d="M160 391v670q0 98 46 178t122.5 129t171.5 75.5t198 26.5q81 0 158.5 -16t147 -50t121 -81.5t82 -115t30.5 -146.5v-670q0 -90 -28 -148.5t-89 -121.5l109 -129l-39 -27l-107 125q-162 -110 -385 -110q-103 0 -198 26.5t-171.5 76.5t-122.5 130t-46 178zM211 391 q0 -85 41.5 -155.5t110 -114.5t155 -68t180.5 -24q198 0 357 102l-127 160l39 28l120 -157q99 80 99 229v670q0 87 -41.5 157.5t-111.5 113.5t-155.5 66t-179.5 23q-95 -1 -179.5 -22.5t-154.5 -64t-111.5 -113t-41.5 -160.5v-670z" />
<glyph unicode="R" horiz-adv-x="1251" d="M190 0v1450h512q443 0 451 -393q0 -410 -448 -410h-78l489 -647h-59l-488 647h-329v-647h-50zM240 692h465q201 0 300 87t99 276q0 96 -29.5 165t-84 109t-124.5 58q-63 16 -143 16h-18h-465v-711z" />
<glyph unicode="S" horiz-adv-x="1183" d="M113 213l47 20q69 -98 185.5 -151t248.5 -53q77 0 148 19t130.5 55.5t99 97t50.5 137.5q1 14 1 28q0 38 -8 72q-11 46 -31 79.5t-54 62.5t-69 48.5t-84 37t-90.5 28.5t-96.5 23q-53 11 -95.5 22t-93.5 29t-89.5 39t-76.5 52t-61.5 67.5t-37.5 85.5q-12 43 -11 91v15 q2 70 29.5 128.5t72 99.5t103.5 69t125.5 41.5t136.5 13.5q148 0 266.5 -55t183.5 -168l-47 -18q-55 94 -164.5 143t-238.5 49q-80 0 -150 -17.5t-129 -52.5t-95.5 -95t-41.5 -138q-1 -12 -1 -24q0 -49 17 -91q21 -52 59 -88.5t96 -66t119 -48.5t136 -34q80 -16 144 -35 t131 -54t111 -79t70 -111q21 -54 20 -118q0 -15 -1 -31q-8 -112 -80.5 -195t-178.5 -123t-228 -40q-143 0 -271 58t-206 175z" />
<glyph unicode="T" horiz-adv-x="1107" d="M45 1399v51h1018v-51h-483v-1399h-52v1399h-483z" />
<glyph unicode="U" horiz-adv-x="1378" d="M180 397v1053h51v-1053q0 -89 39 -161t104 -116t145.5 -67.5t168.5 -23.5q69 0 135 14.5t125 44.5t103 73t70 103.5t26 132.5v1053h51v-1053q0 -100 -43.5 -181t-116.5 -131.5t-163 -77.5t-187 -27t-187 27t-162 77.5t-115.5 131.5t-43.5 181z" />
<glyph unicode="V" horiz-adv-x="1232" d="M33 1450h59l522 -1391h11l510 1393h57l-533 -1452h-81z" />
<glyph unicode="W" horiz-adv-x="1898" d="M51 1450h55l412 -1378h10l387 1161h68l389 -1165h12l406 1382h55l-424 -1450h-84l-387 1184l-389 -1184h-80z" />
<glyph unicode="X" horiz-adv-x="1120" d="M53 0l477 723l-475 727h58l448 -680l447 680h59l-477 -727l475 -723h-59l-445 688l-444 -688h-64z" />
<glyph unicode="Y" horiz-adv-x="1126" d="M39 1450h61l461 -817l475 817h64l-514 -875v-575h-51v575z" />
<glyph unicode="Z" horiz-adv-x="1124" d="M59 25l932 1380h-891v45h942l19 -27l-932 -1378h903v-45h-952z" />
<glyph unicode="[" horiz-adv-x="485" d="M162 -246v1784h237v-43h-188v-1696h188v-45h-237z" />
<glyph unicode="\" horiz-adv-x="788" d="M59 1518l39 14l633 -1577l-45 -14z" />
<glyph unicode="]" horiz-adv-x="487" d="M88 -207h184v1696h-184v49h238v-1796h-238v51z" />
<glyph unicode="^" horiz-adv-x="1042" d="M125 926l360 524h58q225 -331 372 -524h-55l-346 489l-334 -489h-55z" />
<glyph unicode="_" horiz-adv-x="1206" d="M125 -43h954v-45h-954v45z" />
<glyph unicode="`" horiz-adv-x="430" d="M45 1765h72l127 -211h-51z" />
<glyph unicode="a" horiz-adv-x="1228" d="M37 0l536 1450h82l537 -1450h-55l-193 518h-659l-193 -518h-55zM303 569h623l-308 832h-8z" />
<glyph unicode="b" horiz-adv-x="1284" d="M190 0v1450h531q166 0 272.5 -93t106.5 -259q0 -96 -36.5 -173t-109.5 -120l-63 -35l72 -25q57 -24 99.5 -65.5t65 -91.5t32.5 -100q9 -45 9 -92v-9q-2 -109 -36.5 -186t-97 -120t-140 -62t-176.5 -19h-529zM242 49h479h13q176 1 278 79q106 82 106 261q0 354 -390 354 h-7h-479v-694zM242 793h479q150 0 240 76t90 227q0 147 -93 227t-237 80h-479v-610z" />
<glyph unicode="c" horiz-adv-x="1196" d="M160 385v680q0 96 44 175t117.5 128t164 75.5t188.5 26.5q143 0 265.5 -53.5t184.5 -154.5l-45 -33q-55 91 -168.5 141.5t-242.5 50.5q-86 0 -166.5 -22.5t-146 -65.5t-105 -112.5t-39.5 -155.5v-680q0 -86 39.5 -155t105 -111.5t146 -65t166.5 -22.5q129 0 241 46.5 t170 135.5l45 -23q-62 -101 -187 -155.5t-269 -54.5q-77 0 -150 16t-138 49.5t-114 81t-77.5 114t-28.5 144.5z" />
<glyph unicode="d" horiz-adv-x="1312" d="M190 0v1450h490q98 0 180.5 -23t147.5 -68.5t102 -121.5t37 -176v-674q0 -99 -37 -174.5t-102 -121.5t-147.5 -68.5t-180.5 -22.5h-490zM242 51h438q88 0 162 19t131.5 58.5t90 105.5t32.5 153v674q0 88 -32.5 154.5t-90 106t-131 58.5t-162.5 19h-438v-1348z" />
<glyph unicode="e" horiz-adv-x="1157" d="M190 0v1450h863v-51h-811v-649h749v-56h-749v-643h811v-51h-863z" />
<glyph unicode="f" horiz-adv-x="1099" d="M190 0v1450h836v-51h-784v-676h712v-51h-712v-672h-52z" />
<glyph unicode="g" horiz-adv-x="1298" d="M160 391v674q0 96 43.5 175t115.5 128t162 75.5t187 26.5q142 0 264 -54.5t184 -155.5l-47 -31q-53 95 -162.5 142.5t-242.5 47.5q-87 0 -167 -22.5t-144.5 -65t-103 -111.5t-38.5 -155v-674q0 -88 39 -158.5t104 -114t145.5 -66.5t168.5 -23q87 0 167.5 23t146 66.5 t105 114.5t39.5 158v275h-444v49h496v-324q0 -99 -43.5 -179t-116.5 -129.5t-163 -76t-187 -26.5t-186.5 26.5t-162 76t-116 129.5t-43.5 179z" />
<glyph unicode="h" horiz-adv-x="1398" d="M190 0v1450h52v-700h915v700h51v-1450h-51v698h-915v-698h-52z" />
<glyph unicode="i" horiz-adv-x="432" d="M190 0v1450h52v-1450h-52z" />
<glyph unicode="j" horiz-adv-x="1181" d="M55 272l51 17q29 -87 98 -148t148 -86.5t164 -25.5q82 0 158 22t138.5 64.5t100 111.5t37.5 156v1020h-483v47h534v-1067q0 -96 -41.5 -174.5t-111 -127.5t-155.5 -75t-179 -26q-103 0 -195 32t-164 99.5t-100 160.5z" />
<glyph unicode="k" horiz-adv-x="1210" d="M190 0v1450h52v-881l858 881h65l-669 -698l669 -752h-59l-647 715l-217 -217v-498h-52z" />
<glyph unicode="l" horiz-adv-x="1007" d="M188 0v1450h52v-1399h725v-51h-777z" />
<glyph unicode="m" horiz-adv-x="1632" d="M190 0v1450h109l518 -1174l516 1174h109v-1450h-51v1413h-19l-520 -1184h-70l-522 1170l-18 -2v-1397h-52z" />
<glyph unicode="n" horiz-adv-x="1374" d="M190 0v1450h80l863 -1401v1401h51v-1450h-88l-850 1384l-2 -1384h-54z" />
<glyph unicode="o" d="M158 391v670q0 98 46 178t122.5 129t171.5 75.5t198 26.5q82 0 160 -16t147 -50t121 -81.5t82.5 -115t30.5 -146.5v-670q0 -98 -46 -178t-123.5 -130t-173 -76.5t-198.5 -26.5t-198 26.5t-171.5 76.5t-122.5 130t-46 178zM209 391q0 -116 71.5 -199.5t179.5 -122 t236 -38.5q94 0 180 23t156 66t112 113.5t42 157.5v670q0 92 -42 163t-113 113t-156.5 63t-180.5 21q-95 -1 -179.5 -22.5t-154 -64t-110.5 -113t-41 -160.5v-670z" />
<glyph unicode="p" horiz-adv-x="1232" d="M190 0v1450h512q107 -1 193.5 -40t140.5 -102t82.5 -139.5t28.5 -158.5q0 -81 -28.5 -156.5t-81.5 -137.5t-139 -99.5t-193 -38.5h-463v-578h-52zM242 629h460q96 0 173 33t124 88t72 122.5t25 139.5q0 73 -25.5 141.5t-73 124.5t-124 90t-171.5 35h-460v-774z" />
<glyph unicode="q" d="M160 391v670q0 98 46 178t122.5 129t171.5 75.5t198 26.5q81 0 158.5 -16t147 -50t121 -81.5t82 -115t30.5 -146.5v-670q0 -90 -28 -148.5t-89 -121.5l109 -129l-39 -27l-107 125q-162 -110 -385 -110q-103 0 -198 26.5t-171.5 76.5t-122.5 130t-46 178zM211 391 q0 -85 41.5 -155.5t110 -114.5t155 -68t180.5 -24q198 0 357 102l-127 160l39 28l120 -157q99 80 99 229v670q0 87 -41.5 157.5t-111.5 113.5t-155.5 66t-179.5 23q-95 -1 -179.5 -22.5t-154.5 -64t-111.5 -113t-41.5 -160.5v-670z" />
<glyph unicode="r" horiz-adv-x="1251" d="M190 0v1450h512q443 0 451 -393q0 -410 -448 -410h-78l489 -647h-59l-488 647h-329v-647h-50zM240 692h465q201 0 300 87t99 276q0 96 -29.5 165t-84 109t-124.5 58q-63 16 -143 16h-18h-465v-711z" />
<glyph unicode="s" horiz-adv-x="1183" d="M113 213l47 20q69 -98 185.5 -151t248.5 -53q77 0 148 19t130.5 55.5t99 97t50.5 137.5q1 14 1 28q0 38 -8 72q-11 46 -31 79.5t-54 62.5t-69 48.5t-84 37t-90.5 28.5t-96.5 23q-53 11 -95.5 22t-93.5 29t-89.5 39t-76.5 52t-61.5 67.5t-37.5 85.5q-12 43 -11 91v15 q2 70 29.5 128.5t72 99.5t103.5 69t125.5 41.5t136.5 13.5q148 0 266.5 -55t183.5 -168l-47 -18q-55 94 -164.5 143t-238.5 49q-80 0 -150 -17.5t-129 -52.5t-95.5 -95t-41.5 -138q-1 -12 -1 -24q0 -49 17 -91q21 -52 59 -88.5t96 -66t119 -48.5t136 -34q80 -16 144 -35 t131 -54t111 -79t70 -111q21 -54 20 -118q0 -15 -1 -31q-8 -112 -80.5 -195t-178.5 -123t-228 -40q-143 0 -271 58t-206 175z" />
<glyph unicode="t" horiz-adv-x="1107" d="M45 1399v51h1018v-51h-483v-1399h-52v1399h-483z" />
<glyph unicode="u" horiz-adv-x="1378" d="M180 397v1053h51v-1053q0 -89 39 -161t104 -116t145.5 -67.5t168.5 -23.5q69 0 135 14.5t125 44.5t103 73t70 103.5t26 132.5v1053h51v-1053q0 -100 -43.5 -181t-116.5 -131.5t-163 -77.5t-187 -27t-187 27t-162 77.5t-115.5 131.5t-43.5 181z" />
<glyph unicode="v" horiz-adv-x="1232" d="M33 1450h59l522 -1391h11l510 1393h57l-533 -1452h-81z" />
<glyph unicode="w" horiz-adv-x="1898" d="M51 1450h55l412 -1378h10l387 1161h68l389 -1165h12l406 1382h55l-424 -1450h-84l-387 1184l-389 -1184h-80z" />
<glyph unicode="x" horiz-adv-x="1120" d="M53 0l477 723l-475 727h58l448 -680l447 680h59l-477 -727l475 -723h-59l-445 688l-444 -688h-64z" />
<glyph unicode="y" horiz-adv-x="1126" d="M39 1450h61l461 -817l475 817h64l-514 -875v-575h-51v575z" />
<glyph unicode="z" horiz-adv-x="1124" d="M59 25l932 1380h-891v45h942l19 -27l-932 -1378h903v-45h-952z" />
<glyph unicode="{" horiz-adv-x="538" d="M94 621v36q78 20 112 115.5t34 231.5v296q0 46 2.5 75.5t11.5 62.5t26 51.5t48 30.5t75 12h48v-43h-45q-29 0 -50 -4.5t-34 -18t-20 -25t-10.5 -39t-4 -46t-0.5 -58.5v-299q1 -155 -39.5 -247t-91.5 -113q21 -9 40.5 -28t41 -57t34.5 -108t13 -163v-301q0 -92 26 -133.5 t107 -41.5h33v-43h-35q-101 0 -139.5 54.5t-38.5 161.5v296q0 150 -32 237t-112 108z" />
<glyph unicode="|" horiz-adv-x="368" d="M162 -330v1860h45v-1860h-45z" />
<glyph unicode="}" horiz-adv-x="538" d="M88 -193h31q79 0 107 45t28 130v297q0 272 131 366q-51 21 -91.5 113t-39.5 246v294q0 37 -0.5 56t-4 45.5t-11.5 39.5t-21 26.5t-34 18.5t-50 5h-45v41h47q97 0 130.5 -57t33.5 -173v-296q0 -310 145 -347v-36q-143 -37 -143 -345v-294q0 -218 -178 -218h-35v43z" />
<glyph unicode="~" horiz-adv-x="1085" d="M162 580q34 58 89 95.5t126 37.5q44 0 91 -22.5t82 -49.5t81 -49.5t88 -22.5q60 0 104 32.5t84 92.5l21 -24q-33 -63 -87.5 -104.5t-121.5 -41.5q-53 0 -116.5 36t-123.5 72t-104 36q-111 0 -191 -115q-4 4 -12 14.5t-10 12.5z" />
<glyph unicode="&#xa2;" horiz-adv-x="950" d="M141 291v481q0 90 50 160.5t127 107.5t167 41v174h43v-174q101 -6 171.5 -39t121.5 -98l-33 -24q-40 53 -111.5 87t-148.5 31v-1013q86 3 168.5 45.5t110.5 105.5l39 -18q-39 -77 -124 -123t-194 -55v-173h-43v173q-146 16 -245 97t-99 214zM186 291q0 -112 84.5 -178.5 t214.5 -85.5v1009q-123 -5 -211.5 -74.5t-87.5 -187.5v-483z" />
<glyph unicode="&#xa3;" horiz-adv-x="1013" d="M109 0v43h213v698h-213v41h213v303q0 54 10.5 105.5t37.5 103t68 90t107.5 62.5t150.5 24q133 0 230 -77l-31 -35q-85 69 -203 69q-83 0 -147.5 -30t-101.5 -79.5t-55.5 -107t-18.5 -118.5v-310h338v-41h-338v-698h501v-43h-761z" />
<glyph unicode="&#xa5;" horiz-adv-x="1146" d="M59 1450h60l450 -840l463 840h60l-471 -852h313l-10 -47h-332v-152h342l-8 -45h-334v-354h-47v354h-338l6 45h332v152h-334l8 47h299z" />
<glyph unicode="&#xa8;" horiz-adv-x="614" d="M57 1657q0 20 14.5 34.5t34.5 14.5t35 -14.5t15 -34.5t-15 -34.5t-35 -14.5t-34.5 14.5t-14.5 34.5zM426 1657q0 20 14.5 34.5t34.5 14.5t34.5 -14.5t14.5 -34.5t-14.5 -34.5t-34.5 -14.5t-34.5 14.5t-14.5 34.5z" />
<glyph unicode="&#xa9;" horiz-adv-x="1699" d="M123 725q0 196 98 363.5t265.5 265.5t363.5 98t363.5 -98t265.5 -265.5t98 -363.5t-98 -363.5t-265.5 -265.5t-363.5 -98t-363.5 98t-265.5 265.5t-98 363.5zM170 725q0 -187 90.5 -343t246.5 -246.5t343 -90.5t343 90.5t246.5 246.5t90.5 343t-90.5 343t-246.5 246.5 t-343 90.5t-343 -90.5t-246.5 -246.5t-90.5 -343zM483 571v310q0 75 31.5 135t84 97.5t117 57t134.5 19.5q98 0 181 -34.5t132 -102.5l-35 -23q-83 115 -278 115q-85 0 -156 -27t-118.5 -87.5t-47.5 -145.5v-314q0 -87 47.5 -148.5t118.5 -88.5t156 -27q96 0 178 39.5 t119 112.5q11 -4 23 -11t20 -10q-44 -84 -137.5 -130t-202.5 -46q-70 0 -134.5 19.5t-117 57t-84 97.5t-31.5 135z" />
<glyph unicode="&#xab;" horiz-adv-x="770" d="M94 604l250 371q24 -16 31 -23q4 -4 6 -4l-234 -344q61 -90 132.5 -198.5t97.5 -145.5l-33 -22zM348 604l250 371q24 -16 31 -23q4 -4 6 -4l-238 -344q149 -220 236 -344l-35 -22z" />
<glyph unicode="&#xad;" horiz-adv-x="862" d="M156 590v49h551v-49h-551z" />
<glyph unicode="&#xae;" horiz-adv-x="1699" d="M123 725q0 196 98 363.5t265.5 265.5t363.5 98t363.5 -98t265.5 -265.5t98 -363.5t-98 -363.5t-265.5 -265.5t-363.5 -98t-363.5 98t-265.5 265.5t-98 363.5zM172 725q0 -139 53.5 -264.5t144 -216t216 -144t264.5 -53.5t264.5 53.5t216 144t144 216t53.5 264.5 t-53.5 264.5t-144 216t-216 144t-264.5 53.5t-264.5 -53.5t-216 -144t-144 -216t-53.5 -264.5zM604 324v815h279q126 0 197 -65t71 -163q0 -102 -69.5 -164.5t-176.5 -70.5l252 -352h-45l-256 348h-211v-348h-41zM645 709h176q46 0 83 4t76.5 16.5t66.5 34t44 59t17 88.5 q0 95 -68.5 142t-162.5 47h-232v-391z" />
<glyph unicode="&#xb4;" horiz-adv-x="1208" d="M580 1554l127 211h71l-147 -211h-51z" />
<glyph unicode="&#xb8;" horiz-adv-x="1169" d="M358 -379l7 37q71 -37 127 -39q72 -3 110 26.5t47 73.5q11 56 -33.5 87.5t-128.5 21.5l107 192h39l-90 -159q83 0 120.5 -43.5t26.5 -108.5q-10 -55 -63 -93t-135 -34q-59 3 -134 39z" />
<glyph unicode="&#xbb;" horiz-adv-x="768" d="M135 260l238 344q-226 329 -236 344l35 23l250 -367l-250 -371q-24 16 -31 23q-4 4 -6 4zM385 260l238 344q-226 329 -236 344l35 23l250 -367l-250 -371z" />
<glyph unicode="&#x2c6;" horiz-adv-x="573" d="M84 1546l176 193h57l177 -193h-58l-147 162l-146 -162h-59z" />
<glyph unicode="&#x2da;" horiz-adv-x="489" d="M55 1700q0 75 46 117.5t114 42.5q67 0 110.5 -48.5t43.5 -113.5q0 -62 -46 -110t-108 -48q-67 0 -113.5 44.5t-46.5 115.5zM102 1698q0 -47 32.5 -81t78.5 -34q47 0 80 35.5t33 81.5t-33 81.5t-80 35.5q-48 0 -79.5 -32.5t-31.5 -86.5z" />
<glyph unicode="&#x2dc;" horiz-adv-x="555" d="M92 1626q16 43 48 71.5t75 28.5q35 0 72.5 -24.5t71 -49t59.5 -24.5q31 0 49 16.5t31 49.5l32 -13q-32 -98 -112 -98q-34 0 -70 25t-70.5 50t-64.5 25q-61 0 -90 -69z" />
<glyph unicode="&#x401;" horiz-adv-x="1157" d="M190 0v1450h863v-51h-811v-649h749v-56h-749v-643h811v-51h-863zM389 1657q0 20 14.5 34.5t34.5 14.5t34.5 -14.5t14.5 -34.5t-14.5 -34.5t-34.5 -14.5t-34.5 14.5t-14.5 34.5zM758 1657q0 20 14.5 34.5t34.5 14.5t34.5 -14.5t14.5 -34.5t-14.5 -34.5t-34.5 -14.5 t-34.5 14.5t-14.5 34.5z" />
<glyph unicode="&#x410;" horiz-adv-x="1228" d="M37 0l536 1450h82l537 -1450h-55l-193 518h-659l-193 -518h-55zM303 569h623l-308 832h-8z" />
<glyph unicode="&#x411;" horiz-adv-x="1267" d="M190 0v1450h879v-47h-827v-598h495q217 0 326 -103.5t106 -314.5q-1 -109 -35.5 -186t-97.5 -120t-140 -62t-177 -19h-529zM242 49h479q185 -3 291 78.5t106 261.5q0 367 -397 367h-479v-707z" />
<glyph unicode="&#x412;" horiz-adv-x="1284" d="M190 0v1450h531q166 0 272.5 -93t106.5 -259q0 -96 -36.5 -173t-109.5 -120l-63 -35l72 -25q57 -24 99.5 -65.5t65 -91.5t32.5 -99.5t9 -101.5q-2 -109 -36.5 -186t-97 -120t-140 -62t-176.5 -19h-529zM242 49h479q185 -3 291 78.5t106 261.5q0 357 -397 354h-479v-694z M242 793h479q150 0 240 76t90 227q0 147 -93 227t-237 80h-479v-610z" />
<glyph unicode="&#x413;" horiz-adv-x="1054" d="M190 0v1450h820v-51h-768v-1399h-52z" />
<glyph unicode="&#x414;" horiz-adv-x="1386" d="M23 53h51q59 8 104.5 39.5t78.5 92t55.5 131.5t39 180.5t27 214t20.5 256.5l33 483h739v-1397h138v-375h-54v322h-1179v-322h-53v375zM190 53h928v1344h-637l-35 -533q-26 -385 -88.5 -578.5t-167.5 -232.5z" />
<glyph unicode="&#x415;" horiz-adv-x="1157" d="M190 0v1450h863v-51h-811v-649h749v-56h-749v-643h811v-51h-863z" />
<glyph unicode="&#x416;" horiz-adv-x="1767" d="M37 1450l78 -2l743 -836v838h51v-838l744 836l78 2l-621 -688l598 -762h-70l-565 721l-164 -182v-539h-51v539l-164 182l-565 -721h-70l598 762z" />
<glyph unicode="&#x417;" horiz-adv-x="1091" d="M68 188l43 27q144 -186 415 -186q181 -3 289.5 87.5t108.5 272.5q0 184 -104 271.5t-294 87.5h-178v43h178q149 0 239.5 77t90.5 228q0 160 -92 243.5t-238 83.5q-114 0 -206.5 -37t-147.5 -114l-41 20q119 178 395 178q168 0 273.5 -96t105.5 -276q0 -117 -46 -190 t-177 -138q78 -25 133.5 -58.5t86.5 -68t48 -80t21.5 -84.5t3.5 -92q-2 -109 -37 -189t-97 -127t-140.5 -69t-176.5 -22q-308 0 -456 208z" />
<glyph unicode="&#x418;" horiz-adv-x="1406" d="M190 0v1450h52v-1260l-2 -141h2l88 135l817 1266h70v-1450h-52v1276l2 108h-2l-73 -110l-822 -1274h-80z" />
<glyph unicode="&#x419;" horiz-adv-x="1406" d="M190 0v1450h52v-1223l-2 -178h2l106 164l797 1237h72v-1450h-52v1278l2 106h-2l-69 -106l-826 -1278h-80zM401 1886h52q22 -99 84.5 -158t169.5 -59t169.5 59t84.5 158h51q-19 -119 -100 -193.5t-205 -74.5t-205.5 74.5t-100.5 193.5z" />
<glyph unicode="&#x41a;" horiz-adv-x="1210" d="M190 0v1450h52v-881l858 881h65l-669 -698l669 -752h-59l-647 715l-217 -217v-498h-52z" />
<glyph unicode="&#x41b;" horiz-adv-x="1351" d="M12 0v51q60 0 110 23.5t85.5 62t64 99.5t46.5 123t32 146t21 156t14 164l45 625h731v-1450h-51v1399h-633l-41 -578q-7 -101 -13 -165.5t-20.5 -160.5t-32.5 -157t-50 -131.5t-73 -111t-101 -68t-134 -27.5z" />
<glyph unicode="&#x41c;" horiz-adv-x="1632" d="M190 0v1450h109l518 -1174l516 1174h109v-1450h-51v1413h-19l-520 -1184h-70l-522 1170l-18 -2v-1397h-52z" />
<glyph unicode="&#x41d;" horiz-adv-x="1398" d="M190 0v1450h52v-700h915v700h51v-1450h-51v698h-915v-698h-52z" />
<glyph unicode="&#x41e;" d="M158 391v670q0 98 46 178t122.5 129t171.5 75.5t198 26.5q82 0 160 -16t147 -50t121 -81.5t82.5 -115t30.5 -146.5v-670q0 -98 -46 -178t-123.5 -130t-173 -76.5t-198.5 -26.5t-198 26.5t-171.5 76.5t-122.5 130t-46 178zM209 391q0 -116 71.5 -199.5t179.5 -122 t236 -38.5q94 0 180 23t156 66t112 113.5t42 157.5v670q0 92 -42 163t-113 113t-156.5 63t-180.5 21q-95 -1 -179.5 -22.5t-154 -64t-110.5 -113t-41 -160.5v-670z" />
<glyph unicode="&#x41f;" horiz-adv-x="1382" d="M190 0v1450h1002v-1450h-51v1399h-899v-1399h-52z" />
<glyph unicode="&#x420;" horiz-adv-x="1232" d="M190 0v1450h512q107 -1 193.5 -40t140.5 -102t82.5 -139.5t28.5 -158.5q0 -81 -28.5 -156.5t-81.5 -137.5t-139 -99.5t-193 -38.5h-463v-578h-52zM242 629h460q96 0 173 33t124 88t72 122.5t25 139.5q0 73 -25.5 141.5t-73 124.5t-124 90t-171.5 35h-460v-774z" />
<glyph unicode="&#x421;" horiz-adv-x="1196" d="M160 385v680q0 96 44 175t117.5 128t164 75.5t188.5 26.5q143 0 265.5 -53.5t184.5 -154.5l-45 -33q-55 91 -168.5 141.5t-242.5 50.5q-116 0 -218 -40.5t-170.5 -126t-68.5 -199.5v-670q0 -86 39.5 -155t105 -111.5t146 -65t166.5 -22.5q129 0 241 46.5t170 135.5 l45 -23q-62 -101 -187 -155.5t-269 -54.5q-77 0 -150 16t-138 49.5t-114 81t-77.5 114t-28.5 144.5z" />
<glyph unicode="&#x422;" horiz-adv-x="1107" d="M45 1399v51h1018v-51h-483v-1399h-52v1399h-483z" />
<glyph unicode="&#x423;" horiz-adv-x="1036" d="M6 1450h66l354 -731l104 -213h2l89 199l335 745h60l-658 -1450h-59l203 442z" />
<glyph unicode="&#x424;" horiz-adv-x="1484" d="M123 522v406q0 84 33.5 147t87.5 100t134 60t160 31t179 8v176h51v-176q99 0 179 -8t160 -31t134 -60t87.5 -100t33.5 -147v-406q0 -84 -33.5 -147t-87.5 -100t-134 -60t-160 -31t-179 -8v-176h-51v176q-99 0 -179 8t-160 31t-134 60t-87.5 100t-33.5 147zM174 522 q0 -73 33 -128t84.5 -86t126.5 -50t145 -25t154 -6v996q-84 0 -154 -6t-145 -25t-126.5 -50t-84.5 -86t-33 -128v-406zM768 227q84 0 154 6t145 25t126.5 50t84.5 86t33 128v406q0 73 -33 128t-84.5 86t-126.5 50t-145 25t-154 6v-996z" />
<glyph unicode="&#x425;" horiz-adv-x="1120" d="M53 0l477 723l-475 727h58l448 -680l447 680h59l-471 -723l469 -727h-59l-445 688l-444 -688h-64z" />
<glyph unicode="&#x426;" horiz-adv-x="1390" d="M188 0v1450h52v-1397h882v1397h54v-1397h137v-375h-53v322h-1072z" />
<glyph unicode="&#x427;" horiz-adv-x="1236" d="M119 920v530h51v-530q0 -91 33.5 -163.5t90.5 -117t126.5 -67.5t146.5 -23q139 0 238 55.5t190 161.5v684h52v-1450h-52v700q-183 -202 -428 -202q-93 0 -173 26.5t-142 77.5t-97.5 132.5t-35.5 185.5z" />
<glyph unicode="&#x428;" horiz-adv-x="1804" d="M190 0v1450h52v-1399h635v1399h51v-1399h635v1399h51v-1450h-1424z" />
<glyph unicode="&#x429;" horiz-adv-x="1826" d="M186 0v1450h52v-1397h634v1397h52v-1397h635v1397h53v-1397h135v-375h-51v322h-1510z" />
<glyph unicode="&#x42a;" horiz-adv-x="1386" d="M49 1401v49h330v-619h483q219 0 327 -108t105 -336q-1 -109 -35.5 -186t-97.5 -120t-140 -62t-177 -19h-516v1401h-279zM379 49h467q397 0 397 340q0 207 -102 300t-295 93h-467v-733z" />
<glyph unicode="&#x42b;" horiz-adv-x="1658" d="M190 0v1450h52v-619h483q219 0 327 -108t105 -336q-1 -109 -35.5 -186t-97.5 -120t-140 -62t-177 -19h-517zM242 49h467q397 0 397 340q0 207 -102 300t-295 93h-467v-733zM1417 0v1450h51v-1450h-51z" />
<glyph unicode="&#x42c;" horiz-adv-x="1249" d="M190 0v1450h52v-619h483q219 0 327 -108t105 -336q-1 -109 -35.5 -186t-97.5 -120t-140 -62t-177 -19h-517zM242 49h467q397 0 397 340q0 207 -102 300t-295 93h-467v-733z" />
<glyph unicode="&#x42d;" horiz-adv-x="1218" d="M94 190l45 23q58 -89 170 -135.5t242 -46.5q86 0 166.5 22.5t146 65t105 111.5t39.5 155v313h-693v56h693v311q0 86 -39.5 155.5t-105 112.5t-146 65.5t-166.5 22.5q-130 0 -244.5 -50.5t-169.5 -141.5l-43 33q62 100 186 154t267 54q103 0 195 -26.5t163 -76 t112.5 -127.5t41.5 -175v-680q0 -78 -28.5 -144.5t-77.5 -114t-114 -81t-138 -49.5t-150 -16q-144 0 -269.5 54.5t-187.5 155.5z" />
<glyph unicode="&#x42e;" horiz-adv-x="1882" d="M186 0v1450h52v-694h415v305q0 101 46 181t123 128.5t171.5 74t198.5 25.5q83 0 160 -15.5t147 -48t121.5 -79.5t82 -115.5t30.5 -150.5v-668q0 -81 -30.5 -149.5t-82.5 -116t-121 -81t-147 -49t-160 -15.5q-104 0 -198.5 25.5t-171.5 74.5t-123 129.5t-46 181.5v312 h-415v-705h-52zM705 393q0 -116 71.5 -199.5t179.5 -122t236 -38.5q94 0 180 23t156 66t111.5 113.5t41.5 157.5v668q0 74 -28 135t-74.5 102t-110 69t-133.5 41t-145 13q-95 -1 -179.5 -22.5t-154 -64t-110.5 -113t-41 -160.5v-668z" />
<glyph unicode="&#x42f;" horiz-adv-x="1271" d="M76 0l549 633q-104 0 -192.5 21t-161.5 64.5t-114.5 120.5t-41.5 181q0 89 27.5 164.5t83.5 136t149.5 95t216.5 34.5h489v-1450h-51l4 633h-344l-549 -633h-65zM166 1020q0 -86 40.5 -153.5t106 -106t139.5 -58.5t150 -20h432l-4 719h-455q-107 0 -188.5 -32t-128 -87 t-69.5 -121t-23 -141z" />
<glyph unicode="&#x430;" horiz-adv-x="1228" d="M37 0l536 1450h82l537 -1450h-55l-193 518h-659l-193 -518h-55zM303 569h623l-308 832h-8z" />
<glyph unicode="&#x431;" horiz-adv-x="1267" d="M190 0v1450h879v-47h-827v-598h495q217 0 326 -103.5t106 -314.5q-1 -109 -35.5 -186t-97.5 -120t-140 -62t-177 -19h-529zM242 49h479q185 -3 291 78.5t106 261.5q0 367 -397 367h-479v-707z" />
<glyph unicode="&#x432;" horiz-adv-x="1284" d="M190 0v1450h531q166 0 272.5 -93t106.5 -259q0 -96 -36.5 -173t-109.5 -120l-63 -35l72 -25q57 -24 99.5 -65.5t65 -91.5t32.5 -99.5t9 -101.5q-2 -109 -36.5 -186t-97 -120t-140 -62t-176.5 -19h-529zM242 49h479q185 -3 291 78.5t106 261.5q0 357 -397 354h-479v-694z M242 793h479q150 0 240 76t90 227q0 147 -93 227t-237 80h-479v-610z" />
<glyph unicode="&#x433;" horiz-adv-x="1054" d="M190 0v1450h820v-51h-768v-1399h-52z" />
<glyph unicode="&#x434;" horiz-adv-x="1372" d="M39 53h137l471 1397h76l473 -1397h137v-375h-53v322h-1188v-322h-53v375zM231 53h912l-459 1348z" />
<glyph unicode="&#x435;" horiz-adv-x="1157" d="M190 0v1450h863v-51h-811v-649h749v-56h-749v-643h811v-51h-863z" />
<glyph unicode="&#x436;" horiz-adv-x="1767" d="M37 1450l78 -2l743 -836v838h51v-838l744 836l78 2l-621 -688l598 -762h-70l-565 721l-164 -182v-539h-51v539l-164 182l-565 -721h-70l598 762z" />
<glyph unicode="&#x437;" horiz-adv-x="1091" d="M68 188l43 27q144 -186 415 -186q181 -3 289.5 87.5t108.5 272.5q0 184 -104 271.5t-294 87.5h-178v43h178q149 0 239.5 77t90.5 228q0 160 -92 243.5t-238 83.5q-114 0 -206.5 -37t-147.5 -114l-41 20q119 178 395 178q168 0 273.5 -96t105.5 -276q0 -117 -46 -190 t-177 -138q78 -25 133.5 -58.5t86.5 -68t48 -80t21.5 -84.5t3.5 -92q-2 -109 -37 -189t-97 -127t-140.5 -69t-176.5 -22q-308 0 -456 208z" />
<glyph unicode="&#x438;" horiz-adv-x="1406" d="M190 0v1450h52v-1260l-2 -141h2l88 135l817 1266h70v-1450h-52v1276l2 108h-2l-73 -110l-822 -1274h-80z" />
<glyph unicode="&#x439;" horiz-adv-x="1406" d="M190 0v1450h52v-1223l-2 -178h2l106 164l797 1237h72v-1450h-52v1278l2 106h-2l-69 -106l-826 -1278h-80zM401 1886h52q22 -99 84.5 -158t169.5 -59t169.5 59t84.5 158h51q-19 -119 -100 -193.5t-205 -74.5t-205.5 74.5t-100.5 193.5z" />
<glyph unicode="&#x43a;" horiz-adv-x="1210" d="M190 0v1450h52v-881l858 881h65l-669 -698l669 -752h-59l-647 715l-217 -217v-498h-52z" />
<glyph unicode="&#x43b;" horiz-adv-x="1204" d="M39 0l514 1450h96l516 -1450h-57l-397 1133l-107 290h-10l-105 -299l-395 -1124h-55z" />
<glyph unicode="&#x43c;" horiz-adv-x="1632" d="M190 0v1450h109l518 -1174l516 1174h109v-1450h-51v1413h-19l-520 -1184h-70l-522 1170l-18 -2v-1397h-52z" />
<glyph unicode="&#x43d;" horiz-adv-x="1398" d="M190 0v1450h52v-700h915v700h51v-1450h-51v698h-915v-698h-52z" />
<glyph unicode="&#x43e;" d="M158 391v670q0 98 46 178t122.5 129t171.5 75.5t198 26.5q82 0 160 -16t147 -50t121 -81.5t82.5 -115t30.5 -146.5v-670q0 -98 -46 -178t-123.5 -130t-173 -76.5t-198.5 -26.5t-198 26.5t-171.5 76.5t-122.5 130t-46 178zM209 391q0 -116 71.5 -199.5t179.5 -122 t236 -38.5q94 0 180 23t156 66t112 113.5t42 157.5v670q0 92 -42 163t-113 113t-156.5 63t-180.5 21q-95 -1 -179.5 -22.5t-154 -64t-110.5 -113t-41 -160.5v-670z" />
<glyph unicode="&#x43f;" horiz-adv-x="1382" d="M190 0v1450h1002v-1450h-51v1399h-899v-1399h-52z" />
<glyph unicode="&#x440;" horiz-adv-x="1232" d="M190 0v1450h512q107 -1 193.5 -40t140.5 -102t82.5 -139.5t28.5 -158.5q0 -81 -28.5 -156.5t-81.5 -137.5t-139 -99.5t-193 -38.5h-463v-578h-52zM242 629h460q96 0 173 33t124 88t72 122.5t25 139.5q0 73 -25.5 141.5t-73 124.5t-124 90t-171.5 35h-460v-774z" />
<glyph unicode="&#x441;" horiz-adv-x="1196" d="M160 385v680q0 96 44 175t117.5 128t164 75.5t188.5 26.5q143 0 265.5 -53.5t184.5 -154.5l-45 -33q-55 91 -168.5 141.5t-242.5 50.5q-116 0 -218 -40.5t-170.5 -126t-68.5 -199.5v-670q0 -86 39.5 -155t105 -111.5t146 -65t166.5 -22.5q129 0 241 46.5t170 135.5 l45 -23q-62 -101 -187 -155.5t-269 -54.5q-77 0 -150 16t-138 49.5t-114 81t-77.5 114t-28.5 144.5z" />
<glyph unicode="&#x442;" horiz-adv-x="1107" d="M45 1399v51h1018v-51h-483v-1399h-52v1399h-483z" />
<glyph unicode="&#x443;" horiz-adv-x="1036" d="M6 1450h66l354 -731l104 -213h2l89 199l335 745h60l-658 -1450h-59l203 442z" />
<glyph unicode="&#x444;" horiz-adv-x="1484" d="M123 522v406q0 84 33.5 147t87.5 100t134 60t160 31t179 8v176h51v-176q99 0 179 -8t160 -31t134 -60t87.5 -100t33.5 -147v-406q0 -84 -33.5 -147t-87.5 -100t-134 -60t-160 -31t-179 -8v-176h-51v176q-99 0 -179 8t-160 31t-134 60t-87.5 100t-33.5 147zM174 522 q0 -73 33 -128t84.5 -86t126.5 -50t145 -25t154 -6v996q-84 0 -154 -6t-145 -25t-126.5 -50t-84.5 -86t-33 -128v-406zM768 227q84 0 154 6t145 25t126.5 50t84.5 86t33 128v406q0 73 -33 128t-84.5 86t-126.5 50t-145 25t-154 6v-996z" />
<glyph unicode="&#x445;" horiz-adv-x="1120" d="M53 0l477 723l-475 727h58l448 -680l447 680h59l-471 -723l469 -727h-59l-445 688l-444 -688h-64z" />
<glyph unicode="&#x446;" horiz-adv-x="1390" d="M188 0v1450h52v-1397h882v1397h54v-1397h137v-375h-53v322h-1072z" />
<glyph unicode="&#x447;" horiz-adv-x="1236" d="M119 920v530h51v-530q0 -91 33.5 -163.5t90.5 -117t126.5 -67.5t146.5 -23q139 0 238 55.5t190 161.5v684h52v-1450h-52v700q-183 -202 -428 -202q-93 0 -173 26.5t-142 77.5t-97.5 132.5t-35.5 185.5z" />
<glyph unicode="&#x448;" horiz-adv-x="1804" d="M190 0v1450h52v-1399h635v1399h51v-1399h635v1399h51v-1450h-1424z" />
<glyph unicode="&#x449;" horiz-adv-x="1826" d="M186 0v1450h52v-1397h634v1397h52v-1397h635v1397h53v-1397h135v-375h-51v322h-1510z" />
<glyph unicode="&#x44a;" horiz-adv-x="1386" d="M49 1401v49h330v-619h483q219 0 327 -108t105 -336q-1 -109 -35.5 -186t-97.5 -120t-140 -62t-177 -19h-516v1401h-279zM379 49h467q397 0 397 340q0 207 -102 300t-295 93h-467v-733z" />
<glyph unicode="&#x44b;" horiz-adv-x="1658" d="M190 0v1450h52v-619h483q219 0 327 -108t105 -336q-1 -109 -35.5 -186t-97.5 -120t-140 -62t-177 -19h-517zM242 49h467q397 0 397 340q0 207 -102 300t-295 93h-467v-733zM1417 0v1450h51v-1450h-51z" />
<glyph unicode="&#x44c;" horiz-adv-x="1249" d="M190 0v1450h52v-619h483q219 0 327 -108t105 -336q-1 -109 -35.5 -186t-97.5 -120t-140 -62t-177 -19h-517zM242 49h467q397 0 397 340q0 207 -102 300t-295 93h-467v-733z" />
<glyph unicode="&#x44d;" horiz-adv-x="1218" d="M94 190l45 23q58 -89 170 -135.5t242 -46.5q86 0 166.5 22.5t146 65t105 111.5t39.5 155v313h-693v56h693v311q0 86 -39.5 155.5t-105 112.5t-146 65.5t-166.5 22.5q-130 0 -244.5 -50.5t-169.5 -141.5l-43 33q62 100 186 154t267 54q103 0 195 -26.5t163 -76 t112.5 -127.5t41.5 -175v-680q0 -78 -28.5 -144.5t-77.5 -114t-114 -81t-138 -49.5t-150 -16q-144 0 -269.5 54.5t-187.5 155.5z" />
<glyph unicode="&#x44e;" horiz-adv-x="1882" d="M186 0v1450h52v-694h415v305q0 101 46 181t123 128.5t171.5 74t198.5 25.5q83 0 160 -15.5t147 -48t121.5 -79.5t82 -115.5t30.5 -150.5v-668q0 -81 -30.5 -149.5t-82.5 -116t-121 -81t-147 -49t-160 -15.5q-104 0 -198.5 25.5t-171.5 74.5t-123 129.5t-46 181.5v312 h-415v-705h-52zM705 393q0 -116 71.5 -199.5t179.5 -122t236 -38.5q94 0 180 23t156 66t111.5 113.5t41.5 157.5v668q0 74 -28 135t-74.5 102t-110 69t-133.5 41t-145 13q-95 -1 -179.5 -22.5t-154 -64t-110.5 -113t-41 -160.5v-668z" />
<glyph unicode="&#x44f;" horiz-adv-x="1271" d="M76 0l549 633q-104 0 -192.5 21t-161.5 64.5t-114.5 120.5t-41.5 181q0 89 27.5 164.5t83.5 136t149.5 95t216.5 34.5h489v-1450h-51l4 633h-344l-549 -633h-65zM166 1020q0 -86 40.5 -153.5t106 -106t139.5 -58.5t150 -20h432l-4 719h-455q-107 0 -188.5 -32t-128 -87 t-69.5 -121t-23 -141z" />
<glyph unicode="&#x451;" horiz-adv-x="1157" d="M190 0v1450h863v-51h-811v-649h749v-56h-749v-643h811v-51h-863zM389 1657q0 20 14.5 34.5t34.5 14.5t34.5 -14.5t14.5 -34.5t-14.5 -34.5t-34.5 -14.5t-34.5 14.5t-14.5 34.5zM758 1657q0 20 14.5 34.5t34.5 14.5t34.5 -14.5t14.5 -34.5t-14.5 -34.5t-34.5 -14.5 t-34.5 14.5t-14.5 34.5z" />
<glyph unicode="&#x2000;" horiz-adv-x="943" />
<glyph unicode="&#x2001;" horiz-adv-x="1886" />
<glyph unicode="&#x2002;" horiz-adv-x="943" />
<glyph unicode="&#x2003;" horiz-adv-x="1886" />
<glyph unicode="&#x2004;" horiz-adv-x="628" />
<glyph unicode="&#x2005;" horiz-adv-x="471" />
<glyph unicode="&#x2006;" horiz-adv-x="314" />
<glyph unicode="&#x2007;" horiz-adv-x="314" />
<glyph unicode="&#x2008;" horiz-adv-x="235" />
<glyph unicode="&#x2009;" horiz-adv-x="377" />
<glyph unicode="&#x200a;" horiz-adv-x="104" />
<glyph unicode="&#x2010;" horiz-adv-x="862" d="M156 590v49h551v-49h-551z" />
<glyph unicode="&#x2011;" horiz-adv-x="862" d="M156 590v49h551v-49h-551z" />
<glyph unicode="&#x2012;" horiz-adv-x="862" d="M156 590v49h551v-49h-551z" />
<glyph unicode="&#x2013;" horiz-adv-x="1191" d="M156 590v47h880v-47h-880z" />
<glyph unicode="&#x2014;" horiz-adv-x="2076" d="M156 590v47h1765v-47h-1765z" />
<glyph unicode="&#x2018;" horiz-adv-x="411" d="M133 1090l113 360h51l-92 -360h-72z" />
<glyph unicode="&#x2019;" horiz-adv-x="411" d="M135 1087l98 363h76l-129 -363h-45z" />
<glyph unicode="&#x201a;" horiz-adv-x="382" d="M53 -248l107 316h78l-138 -316h-47z" />
<glyph unicode="&#x201c;" horiz-adv-x="643" d="M133 1090q22 68 63.5 188t59.5 174h47l-96 -362h-74zM360 1090q22 68 63.5 188t59.5 174h47l-96 -362h-74z" />
<glyph unicode="&#x201d;" horiz-adv-x="626" d="M135 1075l80 375h72q-17 -57 -53 -184t-56 -191h-43zM365 1075l79 375h72q-17 -58 -53 -185t-55 -190h-43z" />
<glyph unicode="&#x201e;" horiz-adv-x="657" d="M57 -248l107 318h76l-136 -318h-47zM315 -248l107 318h84l-144 -318h-47z" />
<glyph unicode="&#x2026;" horiz-adv-x="1247" d="M158 59q0 26 18.5 45t44.5 19t45 -19t19 -45t-19 -44.5t-45 -18.5t-44.5 18.5t-18.5 44.5zM555 61q0 26 18.5 45t44.5 19t45 -19t19 -45t-19 -44.5t-45 -18.5t-44.5 18.5t-18.5 44.5zM963 66q0 26 18.5 44.5t44.5 18.5t45 -18.5t19 -44.5t-19 -45t-45 -19t-44.5 19 t-18.5 45z" />
<glyph unicode="&#x202f;" horiz-adv-x="377" />
<glyph unicode="&#x2039;" horiz-adv-x="520" d="M94 604l250 371q1 -1 19 -10t22 -13q3 -3 -233 -348q185 -273 235 -344l-43 -22z" />
<glyph unicode="&#x203a;" horiz-adv-x="522" d="M135 948l41 23l250 -367l-250 -371q-1 1 -18 10t-21 13q-3 3 234 348q-226 329 -236 344z" />
<glyph unicode="&#x205f;" horiz-adv-x="471" />
<glyph unicode="&#x20ac;" horiz-adv-x="1220" d="M94 586l8 43h117v168h-117l11 45h106v217q0 98 40.5 177.5t107 129.5t149.5 77t172 27q128 0 241.5 -55.5t176.5 -157.5l-43 -24q-53 91 -158 140.5t-217 49.5q-81 0 -155 -22.5t-134 -66t-95.5 -114.5t-35.5 -161v-217h555l-10 -45h-545v-168h561l-10 -43h-551v-197 q0 -87 35.5 -157.5t94.5 -114t132 -67t152 -23.5q118 0 220 48.5t165 141.5l39 -24q-63 -102 -178 -157.5t-246 -55.5q-88 0 -169.5 26.5t-147.5 75.5t-106 129t-40 178v197h-125z" />
<glyph unicode="&#x2122;" horiz-adv-x="1687" d="M80 1419v31h569v-31h-266v-698h-37v698h-266zM817 721v729h66l284 -612q93 205 157.5 343t91 192.5t36.5 76.5h66v-729h-37l2 706h-6l-285 -612h-49l-283 606h-8v-700h-35z" />
<glyph unicode="&#x25fc;" horiz-adv-x="1454" d="M0 0v1454h1454v-1454h-1454z" />
</font>
</defs>
</svg>
