<?xml version="1.0" standalone="no"?>
<!DOCTYPE svg PUBLIC "-//W3C//DTD SVG 1.1//EN" "http://www.w3.org/Graphics/SVG/1.1/DTD/svg11.dtd" >
<svg xmlns="http://www.w3.org/2000/svg">
<metadata></metadata>
<defs>
<font id="PTSansNB" horiz-adv-x="978" >
<font-face units-per-em="2048" ascent="1577" descent="-471" />
<missing-glyph horiz-adv-x="419" />
<glyph horiz-adv-x="0" />
<glyph horiz-adv-x="2048" />
<glyph unicode=" "  horiz-adv-x="419" />
<glyph unicode="&#x09;" horiz-adv-x="419" />
<glyph unicode="&#xa0;" horiz-adv-x="419" />
<glyph unicode="!" horiz-adv-x="514" d="M147 133q0 74 39.5 114t106.5 40q72 0 110.5 -39.5t38.5 -114.5q0 -73 -40 -114.5t-109 -41.5q-68 0 -107 41.5t-39 114.5zM170 760v674h252v-674l-49 -334h-154z" />
<glyph unicode="&#x22;" horiz-adv-x="718" d="M150 991v443h210l-63 -443h-147zM424 991v443h211l-64 -443h-147z" />
<glyph unicode="#" d="M31 420l43 194h119l45 226h-123l43 194h116l60 295h201l-60 -295h141l60 295h198l-59 -295h121l-45 -194h-113l-45 -226h119l-45 -194h-111l-61 -316h-201l62 316h-142l-61 -316h-199l62 316h-125zM393 614h142l43 226h-142z" />
<glyph unicode="$" d="M111 1075q0 155 75.5 250t210.5 125v188h195v-180q129 -8 231 -59l-67 -213q-67 38 -164 49v-404q51 -31 85.5 -55.5t77.5 -65.5t69 -82.5t44.5 -100.5t18.5 -126q0 -172 -78 -276t-217 -137v-193h-195v178q-181 8 -278 70l67 219q69 -52 211 -67v450q-50 29 -85 53 t-76 63t-66 81t-42 102t-17 131zM354 1092q0 -59 33.5 -103.5t95.5 -87.5v338q-68 -7 -98.5 -48t-30.5 -99zM508 197q64 12 97.5 59.5t33.5 118.5q0 64 -33.5 110.5t-97.5 89.5v-378z" />
<glyph unicode="%" horiz-adv-x="1474" d="M84 1110q0 179 82 263.5t225 84.5q309 0 309 -348t-309 -348q-145 0 -226 81t-81 267zM164 92l1014 1370l143 -119l-1012 -1372zM301 1110q0 -97 21 -137.5t69 -40.5q51 0 71.5 37t20.5 141q0 101 -21.5 139.5t-70.5 38.5t-69.5 -38.5t-20.5 -139.5zM797 350 q0 179 82 263.5t225 84.5q309 0 309 -348t-309 -348q-145 0 -226 81t-81 267zM1014 350q0 -97 21 -137.5t69 -40.5q51 0 71.5 37t20.5 141q0 101 -21.5 139.5t-70.5 38.5t-69.5 -38.5t-20.5 -139.5z" />
<glyph unicode="&#x26;" horiz-adv-x="1374" d="M143 397q0 147 78 272t207 214q-98 155 -98 288q0 55 17 104.5t52 92.5t96.5 68.5t141.5 25.5q151 0 225 -74t74 -186q0 -193 -219 -354q125 -238 239 -381q34 46 60 109.5t55 158.5l182 -84q-20 -73 -68 -175t-89 -161q80 -95 182 -157l-125 -187q-104 49 -209 170 q-152 -170 -373 -170q-191 0 -309.5 112.5t-118.5 313.5zM387 416q0 -103 58 -162t153 -59q62 0 117.5 31.5t87.5 76.5q-175 232 -262 414q-79 -79 -116.5 -146.5t-37.5 -154.5zM573 1159q0 -87 60 -184q112 95 112 184q0 49 -22.5 78t-65.5 29q-40 0 -62 -29t-22 -78z" />
<glyph unicode="'" horiz-adv-x="444" d="M150 991v443h210l-63 -443h-147z" />
<glyph unicode="(" horiz-adv-x="569" d="M98 498q0 250 70 508.5t217 451.5l164 -92q-105 -182 -156 -412t-51 -456q0 -217 53 -453t156 -397l-170 -99q-145 182 -214 438.5t-69 510.5z" />
<glyph unicode=")" horiz-adv-x="569" d="M18 -356q209 348 209 866q0 213 -54.5 450.5t-154.5 403.5l170 94q145 -182 214 -438t69 -510q0 -250 -70 -509t-217 -452z" />
<glyph unicode="*" horiz-adv-x="661" d="M59 1118v146h111l102 -33l-92 84l-51 96l123 72l49 -88l27 -115l22 106l53 97l121 -70l-55 -100l-86 -82l113 31h106v-144h-102l-107 33l92 -92l45 -82l-122 -72l-50 88l-32 125l-21 -112l-53 -97l-123 72l55 98l80 70l-96 -31h-109z" />
<glyph unicode="+" horiz-adv-x="909" d="M78 588v217h264v299h225v-299h264v-217h-264v-301h-225v301h-264z" />
<glyph unicode="," horiz-adv-x="442" d="M57 -203q48 25 84.5 79.5t40.5 109.5q-47 -2 -80.5 36t-33.5 111q0 68 40 109t103 41q78 0 120 -55t42 -154q0 -69 -17.5 -128.5t-42.5 -98.5t-59.5 -71t-63 -49t-57.5 -28z" />
<glyph unicode="-" horiz-adv-x="610" d="M92 471v234h426v-234h-426z" />
<glyph unicode="." horiz-adv-x="434" d="M70 133q0 74 39 114t106 40q72 0 111 -39.5t39 -114.5q0 -73 -40.5 -114.5t-109.5 -41.5q-68 0 -106.5 41.5t-38.5 114.5z" />
<glyph unicode="/" horiz-adv-x="714" d="M-37 -215l602 1673l187 -72l-600 -1673z" />
<glyph unicode="0" d="M72 719q0 263 49 429.5t140 240t228 73.5q145 0 236.5 -74t137.5 -238.5t46 -430.5q0 -200 -28 -344.5t-83 -233t-131 -129.5t-178 -41q-216 0 -316.5 177t-100.5 571zM315 719q0 -277 42 -404t135 -127t133.5 122t40.5 409q0 276 -41 401t-136 125q-93 0 -133.5 -121.5 t-40.5 -404.5z" />
<glyph unicode="1" d="M106 1073l396 385h143v-1241h229v-217h-696v217h234v805l26 139l-84 -121l-135 -104z" />
<glyph unicode="2" d="M121 1337q148 125 356 125q154 0 250 -96.5t96 -275.5q0 -132 -53 -290.5t-123 -285t-151 -233.5l-90 -84v-11l122 31h318v-217h-719v141q74 91 145 193.5t146 230.5t119 256.5t38 225.5q5 89 -37 140.5t-128 51.5q-49 0 -102.5 -23t-92.5 -57z" />
<glyph unicode="3" d="M133 35l66 205q96 -52 211 -52q97 0 150.5 66.5t53.5 173.5q0 231 -229 231h-121v140l203 344l98 92l-135 -18h-280v217h655v-146l-238 -387l-75 -55v-10l75 12q126 -8 208.5 -111.5t82.5 -292.5q0 -116 -33.5 -207.5t-92.5 -149t-137 -87t-169 -29.5q-79 0 -162 17 t-131 47z" />
<glyph unicode="4" d="M35 399v152l524 893h213v-836h180v-209h-180v-399h-231v399h-506zM250 592l104 16h187v318l22 184h-8l-61 -166l-162 -274z" />
<glyph unicode="5" d="M117 27l63 206q72 -38 195 -38q108 0 166.5 70t58.5 186q0 126 -66 184.5t-196 58.5l-133 -8v748h596v-238h-387v-293l67 8q168 -6 265.5 -124t97.5 -326q0 -235 -126.5 -362.5t-330.5 -127.5q-73 0 -148 15.5t-122 40.5z" />
<glyph unicode="6" d="M88 514q0 163 33 306t90 249.5t134.5 189t166.5 132.5t186 71l62 -198q-160 -41 -273.5 -173.5t-150.5 -316.5q79 111 219 111q154 0 248 -113t94 -328t-110.5 -344t-284.5 -129q-189 0 -301.5 135t-112.5 408zM324 459q0 -114 44 -192.5t128 -78.5q75 0 120.5 63.5 t45.5 178.5q0 124 -41.5 181t-128.5 57q-58 0 -102 -33t-64 -84q-2 -31 -2 -92z" />
<glyph unicode="7" d="M106 1200v234h777v-78l-465 -1356h-238l387 1120l74 101l-102 -21h-433z" />
<glyph unicode="8" d="M102 344q0 135 54.5 225.5t148.5 161.5q-84 67 -128 151t-44 201q0 174 98 276.5t267 102.5q158 0 253 -91.5t95 -254.5q0 -117 -42.5 -201t-131.5 -159q106 -74 155.5 -165t49.5 -224q0 -182 -110.5 -289t-281.5 -107q-173 0 -278 99.5t-105 273.5zM326 391 q0 -89 43.5 -146t119.5 -57q71 0 111.5 45.5t40.5 133.5q0 46 -13.5 85t-42.5 72t-51.5 52.5t-63.5 51.5l-6 4.5t-5 4t-6 4.5q-127 -98 -127 -250zM367 1079q0 -84 42.5 -139t120.5 -104q49 58 72 112t23 121q0 82 -36.5 129t-92.5 47q-64 0 -96.5 -47.5t-32.5 -118.5z" />
<glyph unicode="9" d="M76 985q0 221 104.5 349t296.5 128q195 0 306.5 -138t111.5 -402q0 -185 -33.5 -338.5t-91.5 -260t-138 -183t-169 -117t-189 -52.5l-57 205q179 36 283.5 156.5t134.5 304.5q-38 -51 -83.5 -71.5t-117.5 -20.5q-67 0 -129 26.5t-114 78t-83.5 138.5t-31.5 197zM311 999 q0 -114 49 -175.5t129 -61.5q114 0 164 82q6 31 6 94q0 137 -45.5 222t-138.5 85q-78 0 -121 -65t-43 -181z" />
<glyph unicode=":" horiz-adv-x="514" d="M158 133q0 74 39 114t106 40q72 0 111 -39.5t39 -114.5q0 -73 -40.5 -114.5t-109.5 -41.5q-68 0 -106.5 41.5t-38.5 114.5zM158 874q0 74 39 114t106 40q72 0 111 -39.5t39 -114.5q0 -73 -40 -114t-110 -41q-68 0 -106.5 41t-38.5 114z" />
<glyph unicode=";" horiz-adv-x="514" d="M137 -203q48 25 84.5 79.5t40.5 109.5q-47 -2 -81 36t-34 111q0 68 40.5 109t103.5 41q78 0 120 -55t42 -154q0 -69 -17.5 -128.5t-42.5 -98.5t-59.5 -71t-63 -49t-57.5 -28zM150 874q0 74 39 114t106 40q72 0 110.5 -39.5t38.5 -114.5q0 -73 -40 -114t-109 -41 q-68 0 -106.5 41t-38.5 114z" />
<glyph unicode="&#x3c;" horiz-adv-x="909" d="M72 584v143l637 455l122 -166l-380 -285l-154 -72l152 -63l391 -281l-123 -165z" />
<glyph unicode="=" horiz-adv-x="909" d="M78 393v217h753v-217h-753zM78 784v217h753v-217h-753z" />
<glyph unicode="&#x3e;" horiz-adv-x="909" d="M70 1018l127 162l641 -432v-144l-633 -450l-127 163l383 283l151 74l-151 61z" />
<glyph unicode="?" horiz-adv-x="782" d="M39 1350q149 112 358 112q165 0 258 -89.5t93 -250.5q0 -78 -17 -142t-44.5 -108t-60.5 -82.5t-66 -74.5t-60.5 -75t-44.5 -93.5t-17 -120.5h-207q-8 90 8 165.5t46 124.5t66.5 97.5t68.5 85.5t54 87t22 104q0 155 -146 155q-54 0 -113.5 -22t-101.5 -58zM199 133 q0 74 39 114t106 40q72 0 111 -39.5t39 -114.5q0 -73 -40.5 -114.5t-109.5 -41.5q-68 0 -106.5 41.5t-38.5 114.5z" />
<glyph unicode="@" horiz-adv-x="1804" d="M117 483q0 168 44.5 315t122.5 255t182.5 186t227 117t252.5 39q158 0 292.5 -46.5t235 -135.5t157.5 -229t57 -316q0 -177 -68 -321.5t-182.5 -225t-249.5 -80.5q-92 0 -146.5 46t-50.5 146h-6q-116 -192 -276 -192q-91 0 -151 79.5t-60 215.5q0 179 57.5 333.5 t154 244.5t208.5 90q98 0 174 -76l51 63h135l-80 -559q-24 -186 59 -186q91 0 157.5 108t66.5 314q0 138 -39.5 242t-112.5 167t-169.5 94t-215.5 31q-174 0 -315 -89.5t-223 -253.5t-82 -372q0 -311 154 -476t437 -165q125 0 234 56l59 -178q-131 -70 -319 -70 q-131 0 -245.5 31t-212 96.5t-167 161.5t-108.5 234t-39 306zM723 395q0 -149 96 -149q42 0 88.5 47.5t79.5 114.5l47 348q-37 43 -96 43q-90 0 -152.5 -122.5t-62.5 -281.5z" />
<glyph unicode="A" horiz-adv-x="1026" d="M-6 0l416 1444h202l418 -1444h-270l-88 324h-338l-84 -324h-256zM389 537h238l-82 333l-33 226h-8l-35 -228z" />
<glyph unicode="B" horiz-adv-x="1003" d="M92 10v1413q174 31 365 31q78 0 141 -8.5t123 -32.5t100.5 -62t65 -101.5t24.5 -147.5q0 -75 -19.5 -140t-67 -120t-119.5 -78v-12q241 -61 241 -349q0 -108 -37.5 -191t-103.5 -132.5t-149.5 -74.5t-182.5 -25q-266 0 -381 30zM350 215q35 -12 129 -12q89 0 143 57 t54 160q0 65 -17.5 107.5t-51 62t-68.5 26.5t-84 7h-105v-408zM350 825h60q54 0 100 11q65 25 104 77t39 129q0 189 -184 189q-88 0 -119 -8v-398z" />
<glyph unicode="C" horiz-adv-x="935" d="M59 719q0 168 30.5 299.5t80.5 213.5t120.5 135t144 74t157.5 21q173 0 297 -53l-51 -227q-81 43 -215 43q-293 0 -293 -508q0 -115 18 -206.5t54.5 -160t96.5 -105t140 -36.5q113 0 215 65l51 -217q-51 -42 -138.5 -64t-180.5 -22q-91 0 -167.5 23.5t-144 79 t-114.5 140.5t-74 213t-27 292z" />
<glyph unicode="D" horiz-adv-x="1095" d="M92 -2v1436q120 20 350 20q133 0 235 -34.5t169 -95.5t109.5 -153t60.5 -199.5t18 -242.5q0 -752 -612 -752q-56 0 -169.5 7t-160.5 14zM350 223q28 -8 109 -8q305 0 305 518q0 83 -6.5 148.5t-26 130.5t-51.5 108.5t-85.5 70t-125.5 26.5q-90 0 -119 -7v-987z" />
<glyph unicode="E" horiz-adv-x="880" d="M92 0v1434h717v-238h-459v-352h416v-238h-416v-368h467v-238h-725z" />
<glyph unicode="F" horiz-adv-x="858" d="M92 0v1434h717v-238h-459v-373h422v-237h-422v-586h-258z" />
<glyph unicode="G" horiz-adv-x="1028" d="M59 717q0 159 29 286t79.5 212t121 141.5t149.5 81t170 24.5q182 0 314 -57l-54 -223q-95 43 -227 43q-311 0 -311 -510q0 -252 76.5 -379t209.5 -127q89 0 146 51v293l-236 33v155h443v-635q-71 -68 -171.5 -101.5t-207.5 -33.5q-251 0 -391 183.5t-140 562.5z" />
<glyph unicode="H" horiz-adv-x="1091" d="M92 0v1434h258v-590h391v590h258v-1434h-258v606h-391v-606h-258z" />
<glyph unicode="I" horiz-adv-x="487" d="M115 0v1434h258v-1434h-258z" />
<glyph unicode="J" horiz-adv-x="591" d="M-35 23l60 217q43 -27 100 -27q28 0 47.5 10.5t31 27.5t17.5 48.5t8 64t2 82.5v988h258v-1043q0 -201 -69.5 -308.5t-231.5 -107.5q-125 0 -223 48z" />
<glyph unicode="K" horiz-adv-x="1062" d="M92 0v1434h258v-637l51 24l301 613h291l-327 -605l-97 -75l99 -78l379 -676h-316l-325 614h-56v-614h-258z" />
<glyph unicode="L" horiz-adv-x="868" d="M92 0v1434h258v-1196h504v-238h-762z" />
<glyph unicode="M" horiz-adv-x="1359" d="M92 0v1434h248l299 -621l49 -178h8l47 182l281 617h244v-1434h-258v739l28 275h-10l-76 -246l-233 -504h-86l-248 506l-76 248h-12l39 -277v-741h-244z" />
<glyph unicode="N" horiz-adv-x="1105" d="M92 0v1444h199l411 -721l89 -248h12l-33 244v715h244v-1444h-199l-407 715l-95 251h-10l33 -247v-709h-244z" />
<glyph unicode="O" horiz-adv-x="1132" d="M59 717q0 745 506 745q131 0 228.5 -52t158.5 -150.5t91 -234t30 -308.5q0 -365 -128.5 -555.5t-379.5 -190.5q-132 0 -229.5 52t-158 151t-89.5 234t-29 309zM330 717q0 -151 22 -261t76 -178.5t137 -68.5q120 0 179 123t59 385q0 110 -12.5 198.5t-39.5 160t-74 110.5 t-112 39q-235 0 -235 -508z" />
<glyph unicode="P" horiz-adv-x="976" d="M92 0v1419q149 35 338 35q82 0 149.5 -10.5t137 -41t116.5 -81t77 -137.5t30 -203q0 -130 -37.5 -228.5t-102.5 -155.5t-144.5 -84.5t-172.5 -27.5q-95 0 -133 9v-494h-258zM350 725q27 -10 92 -10q228 0 228 268q0 128 -59.5 185t-155.5 57q-55 0 -105 -11v-489z" />
<glyph unicode="Q" horiz-adv-x="1132" d="M59 717q0 745 506 745q131 0 228.5 -52t158.5 -150.5t91 -234t30 -308.5q0 -365 -128.5 -555.5t-379.5 -190.5q-132 0 -229.5 52t-158 151t-89.5 234t-29 309zM330 717q0 -151 22 -261t76 -178.5t137 -68.5q120 0 179 123t59 385q0 110 -12.5 198.5t-39.5 160t-74 110.5 t-112 39q-235 0 -235 -508zM338 -76q54 13 98 13q62 0 140 -20.5t143 -44.5t150.5 -44.5t160.5 -20.5q77 0 156 23v-231q-82 -27 -166 -27q-77 0 -167 21t-157.5 45.5t-145.5 45.5t-134 21q-47 0 -78 -10v229z" />
<glyph unicode="R" horiz-adv-x="1030" d="M92 0v1419q158 35 346 35q75 0 139 -10.5t126 -39t105 -73t69 -116.5t26 -166q0 -170 -63.5 -281.5t-177.5 -153.5l81 -65l265 -549h-297l-250 565l-111 27v-592h-258zM350 768h88q195 0 195 240q0 96 -42.5 152.5t-127.5 56.5q-79 0 -113 -11v-438z" />
<glyph unicode="S" horiz-adv-x="899" d="M39 51l84 232q49 -30 120.5 -52t145.5 -22q205 0 205 160q0 52 -29 96.5t-75.5 79t-102.5 69.5t-112 77.5t-102.5 93t-75.5 126t-29 166.5q0 101 31.5 176.5t88 120t129.5 66.5t162 22q215 0 344 -76l-80 -227q-38 27 -107 46.5t-144 19.5q-80 0 -123 -33t-43 -96 q0 -46 29 -87.5t75.5 -76t102.5 -70t112 -79.5t102.5 -95.5t75.5 -126.5t29 -164q0 -210 -118.5 -318t-325.5 -108q-119 0 -216 23t-153 57z" />
<glyph unicode="T" horiz-adv-x="970" d="M16 1196v238h938v-238h-340v-1196h-258v1196h-340z" />
<glyph unicode="U" horiz-adv-x="1054" d="M86 469v965h258v-920q0 -166 45 -233.5t150 -67.5q99 0 142.5 70.5t43.5 230.5v920h244v-930q0 -529 -428 -529q-234 0 -344.5 121t-110.5 373z" />
<glyph unicode="V" horiz-adv-x="1030" d="M-20 1434h305l213 -842l28 -246h9l32 248l209 840h273l-435 -1444h-196z" />
<glyph unicode="W" horiz-adv-x="1468" d="M-4 1434h285l139 -789l20 -258h9l22 262l193 785h180l186 -789l23 -258h8l22 262l127 785h263l-322 -1444h-182l-201 790l-27 224h-10l-24 -226l-201 -788h-191z" />
<glyph unicode="X" horiz-adv-x="1081" d="M12 0l350 729l-317 705h311l166 -410l39 -156l37 156l174 410h279l-328 -691l344 -743h-301l-193 440l-43 160l-41 -160l-192 -440h-285z" />
<glyph unicode="Y" horiz-adv-x="1013" d="M-8 1434h307l199 -543l20 -156h10l23 160l194 539h277l-387 -899v-535h-258v532z" />
<glyph unicode="Z" horiz-adv-x="911" d="M43 0v238l479 874l86 84h-565v238h825v-238l-481 -881l-84 -77h565v-238h-825z" />
<glyph unicode="[" horiz-adv-x="565" d="M92 -471v1905h426v-211h-190v-1483h190v-211h-426z" />
<glyph unicode="\" horiz-adv-x="741" d="M-37 1384l193 72l608 -1667l-191 -76z" />
<glyph unicode="]" horiz-adv-x="565" d="M47 -260h191v1483h-191v211h426v-1905h-426v211z" />
<glyph unicode="^" horiz-adv-x="876" d="M37 846l334 598h139l317 -598h-243l-115 250l-35 149l-43 -151l-121 -248h-233z" />
<glyph unicode="_" horiz-adv-x="765" d="M0 -250h766v-209h-766v209z" />
<glyph unicode="`" horiz-adv-x="593" d="M123 1413v62h248l100 -316h-135z" />
<glyph unicode="a" horiz-adv-x="845" d="M35 283q0 179 127 259q110 70 300 70q28 0 58 -2q3 36 3 66q-1 72 -19 108q-26 52 -109 52q-134 0 -243 -56l-62 183q136 81 363 81q167 0 239 -86.5t72 -259.5q0 -72 -8 -234q-6 -110 -6 -195q0 -40 1 -75q4 -108 31 -196h-198l-39 125h-8q-74 -137 -242 -137 q-121 0 -190.5 80.5t-69.5 216.5zM287 324q0 -62 25.5 -95.5t70.5 -33.5q94 0 141 88v170q-30 4 -57 4q-65 0 -113 -22q-68 -31 -67 -111z" />
<glyph unicode="b" horiz-adv-x="907" d="M88 41v1393h244v-476h6q76 91 211 91q307 0 307 -510q0 -283 -112 -423.5t-316 -140.5q-102 0 -194 19.5t-146 46.5zM332 221q46 -22 112 -22q80 0 120 76.5t40 248.5q0 155 -33 228t-102 73q-103 0 -137 -106v-498z" />
<glyph unicode="c" horiz-adv-x="716" d="M51 512q0 268 96 403.5t283 135.5q150 0 254 -58l-57 -202q-71 36 -152 36q-87 0 -129.5 -75.5t-42.5 -239.5q0 -146 45.5 -230.5t138.5 -84.5q83 0 154 47l51 -189q-49 -40 -120 -61t-146 -21q-198 0 -286.5 139.5t-88.5 399.5z" />
<glyph unicode="d" horiz-adv-x="911" d="M51 496q0 271 96.5 411t286.5 140q84 0 146 -27v414h243v-1074q0 -215 19 -362h-172l-33 119h-8q-71 -144 -244 -144q-334 0 -334 523zM303 487q0 -290 139 -290q104 0 138 108v483q-38 35 -113 35q-85 0 -124.5 -76t-39.5 -260z" />
<glyph unicode="e" horiz-adv-x="876" d="M51 512q0 271 107.5 406t306.5 135q69 0 127 -20t108.5 -64t79.5 -125.5t29 -192.5q0 -87 -21 -207h-497q5 -131 55 -196.5t156 -65.5q61 0 115.5 19t87.5 45l75 -170q-52 -45 -140 -74t-183 -29q-406 0 -406 539zM299 606h283q1 20 1 38q0 200 -122 200 q-149 0 -162 -238z" />
<glyph unicode="f" horiz-adv-x="546" d="M16 807v217h111v57q0 191 71.5 280t209.5 89t225 -37l-45 -207q-57 21 -125 21q-57 0 -74.5 -43t-17.5 -160h174v-217h-174v-807h-244v807h-111z" />
<glyph unicode="g" horiz-adv-x="907" d="M51 492q0 280 110 417.5t320 137.5q209 0 340 -60v-987q0 -218 -100 -326t-287 -108q-209 0 -309 61l51 207q120 -51 221 -51q102 0 143.5 54t41.5 173v56h-7q-58 -82 -200 -82q-163 0 -243.5 123.5t-80.5 384.5zM303 502q0 -309 139 -309q54 0 86 25.5t50 76.5v512 q-49 22 -115 22q-78 0 -119 -76.5t-41 -250.5z" />
<glyph unicode="h" horiz-adv-x="919" d="M88 0v1434h244v-502h6q91 119 246 119q88 0 142 -33t84 -117.5t30 -228.5v-672h-244v618q0 112 -26.5 160.5t-92.5 48.5q-50 0 -91 -34t-54 -88v-705h-244z" />
<glyph unicode="i" horiz-adv-x="460" d="M80 1313q0 63 39.5 102t109.5 39q72 0 115 -39t43 -102t-43 -100t-115 -37q-71 0 -110 37t-39 100zM109 0v1024h243v-1024h-243z" />
<glyph unicode="j" horiz-adv-x="460" d="M-33 -195q10 -1 18 -1q69 0 95 48q31 54 31 177v995h243v-1067q0 -383 -270 -383q-62 0 -117 14v217zM80 1313q0 63 39.5 102t109.5 39q72 0 115 -39t43 -102t-43 -100t-115 -37q-71 0 -110 37t-39 100z" />
<glyph unicode="k" horiz-adv-x="843" d="M88 0v1434h244v-846l49 28l170 408h264l-188 -406l-88 -69l96 -70l209 -479h-275l-180 424h-57v-424h-244z" />
<glyph unicode="l" horiz-adv-x="497" d="M92 201v1233h244v-1102q0 -72 14.5 -102.5t46.5 -30.5q40 0 82 18l23 -197q-26 -18 -85.5 -31.5t-119.5 -13.5q-105 0 -155 52.5t-50 173.5z" />
<glyph unicode="m" horiz-adv-x="1357" d="M88 0v1024h188l31 -123h6q43 70 102.5 109t149.5 39q81 0 130.5 -36t78.5 -122q39 75 103.5 116.5t148.5 41.5q94 0 146.5 -32.5t79 -116.5t26.5 -236v-664h-244v623q0 111 -20 156.5t-80 45.5q-100 0 -129 -110v-715h-244v596q0 131 -20.5 180t-79.5 49q-87 0 -129 -108 v-717h-244z" />
<glyph unicode="n" horiz-adv-x="919" d="M88 0v1024h195l28 -119h6q88 144 267 144q130 0 193 -82.5t63 -284.5v-682h-244v623q0 112 -26.5 157t-90.5 45q-52 0 -90.5 -31.5t-56.5 -82.5v-711h-244z" />
<glyph unicode="o" horiz-adv-x="911" d="M51 512q0 267 105 403t299 136q405 0 405 -539q0 -270 -104.5 -404.5t-300.5 -134.5q-404 0 -404 539zM303 512q0 -322 152 -322q80 0 116.5 74t36.5 248q0 164 -35.5 243t-117.5 79q-75 0 -113.5 -75.5t-38.5 -246.5z" />
<glyph unicode="p" horiz-adv-x="915" d="M88 -410v1434h182l25 -117h6q48 74 106.5 108t143.5 34q159 0 236 -120t77 -390q0 -275 -98.5 -421.5t-284.5 -146.5q-92 0 -149 35v-416h-244zM332 229q41 -41 112 -41q84 0 126 83.5t42 273.5q0 148 -33.5 217t-107.5 69q-101 0 -139 -120v-482z" />
<glyph unicode="q" horiz-adv-x="907" d="M51 492q0 273 116 414t333 141q88 0 177.5 -17.5t143.5 -42.5v-1397h-243v482h-9q-67 -101 -198 -101q-155 0 -237.5 131t-82.5 390zM303 502q0 -314 139 -314q100 0 136 107v510q-44 24 -115 24q-81 0 -120.5 -78t-39.5 -249z" />
<glyph unicode="r" horiz-adv-x="600" d="M88 0v1024h186l29 -123h8q26 68 76.5 105.5t116.5 37.5q52 0 96 -20l-29 -242q-52 19 -90 19q-56 0 -96 -31t-53 -86v-684h-244z" />
<glyph unicode="s" horiz-adv-x="716" d="M39 47l67 197q107 -62 218 -62q50 0 79 22.5t29 67.5q0 35 -21 63.5t-54.5 50t-73.5 43t-80.5 49.5t-74 62.5t-54.5 89t-21 122.5q0 144 78 221.5t229 77.5q88 0 168 -19t129 -49l-57 -188q-104 47 -203 47q-100 0 -100 -84q0 -30 21 -55.5t54.5 -45.5t73.5 -41.5 t80.5 -49.5t74 -63.5t54.5 -91t21 -124.5q0 -145 -88 -229.5t-254 -84.5q-83 0 -164 20.5t-131 53.5z" />
<glyph unicode="t" horiz-adv-x="595" d="M8 807v217h113v193l244 75v-268h198v-217h-198v-447q0 -88 17.5 -124.5t61.5 -36.5q50 0 109 24l31 -194q-103 -54 -230 -54q-119 0 -176 69t-57 226v537h-113z" />
<glyph unicode="u" horiz-adv-x="913" d="M80 358v666h244v-612q0 -122 22 -168.5t82 -46.5q55 0 94.5 40t57.5 103v684h243v-713q0 -200 29 -311h-184l-43 139h-7q-88 -166 -270 -166q-66 0 -113 17.5t-83.5 60t-54 119t-17.5 188.5z" />
<glyph unicode="v" horiz-adv-x="817" d="M-27 1024h285l141 -535l25 -161h8l23 164l127 532h262l-344 -1034h-164z" />
<glyph unicode="w" horiz-adv-x="1220" d="M-14 1024h264l110 -514l19 -182h8l27 184l125 512h182l143 -524l25 -170h8l21 172l96 522h221l-252 -1034h-192l-154 571l-16 131h-13l-14 -135l-148 -567h-198z" />
<glyph unicode="x" horiz-adv-x="899" d="M8 0l264 524l-243 500h286l105 -242l39 -131l43 131l106 242h264l-245 -492l262 -532h-277l-125 266l-45 146l-47 -146l-125 -266h-262z" />
<glyph unicode="y" horiz-adv-x="819" d="M-20 1024h292l144 -575l26 -160h11l18 162l119 573h250l-256 -924q-24 -85 -38 -131.5t-35.5 -111t-38 -98.5t-40 -74t-46.5 -59.5t-53 -32.5t-65 -13q-98 0 -151 31l41 209q24 -9 46 -9q35 0 63 24q46 39 69 165z" />
<glyph unicode="z" horiz-adv-x="780" d="M49 0v217l332 502l90 88h-422v217h678v-217l-328 -510l-88 -80h416v-217h-678z" />
<glyph unicode="{" horiz-adv-x="641" d="M66 383v197q135 0 135 174v438q0 244 186 244h219v-209h-84q-47 0 -67.5 -28.5t-20.5 -94.5v-416q0 -85 -32.5 -133t-84.5 -59v-21q49 -8 83 -63t34 -138v-413q0 -65 20 -94t70 -29h82v-209h-219q-186 0 -186 242v430q0 100 -33 141t-102 41z" />
<glyph unicode="|" horiz-adv-x="385" d="M92 -266v1700h201v-1700h-201z" />
<glyph unicode="}" horiz-adv-x="641" d="M51 -262h84q47 0 67.5 28.5t20.5 94.5v415q0 85 32.5 133.5t84.5 59.5v20q-49 8 -83 63t-34 138v414q0 65 -20 94t-70 29h-82v209h219q187 0 187 -240v-432q0 -100 33 -141t102 -41v-197q-135 0 -135 -174v-440q0 -242 -193 -242h-213v209z" />
<glyph unicode="~" horiz-adv-x="909" d="M47 774q140 137 266 137q56 0 115.5 -26.5t114.5 -53t100 -26.5q64 0 129 57l90 -211q-109 -98 -209 -98q-42 0 -89 18t-82 39.5t-80 39.5t-83 18q-89 0 -188 -99z" />
<glyph unicode="&#xa2;" d="M143 512q0 225 83 361.5t239 168.5v187h229v-187q90 -15 144 -49l-52 -196q-40 17 -112 28v-628q63 9 125 45l49 -185q-55 -43 -154 -67v-195h-229v185q-322 53 -322 532zM383 512q0 -251 133 -307v616q-133 -47 -133 -309z" />
<glyph unicode="&#xa3;" d="M90 0v223h4q100 4 157.5 81t57.5 185q0 59 -12 109h-207v205h123q-61 133 -61 278q0 189 103.5 285t276.5 96q198 0 340 -76l-77 -210q-96 55 -226 55q-80 0 -123 -48.5t-43 -144.5q0 -45 11 -89t23.5 -71.5t37.5 -74.5h240v-205h-170q8 -36 8 -82q0 -64 -19 -132.5 t-53 -109.5l-92 -71v-13l135 33h375v-223h-809z" />
<glyph unicode="&#xa5;" d="M-25 1434h308l198 -543l21 -156h10l23 160l194 539h277l-322 -746h160v-162h-226v-118h226v-162h-226v-246h-258v246h-225v162h225v118h-225v162h158z" />
<glyph unicode="&#xa8;" horiz-adv-x="884" d="M123 1333q0 66 35.5 103t95.5 37q58 0 92.5 -37.5t34.5 -102.5q0 -61 -35 -97t-92 -36q-60 0 -95.5 36t-35.5 97zM504 1333q0 66 34.5 103t94.5 37t94.5 -37t34.5 -103q0 -62 -34.5 -97.5t-94.5 -35.5t-94.5 35.5t-34.5 97.5z" />
<glyph unicode="&#xa9;" horiz-adv-x="1484" d="M104 610q0 192 85 338.5t229.5 222.5t324.5 76q133 0 249.5 -45t202.5 -126t135.5 -201.5t49.5 -264.5t-49.5 -264.5t-135.5 -201.5t-202.5 -126t-249.5 -45q-296 0 -467.5 171t-171.5 466zM281 610q0 -217 127.5 -345t334.5 -128q205 0 333 128t128 345t-128 345 t-333 128q-207 0 -334.5 -128t-127.5 -345zM446 610q0 158 79 247t214 89q110 0 213 -57l-57 -158q-48 27 -107 27q-106 0 -106 -148q0 -147 119 -147q59 0 110 26l54 -159q-87 -56 -226 -56t-216 90t-77 246z" />
<glyph unicode="&#xab;" horiz-adv-x="829" d="M45 530l268 471l156 -104l-156 -281l-80 -84l80 -73l164 -277l-153 -104zM377 535l256 442l139 -92l-141 -273l-78 -80l78 -71l151 -268l-139 -95z" />
<glyph unicode="&#xad;" horiz-adv-x="610" d="M92 471v234h426v-234h-426z" />
<glyph unicode="&#xae;" horiz-adv-x="1218" d="M111 989q0 154 69 269t181 172t249 57q140 0 251.5 -57t179 -171.5t67.5 -269.5q0 -154 -69 -269t-180.5 -171.5t-248.5 -56.5q-105 0 -195.5 33.5t-158.5 95t-106.5 156.5t-38.5 212zM279 989q0 -164 94.5 -251t236.5 -87q148 0 239 85.5t91 252.5q0 163 -94.5 251.5 t-235.5 88.5q-151 0 -241 -91t-90 -249zM428 762v457q70 18 176 18q80 0 130 -33t50 -104q0 -54 -34.5 -85t-90.5 -36l50 -25l114 -192h-108l-111 184l-84 27v-211h-92zM520 1026h60q55 0 80.5 16t25.5 54q0 61 -100 61q-52 0 -66 -8v-123z" />
<glyph unicode="&#xb4;" horiz-adv-x="575" d="M123 1159l86 316h244v-62l-193 -254h-137z" />
<glyph unicode="&#xb8;" horiz-adv-x="624" d="M123 -418l14 99q142 -12 142 59q0 56 -144 65l101 195h155l-41 -88q152 -17 152 -154q0 -88 -78 -138t-191 -50q-55 0 -110 12z" />
<glyph unicode="&#xbb;" horiz-adv-x="829" d="M47 889l137 92l267 -436l-256 -443l-140 88l144 277l75 80l-75 71zM350 897l154 104l280 -452l-268 -471l-156 100l152 285l82 84l-82 74z" />
<glyph unicode="&#x2c6;" horiz-adv-x="813" d="M123 1126l207 373h174l186 -373h-190l-66 136l-26 100l-27 -100l-76 -136h-182z" />
<glyph unicode="&#x2da;" horiz-adv-x="645" d="M123 1325q0 93 51 144t148 51q96 0 148 -49t52 -146q0 -88 -52.5 -139t-147.5 -51q-96 0 -147.5 50.5t-51.5 139.5zM260 1325q0 -34 17.5 -52t44.5 -18q63 0 63 70q0 74 -63 74q-62 0 -62 -74z" />
<glyph unicode="&#x2dc;" horiz-adv-x="849" d="M123 1343q106 132 205 132q40 0 86 -22.5t89.5 -44.5t78.5 -22q47 0 100 48l45 -125q-97 -115 -192 -115q-49 0 -131 41t-123 41q-58 0 -109 -51z" />
<glyph unicode="&#x401;" horiz-adv-x="880" d="M92 0v1434h717v-238h-459v-352h416v-238h-416v-368h467v-238h-725zM123 1634q0 119 141 119q135 0 135 -119q0 -116 -135 -116q-141 0 -141 116zM496 1634q0 119 137 119q139 0 139 -119q0 -116 -139 -116q-137 0 -137 116z" />
<glyph unicode="&#x402;" horiz-adv-x="1259" d="M16 1196v238h934v-238h-338v-307q102 47 236 47q56 0 104 -12t94.5 -44t79 -82.5t52.5 -133t20 -189.5q0 -247 -93 -368t-310 -121q-88 0 -107 8v225q36 -4 86 -4q79 0 116.5 59t37.5 187q0 137 -45 187t-133 50q-69 0 -138 -41v-657h-258v1196h-338z" />
<glyph unicode="&#x403;" horiz-adv-x="780" d="M92 0v1434h703v-238h-445v-1196h-258zM317 1540l168 242h293v-62l-270 -180h-191z" />
<glyph unicode="&#x404;" horiz-adv-x="972" d="M59 719q0 168 30.5 299.5t80.5 213.5t120.5 135t144 74t157.5 21q181 0 305 -53l-51 -227q-81 43 -223 43q-255 0 -291 -381h456v-213h-458q12 -196 90.5 -309t220.5 -113q119 0 221 65l51 -217q-51 -42 -142 -64t-185 -22q-91 0 -167.5 23.5t-144 79t-114.5 140.5 t-74 213t-27 292z" />
<glyph unicode="&#x405;" horiz-adv-x="899" d="M39 51l84 232q49 -30 120.5 -52t145.5 -22q205 0 205 160q0 52 -29 96.5t-75.5 79t-102.5 69.5t-112 77.5t-102.5 93t-75.5 126t-29 166.5q0 101 31.5 176.5t88 120t129.5 66.5t162 22q215 0 344 -76l-80 -227q-38 27 -107 46.5t-144 19.5q-80 0 -123 -33t-43 -96 q0 -46 29 -87.5t75.5 -76t102.5 -70t112 -79.5t102.5 -95.5t75.5 -126.5t29 -164q0 -210 -118.5 -318t-325.5 -108q-119 0 -216 23t-153 57z" />
<glyph unicode="&#x406;" horiz-adv-x="487" d="M115 0v1434h258v-1434h-258z" />
<glyph unicode="&#x407;" horiz-adv-x="501" d="M16 1622q0 131 109 131q108 0 108 -131q0 -127 -108 -127q-109 0 -109 127zM121 0v1434h258v-1434h-258zM270 1622q0 131 107 131q108 0 108 -131q0 -127 -108 -127q-107 0 -107 127z" />
<glyph unicode="&#x408;" horiz-adv-x="591" d="M-35 23l60 217q43 -27 100 -27q28 0 47.5 10.5t31 27.5t17.5 48.5t8 64t2 82.5v988h258v-1043q0 -201 -69.5 -308.5t-231.5 -107.5q-125 0 -223 48z" />
<glyph unicode="&#x409;" horiz-adv-x="1587" d="M-25 14l29 234q90 -33 135 65q49 90 74 354.5t33 766.5h719v-516q99 18 163 18q73 0 132.5 -12t114.5 -44t92.5 -82.5t60 -132t22.5 -188.5q0 -249 -120 -373t-373 -124q-214 0 -350 32v1184h-218q-15 -440 -42 -681.5t-91 -367.5q-24 -47 -55 -80t-64.5 -50t-63.5 -24 t-60 -7q-77 0 -138 28zM965 229q37 -12 106 -12q102 0 155.5 58.5t53.5 189.5q0 134 -54 183.5t-155 49.5q-23 0 -58.5 -6t-47.5 -12v-451z" />
<glyph unicode="&#x40a;" horiz-adv-x="1622" d="M92 0v1434h258v-566h391v566h258v-551q16 5 70.5 10.5t89.5 5.5q73 0 132 -10.5t115.5 -39.5t94.5 -77t61 -127t23 -184q0 -247 -121 -364t-372 -117q-228 0 -351 26v625h-391v-631h-258zM999 227q38 -10 107 -10q104 0 156.5 54.5t52.5 177.5q0 121 -52 167t-155 46 q-23 0 -60.5 -6t-48.5 -11v-418z" />
<glyph unicode="&#x40b;" horiz-adv-x="1292" d="M16 1196v238h934v-238h-338v-373q120 82 293 82q320 0 320 -395v-510h-258v432q0 128 -37 185t-123 57q-59 0 -111.5 -18.5t-83.5 -49.5v-606h-258v1196h-338z" />
<glyph unicode="&#x40c;" horiz-adv-x="1062" d="M92 0v1434h258v-637l51 24l301 613h291l-327 -605l-97 -75l99 -78l379 -676h-316l-325 614h-56v-614h-258zM371 1540l168 242h292v-62l-270 -180h-190z" />
<glyph unicode="&#x40e;" horiz-adv-x="972" d="M-20 1434h305l219 -625l31 -191h10l26 197l162 619h266l-319 -992q-27 -85 -47.5 -141.5t-45.5 -113t-49 -90t-55 -61t-67.5 -39t-81.5 -11.5q-58 0 -97.5 10.5t-80.5 38.5l63 217q44 -26 98 -29q78 0 105 156zM176 1753l234 37q12 -125 114 -125q103 0 115 123l209 -31 q-17 -130 -99 -191t-227 -61q-151 0 -240.5 57t-105.5 191z" />
<glyph unicode="&#x40f;" horiz-adv-x="1073" d="M92 0v1434h258v-1196h373v1196h258v-1434h-334l-24 -358h-168l-33 358h-330z" />
<glyph unicode="&#x410;" horiz-adv-x="1026" d="M-6 0l416 1444h202l418 -1444h-270l-88 324h-338l-84 -324h-256zM389 537h238l-82 333l-33 226h-8l-35 -228z" />
<glyph unicode="&#x411;" horiz-adv-x="974" d="M92 12v1422h752v-238h-494v-311q92 18 158 18q205 0 314.5 -104t109.5 -336q0 -483 -479 -483q-240 0 -361 32zM350 219q42 -10 121 -10q191 0 191 233q0 73 -15 120.5t-45.5 71t-64.5 32t-84 8.5q-22 0 -56 -5t-47 -10v-440z" />
<glyph unicode="&#x412;" horiz-adv-x="1003" d="M92 10v1413q174 31 365 31q78 0 141 -8.5t123 -32.5t100.5 -62t65 -101.5t24.5 -147.5q0 -75 -19.5 -140t-67 -120t-119.5 -78v-12q241 -61 241 -349q0 -108 -37.5 -191t-103.5 -132.5t-149.5 -74.5t-182.5 -25q-266 0 -381 30zM350 215q35 -12 129 -12q89 0 143 57 t54 160q0 65 -17.5 107.5t-51 62t-68.5 26.5t-84 7h-105v-408zM350 825h60q54 0 100 11q65 25 104 77t39 129q0 189 -184 189q-88 0 -119 -8v-398z" />
<glyph unicode="&#x413;" horiz-adv-x="780" d="M92 0v1434h703v-238h-445v-1196h-258z" />
<glyph unicode="&#x414;" horiz-adv-x="1179" d="M0 238h125q17 31 39 107.5t49.5 215.5t45 370t15.5 503h730v-1196h147v-494h-182l-25 256h-737l-25 -256h-182v494zM393 238h352v958h-227q-10 -336 -46 -588t-79 -370z" />
<glyph unicode="&#x415;" horiz-adv-x="880" d="M92 0v1434h717v-238h-459v-352h416v-238h-416v-368h467v-238h-725z" />
<glyph unicode="&#x416;" horiz-adv-x="1435" d="M-10 0l286 631l95 78l-92 73l-267 652h299l213 -617h64v617h243v-641l60 28l215 613h289l-256 -631l-82 -68l100 -84l289 -651h-311l-240 625h-64v-625h-243v649l-58 -28l-241 -621h-299z" />
<glyph unicode="&#x417;" horiz-adv-x="890" d="M25 43l67 229q104 -63 268 -63q91 0 149 57t58 168q0 102 -58 151.5t-196 53.5q-15 0 -31 1t-34 1h-47v209h49q112 0 147 14q59 18 96 63.5t37 114.5q0 96 -46 137.5t-136 41.5q-64 0 -124 -19.5t-101 -46.5l-66 223q48 30 147 55t197 25q67 0 122.5 -9t108.5 -34t89 -64 t58 -103t22 -148q0 -111 -46.5 -199t-140.5 -129v-12q224 -62 224 -348q0 -113 -38 -200t-103.5 -138.5t-146.5 -77t-175 -25.5q-108 0 -200.5 19.5t-149.5 52.5z" />
<glyph unicode="&#x418;" horiz-adv-x="1120" d="M92 0v1434h258v-750l-22 -209h10l82 223l407 736h201v-1434h-258v764l21 203h-11l-78 -217l-407 -750h-203z" />
<glyph unicode="&#x419;" horiz-adv-x="1120" d="M92 0v1434h258v-750l-22 -209h10l82 223l407 736h201v-1434h-258v764l21 203h-11l-78 -217l-407 -750h-203zM242 1753l233 37q12 -125 115 -125t115 123l208 -31q-17 -131 -98.5 -191.5t-226.5 -60.5q-151 0 -240.5 57t-105.5 191z" />
<glyph unicode="&#x41a;" horiz-adv-x="1062" d="M92 0v1434h258v-637l51 24l301 613h291l-327 -605l-97 -75l99 -78l379 -676h-316l-325 614h-56v-614h-258z" />
<glyph unicode="&#x41b;" horiz-adv-x="1058" d="M-25 14l29 234q90 -33 135 65q49 90 74 354.5t33 766.5h719v-1434h-258v1196h-218q-15 -440 -42 -681.5t-91 -367.5q-24 -47 -55 -80t-64.5 -50t-63.5 -24t-60 -7q-77 0 -138 28z" />
<glyph unicode="&#x41c;" horiz-adv-x="1359" d="M92 0v1434h248l299 -621l49 -178h8l47 182l281 617h244v-1434h-258v739l28 275h-10l-76 -246l-233 -504h-86l-248 506l-76 248h-12l39 -277v-741h-244z" />
<glyph unicode="&#x41d;" horiz-adv-x="1091" d="M92 0v1434h258v-590h391v590h258v-1434h-258v606h-391v-606h-258z" />
<glyph unicode="&#x41e;" horiz-adv-x="1132" d="M59 717q0 745 506 745q131 0 228.5 -52t158.5 -150.5t91 -234t30 -308.5q0 -365 -128.5 -555.5t-379.5 -190.5q-132 0 -229.5 52t-158 151t-89.5 234t-29 309zM330 717q0 -151 22 -261t76 -178.5t137 -68.5q120 0 179 123t59 385q0 110 -12.5 198.5t-39.5 160t-74 110.5 t-112 39q-235 0 -235 -508z" />
<glyph unicode="&#x41f;" horiz-adv-x="1073" d="M92 0v1434h889v-1434h-258v1196h-373v-1196h-258z" />
<glyph unicode="&#x420;" horiz-adv-x="976" d="M92 0v1419q149 35 338 35q82 0 149.5 -10.5t137 -41t116.5 -81t77 -137.5t30 -203q0 -130 -37.5 -228.5t-102.5 -155.5t-144.5 -84.5t-172.5 -27.5q-95 0 -133 9v-494h-258zM350 725q27 -10 92 -10q228 0 228 268q0 128 -59.5 185t-155.5 57q-55 0 -105 -11v-489z" />
<glyph unicode="&#x421;" horiz-adv-x="935" d="M59 719q0 168 30.5 299.5t80.5 213.5t120.5 135t144 74t157.5 21q173 0 297 -53l-51 -227q-81 43 -215 43q-293 0 -293 -508q0 -115 18 -206.5t54.5 -160t96.5 -105t140 -36.5q113 0 215 65l51 -217q-51 -42 -138.5 -64t-180.5 -22q-91 0 -167.5 23.5t-144 79 t-114.5 140.5t-74 213t-27 292z" />
<glyph unicode="&#x422;" horiz-adv-x="970" d="M16 1196v238h938v-238h-340v-1196h-258v1196h-340z" />
<glyph unicode="&#x423;" horiz-adv-x="972" d="M-20 1434h305l219 -625l31 -191h10l26 197l162 619h266l-319 -992q-27 -85 -47.5 -141.5t-45.5 -113t-49 -90t-55 -61t-67.5 -39t-81.5 -11.5q-58 0 -97.5 10.5t-80.5 38.5l63 217q44 -26 98 -29q78 0 105 156z" />
<glyph unicode="&#x424;" horiz-adv-x="1372" d="M39 717q0 284 109.5 439t300.5 155q71 0 108 -11v175h258v-181q50 17 143 17q171 0 273 -146t102 -428q0 -145 -31 -259.5t-85.5 -186t-126.5 -109t-156 -37.5q-69 0 -119 15v-201h-258v197q-59 -11 -141 -11q-172 0 -274.5 142t-102.5 430zM297 719q0 -170 48.5 -260 t139.5 -90q59 0 84 8v706q-46 4 -75 4q-92 0 -144.5 -90t-52.5 -278zM803 373q11 -4 74 -4q92 0 145 90.5t53 275.5q0 168 -46 260t-136 92q-61 0 -90 -10v-704z" />
<glyph unicode="&#x425;" horiz-adv-x="1081" d="M12 0l350 729l-317 705h311l166 -410l39 -156l37 156l174 410h279l-328 -691l344 -743h-301l-193 440l-43 160l-41 -160l-192 -440h-285z" />
<glyph unicode="&#x426;" horiz-adv-x="1153" d="M92 0v1434h258v-1196h369v1196h258v-1196h149v-494h-182l-26 256h-826z" />
<glyph unicode="&#x427;" horiz-adv-x="1030" d="M70 879v555h258v-471q0 -127 36 -181.5t121 -54.5q132 0 195 72v635h258v-1434h-258v578q-113 -80 -285 -80q-71 0 -127.5 19.5t-102 62.5t-70.5 119t-25 180z" />
<glyph unicode="&#x428;" horiz-adv-x="1445" d="M92 0v1434h258v-1196h244v1196h258v-1196h244v1196h258v-1434h-1262z" />
<glyph unicode="&#x429;" horiz-adv-x="1540" d="M92 0v1434h258v-1196h246v1196h258v-1196h246v1196h258v-1196h155v-494h-182l-26 256h-1213z" />
<glyph unicode="&#x42a;" horiz-adv-x="1138" d="M-8 1196v238h526v-516q70 18 164 18q72 0 131.5 -12t115 -44t93 -82.5t60 -132t22.5 -188.5q0 -249 -121 -373t-373 -124q-214 0 -350 32v1184h-268zM518 229q34 -12 105 -12q211 0 211 248q0 70 -16 117.5t-46 72t-65 34t-82 9.5q-23 0 -59 -6t-48 -12v-451z" />
<glyph unicode="&#x42b;" horiz-adv-x="1368" d="M92 12v1422h258v-514q67 16 146 16q72 0 130 -12t112 -43t90 -81.5t57.5 -131.5t21.5 -189q0 -255 -116 -377t-367 -122q-210 0 -332 32zM350 229q35 -12 92 -12q96 0 145.5 59t49.5 191t-49 181.5t-144 49.5q-20 0 -51 -6t-43 -12v-451zM1018 0v1434h258v-1434h-258z " />
<glyph unicode="&#x42c;" horiz-adv-x="972" d="M92 12v1422h258v-516q99 18 164 18q73 0 132.5 -12t114.5 -44t92.5 -82.5t60 -132t22.5 -188.5q0 -249 -120 -373t-374 -124q-214 0 -350 32zM350 229q38 -12 107 -12q102 0 155.5 58.5t53.5 189.5q0 134 -54 183.5t-155 49.5q-23 0 -59 -6t-48 -12v-451z" />
<glyph unicode="&#x42d;" horiz-adv-x="976" d="M29 37l67 229q116 -57 260 -57q137 0 210 100.5t83 311.5h-434v213h432q-8 182 -78 286.5t-211 104.5q-152 0 -268 -72l-59 223q66 38 160.5 62t181.5 24q127 0 225 -40.5t171 -127t111 -231t38 -344.5q0 -748 -572 -748q-94 0 -179.5 19.5t-137.5 46.5z" />
<glyph unicode="&#x42e;" horiz-adv-x="1521" d="M92 0v1434h258v-590h146q36 618 479 618q487 0 487 -745q0 -746 -489 -746q-226 0 -342.5 166t-134.5 469h-146v-606h-258zM754 717q0 -116 10.5 -204.5t35 -159t68 -107.5t105.5 -37q118 0 168.5 119t50.5 389q0 116 -9.5 202t-33 158.5t-67.5 110t-109 37.5 q-116 0 -167.5 -122.5t-51.5 -385.5z" />
<glyph unicode="&#x42f;" horiz-adv-x="995" d="M10 0l234 487l102 82q-115 33 -183.5 139.5t-68.5 284.5q0 127 36.5 218t106 143.5t159.5 76t208 23.5q64 0 153 -9.5t146 -25.5v-1419h-258v571l-110 -39l-228 -532h-297zM365 981q0 -124 53.5 -183t148.5 -59h78v467q-34 11 -82 11q-198 0 -198 -236z" />
<glyph unicode="&#x430;" horiz-adv-x="845" d="M35 283q0 179 127 259t358 68q11 122 -15.5 174t-109.5 52q-134 0 -243 -56l-62 183q136 81 363 81q167 0 239 -86.5t72 -259.5q0 -73 -8.5 -234.5t-4.5 -269.5t31 -196h-198l-39 125h-8q-74 -137 -242 -137q-121 0 -190.5 80.5t-69.5 216.5zM287 324q0 -62 25.5 -95.5 t70.5 -33.5q94 0 141 88v170q-102 13 -169.5 -18t-67.5 -111z" />
<glyph unicode="&#x431;" horiz-adv-x="911" d="M51 621q0 148 14 264.5t34.5 196t59 137.5t73.5 91t92 55t99.5 30.5t111.5 17.5q105 13 165 28.5t88 47.5l5 -229q-31 -34 -93.5 -50t-173.5 -24q-91 -9 -144 -38t-88 -102.5t-48 -205.5h6q47 87 113 126.5t159 39.5q158 0 247 -116t89 -355q0 -283 -102 -423.5 t-297 -140.5q-203 0 -306.5 156t-103.5 494zM303 500q0 -312 152 -312q81 0 117 73.5t36 238.5q0 145 -33.5 216.5t-109.5 71.5q-162 0 -162 -288z" />
<glyph unicode="&#x432;" horiz-adv-x="856" d="M88 2v1020q152 16 332 16q188 0 270 -62t82 -194q0 -78 -36 -143t-105 -94v-8q174 -46 174 -246q0 -156 -99.5 -230.5t-318.5 -74.5q-177 0 -299 16zM326 197q32 -7 84 -7q79 0 115 32t36 100q0 122 -135 122h-100v-247zM326 606h100q50 0 81.5 31t31.5 82q0 61 -26.5 88 t-94.5 27q-35 0 -92 -5v-223z" />
<glyph unicode="&#x433;" horiz-adv-x="632" d="M88 0v1024h555v-223h-311v-801h-244z" />
<glyph unicode="&#x434;" horiz-adv-x="974" d="M-4 223h98q16 28 33.5 81.5t39 147t35 244t13.5 328.5h616v-801h123v-456h-180l-26 233h-547l-27 -233h-178v456zM338 211h250v596h-156q-9 -177 -32.5 -345t-61.5 -251z" />
<glyph unicode="&#x435;" horiz-adv-x="876" d="M51 512q0 271 107.5 406t306.5 135q69 0 127 -20t108.5 -64t79.5 -125.5t29 -192.5q0 -87 -21 -207h-497q5 -131 55 -196.5t156 -65.5q61 0 115.5 19t87.5 45l75 -170q-52 -45 -140 -74t-183 -29q-406 0 -406 539zM299 606h283q12 238 -121 238q-149 0 -162 -238z" />
<glyph unicode="&#x436;" horiz-adv-x="1191" d="M-8 0l205 469l59 61l-86 78l-160 416h258l138 -416h69v416h232v-436l61 28l137 408h258l-170 -416l-67 -65l86 -82l188 -461h-276l-150 424h-67v-424h-232v444l-63 -28l-150 -416h-270z" />
<glyph unicode="&#x437;" horiz-adv-x="724" d="M29 47l49 199q81 -49 203 -49q149 0 149 120q0 54 -40 81.5t-138 27.5h-78v182h98q55 0 90 32.5t35 80.5q0 102 -127 102q-104 0 -184 -51l-55 195q56 32 142 52.5t175 20.5q293 0 293 -254q0 -79 -34 -144t-97 -93v-8q86 -25 125 -86t39 -166q0 -137 -92 -223t-273 -86 q-172 0 -280 67z" />
<glyph unicode="&#x438;" horiz-adv-x="921" d="M88 0v1024h244v-465l-19 -160h6l74 170l277 455h164v-1024h-244v446l18 166h-6l-76 -174l-274 -438h-164z" />
<glyph unicode="&#x439;" horiz-adv-x="921" d="M88 0v1024h244v-465l-19 -160h6l74 170l277 455h164v-1024h-244v446l18 166h-6l-76 -174l-274 -438h-164zM174 1397l207 45q11 -148 100 -148q43 0 69 34.5t36 111.5l184 -45q-22 -135 -101 -202t-194 -67q-56 0 -104.5 14.5t-90.5 45t-70 84.5t-36 127z" />
<glyph unicode="&#x43a;" horiz-adv-x="837" d="M88 0v1024h244v-436l49 28l172 408h262l-186 -393l-90 -80l98 -80l207 -471h-275l-182 424h-55v-424h-244z" />
<glyph unicode="&#x43b;" horiz-adv-x="886" d="M-31 18l29 213q70 -23 105 23q56 73 76 400q9 147 14 370h606v-1024h-244v801h-147q-5 -112 -11 -195.5t-16.5 -173t-24.5 -152t-35.5 -121t-49 -94t-65.5 -56.5t-85 -21q-106 0 -152 30z" />
<glyph unicode="&#x43c;" horiz-adv-x="1136" d="M88 0v1024h256l186 -377l41 -137h9l43 141l172 373h254v-1024h-232v471l14 211h-10l-61 -190l-150 -308h-92l-164 308l-63 190h-12l26 -211v-471h-217z" />
<glyph unicode="&#x43d;" horiz-adv-x="909" d="M88 0v1024h244v-393h246v393h243v-1024h-243v408h-246v-408h-244z" />
<glyph unicode="&#x43e;" horiz-adv-x="911" d="M51 512q0 267 105 403t299 136q405 0 405 -539q0 -270 -104.5 -404.5t-300.5 -134.5q-404 0 -404 539zM303 512q0 -322 152 -322q80 0 116.5 74t36.5 248q0 164 -35.5 243t-117.5 79q-75 0 -113.5 -75.5t-38.5 -246.5z" />
<glyph unicode="&#x43f;" horiz-adv-x="901" d="M88 0v1024h725v-1024h-244v801h-237v-801h-244z" />
<glyph unicode="&#x440;" horiz-adv-x="915" d="M88 -410v1434h182l25 -117h6q48 74 106.5 108t143.5 34q159 0 236 -120t77 -390q0 -275 -98.5 -421.5t-284.5 -146.5q-92 0 -149 35v-416h-244zM332 229q41 -41 112 -41q84 0 126 83.5t42 273.5q0 148 -33.5 217t-107.5 69q-101 0 -139 -120v-482z" />
<glyph unicode="&#x441;" horiz-adv-x="716" d="M51 512q0 268 96 403.5t283 135.5q150 0 254 -58l-57 -202q-71 36 -152 36q-87 0 -129.5 -75.5t-42.5 -239.5q0 -146 45.5 -230.5t138.5 -84.5q83 0 154 47l51 -189q-49 -40 -120 -61t-146 -21q-198 0 -286.5 139.5t-88.5 399.5z" />
<glyph unicode="&#x442;" horiz-adv-x="706" d="M2 801v223h703v-223h-226v-801h-243v801h-234z" />
<glyph unicode="&#x443;" horiz-adv-x="819" d="M-20 1024h292l144 -575l26 -160h11l18 162l119 573h250l-256 -924q-24 -85 -38 -131.5t-35.5 -111t-38 -98.5t-40 -74t-46.5 -59.5t-53 -32.5t-65 -13q-98 0 -151 31l41 209q63 -24 109 15t69 165z" />
<glyph unicode="&#x444;" horiz-adv-x="1198" d="M43 512q0 266 89.5 399t262.5 133q49 0 82 -8v398h244v-400q51 10 98 10q170 0 253 -120t83 -392q0 -269 -88.5 -415t-253.5 -146q-57 0 -92 15v-396h-244v398q-41 -17 -117 -17q-317 0 -317 541zM287 512q0 -173 33.5 -254.5t105.5 -81.5q23 0 61 10v645q-27 9 -57 9 q-73 0 -108 -72.5t-35 -255.5zM709 182q24 -6 63 -6q73 0 106 79.5t33 276.5q0 171 -34 239.5t-113 68.5q-13 0 -55 -11v-647z" />
<glyph unicode="&#x445;" horiz-adv-x="899" d="M8 0l264 524l-243 500h286l105 -242l39 -131l43 131l106 242h264l-245 -492l262 -532h-277l-125 266l-45 146l-47 -146l-125 -266h-262z" />
<glyph unicode="&#x446;" horiz-adv-x="950" d="M88 0v1024h244v-801h231v801h244v-801h123v-456h-178l-27 233h-637z" />
<glyph unicode="&#x447;" horiz-adv-x="858" d="M49 659v365h244v-274q0 -115 20.5 -160t83.5 -45q79 0 129 43v436h244v-1024h-244v397q-84 -69 -213 -69q-131 0 -197.5 74t-66.5 257z" />
<glyph unicode="&#x448;" horiz-adv-x="1284" d="M88 0v1024h244v-801h188v801h244v-801h188v801h244v-1024h-1108z" />
<glyph unicode="&#x449;" horiz-adv-x="1337" d="M88 0v1024h244v-801h188v801h244v-801h188v801h244v-801h121v-456h-180l-25 233h-1024z" />
<glyph unicode="&#x44a;" horiz-adv-x="929" d="M-10 801v223h428v-365q82 15 157 15q166 0 244 -85t78 -233q0 -191 -95.5 -280.5t-326.5 -89.5q-161 0 -301 14v801h-184zM418 215q44 -12 88 -12q74 0 106.5 33t32.5 110q0 143 -135 143q-48 0 -92 -12v-262z" />
<glyph unicode="&#x44b;" horiz-adv-x="1210" d="M88 0v1024h244v-365q83 15 162 15q299 0 299 -318q0 -191 -91 -280.5t-309 -89.5q-172 0 -305 14zM332 215q44 -12 88 -12q66 0 93.5 33.5t27.5 111.5q0 74 -27 107.5t-92 33.5q-46 0 -90 -12v-262zM881 0v1024h243v-1024h-243z" />
<glyph unicode="&#x44c;" horiz-adv-x="841" d="M88 0v1024h244v-365q83 15 162 15q164 0 239.5 -85.5t75.5 -232.5q0 -190 -93 -280t-313 -90q-182 0 -315 14zM332 215q44 -12 90 -12q72 0 103.5 32.5t31.5 110.5q0 143 -131 143q-56 0 -94 -14v-260z" />
<glyph unicode="&#x44d;" horiz-adv-x="772" d="M31 33l57 203q82 -46 193 -46q98 0 140.5 55.5t47.5 180.5h-295v184h295q-6 114 -47 170t-129 56q-117 0 -193 -50l-65 185q110 82 305 82q381 0 381 -541q0 -271 -104 -405t-300 -134q-79 0 -158.5 16t-127.5 44z" />
<glyph unicode="&#x44e;" horiz-adv-x="1251" d="M88 0v1024h244v-389h119q19 209 107.5 311.5t264.5 102.5q377 0 377 -537t-381 -537q-184 0 -270 110.5t-100 332.5h-117v-418h-244zM680 512q0 -164 31.5 -241.5t107.5 -77.5q47 0 74 27t41 97t14 195q0 171 -29.5 245t-103.5 74q-71 0 -103 -72t-32 -247z" />
<glyph unicode="&#x44f;" horiz-adv-x="862" d="M14 0l156 330l80 65q-83 21 -133.5 99.5t-50.5 195.5q0 187 103 274.5t325 86.5q163 0 286 -29v-1022h-243v387l-93 -25l-145 -362h-285zM317 676q0 -153 162 -156l58 4v295q-30 15 -76 15q-144 0 -144 -158z" />
<glyph unicode="&#x451;" horiz-adv-x="876" d="M51 512q0 271 107.5 406t306.5 135q69 0 127 -20t108.5 -64t79.5 -125.5t29 -192.5q0 -87 -21 -207h-497q5 -131 55 -196.5t156 -65.5q61 0 115.5 19t87.5 45l75 -170q-52 -45 -140 -74t-183 -29q-406 0 -406 539zM131 1294q0 66 35.5 103t95.5 37q58 0 92.5 -37.5 t34.5 -102.5q0 -61 -35 -97t-92 -36q-60 0 -95.5 36t-35.5 97zM299 606h283q12 238 -121 238q-149 0 -162 -238zM512 1294q0 66 34.5 103t94.5 37t94.5 -37t34.5 -103q0 -62 -34.5 -97.5t-94.5 -35.5t-94.5 35.5t-34.5 97.5z" />
<glyph unicode="&#x452;" horiz-adv-x="935" d="M-16 1067v162h120v205h244v-205h273v-162h-273v-254h8q79 129 248 129q128 0 190 -82.5t62 -279.5v-643q0 -359 -268 -359q-59 0 -119 14v209q83 -7 113 43t30 162v512q0 113 -25 157t-91 44q-49 0 -90 -32t-58 -83v-604h-244v1067h-120z" />
<glyph unicode="&#x453;" horiz-adv-x="632" d="M88 0v1024h555v-223h-311v-801h-244zM266 1159l86 316h244v-62l-193 -254h-137z" />
<glyph unicode="&#x454;" horiz-adv-x="759" d="M55 512q0 257 108.5 397t299.5 140q161 0 258 -54l-59 -207q-70 37 -162 37q-158 0 -191 -219h309v-176h-311q12 -108 64 -169.5t141 -61.5q94 0 166 45l51 -193q-46 -36 -122.5 -56t-153.5 -20q-198 0 -298 143t-100 394z" />
<glyph unicode="&#x455;" horiz-adv-x="716" d="M39 47l67 197q107 -62 218 -62q50 0 79 22.5t29 67.5q0 35 -21 63.5t-54.5 50t-73.5 43t-80.5 49.5t-74 62.5t-54.5 89t-21 122.5q0 144 78 221.5t229 77.5q88 0 168 -19t129 -49l-57 -188q-104 47 -203 47q-100 0 -100 -84q0 -30 21 -55.5t54.5 -45.5t73.5 -41.5 t80.5 -49.5t74 -63.5t54.5 -91t21 -124.5q0 -145 -88 -229.5t-254 -84.5q-83 0 -164 20.5t-131 53.5z" />
<glyph unicode="&#x456;" horiz-adv-x="460" d="M78 1313q0 63 39.5 102t109.5 39q72 0 115 -39t43 -102t-43 -100t-115 -37q-71 0 -110 37t-39 100zM109 0v1024h243v-1024h-243z" />
<glyph unicode="&#x457;" horiz-adv-x="561" d="M33 1313q0 139 114 139q113 0 113 -139q0 -135 -113 -135q-58 0 -86 36t-28 99zM154 0v1024h243v-1024h-243zM301 1313q0 139 113 139q116 0 116 -139q0 -63 -28.5 -99t-87.5 -36q-113 0 -113 135z" />
<glyph unicode="&#x458;" horiz-adv-x="460" d="M-33 -195q83 -7 113.5 47t30.5 177v995h243v-1067q0 -383 -270 -383q-62 0 -117 14v217zM78 1313q0 63 39.5 102t109.5 39q72 0 115 -39t43 -102t-43 -100t-115 -37q-71 0 -110 37t-39 100z" />
<glyph unicode="&#x459;" horiz-adv-x="1308" d="M-31 18l29 213q70 -23 105 23q56 73 76 400q9 147 14 370h606v-365q82 15 162 15q164 0 239.5 -85.5t75.5 -232.5q0 -190 -93 -280t-313 -90q-182 0 -315 14v801h-145q-5 -112 -11.5 -195.5t-17 -172.5t-24.5 -152t-35.5 -121.5t-49.5 -94t-66 -56.5t-85 -21 q-106 0 -152 30zM799 215q43 -12 90 -12q72 0 103.5 32.5t31.5 110.5q0 143 -131 143q-56 0 -94 -14v-260z" />
<glyph unicode="&#x45a;" horiz-adv-x="1333" d="M88 0v1024h244v-385h246v385h243v-369q89 13 162 13q164 0 240.5 -84t76.5 -228q0 -190 -93.5 -280t-313.5 -90q-182 0 -315 14v416h-246v-416h-244zM821 215q43 -12 90 -12q73 0 105.5 34t32.5 111q0 71 -32 102t-102 31q-51 0 -94 -12v-254z" />
<glyph unicode="&#x45b;" horiz-adv-x="935" d="M-16 1067v162h120v205h244v-205h273v-162h-273v-250h8q83 125 248 125q128 0 190 -83.5t62 -280.5v-578h-244v522q0 106 -25.5 151.5t-90.5 45.5q-50 0 -90.5 -32.5t-57.5 -86.5v-600h-244v1067h-120z" />
<glyph unicode="&#x45c;" horiz-adv-x="837" d="M88 0v1024h244v-436l49 28l172 408h262l-186 -393l-90 -80l98 -80l207 -471h-275l-182 424h-55v-424h-244zM326 1159l86 316h243v-62l-192 -254h-137z" />
<glyph unicode="&#x45e;" horiz-adv-x="819" d="M-20 1024h292l144 -575l26 -160h11l18 162l119 573h250l-256 -924q-24 -85 -38 -131.5t-35.5 -111t-38 -98.5t-40 -74t-46.5 -59.5t-53 -32.5t-65 -13q-98 0 -151 31l41 209q63 -24 109 15t69 165zM127 1397l207 45q11 -148 100 -148q43 0 69 34.5t36 111.5l184 -45 q-22 -135 -101 -202t-194 -67q-56 0 -104.5 14.5t-90.5 45t-70 84.5t-36 127z" />
<glyph unicode="&#x45f;" horiz-adv-x="897" d="M88 0v1024h244v-801h235v801h244v-1024h-250l-24 -358h-168l-33 358h-248z" />
<glyph unicode="&#x462;" horiz-adv-x="1116" d="M0 1098v223h236v164h258v-164h333v-223h-333v-195q71 17 159 17q74 0 133.5 -11.5t115.5 -42t94 -79.5t60.5 -128.5t22.5 -183.5q0 -249 -119.5 -372t-373.5 -123q-214 0 -350 32v1086h-236zM494 229q38 -12 106 -12q209 0 209 248q0 132 -54.5 181.5t-152.5 49.5 q-24 0 -59.5 -5t-48.5 -11v-451z" />
<glyph unicode="&#x463;" horiz-adv-x="929" d="M-10 838v186h184v410h244v-410h270v-186h-270v-179q82 15 162 15q163 0 240 -86t77 -232q0 -190 -96 -280t-324 -90q-163 0 -303 14v838h-184zM418 215q44 -12 88 -12q72 0 105.5 36t33.5 111q0 137 -133 137q-50 0 -94 -12v-260z" />
<glyph unicode="&#x472;" horiz-adv-x="1130" d="M59 717q0 745 506 745q131 0 229 -52t158 -150.5t89.5 -233.5t29.5 -309q0 -366 -127.5 -556t-378.5 -190q-132 0 -229.5 52t-158 151t-89.5 234t-29 309zM330 612q27 -403 235 -403q218 0 238 403h-473zM330 829h471q-28 396 -236 396q-211 0 -235 -396z" />
<glyph unicode="&#x473;" horiz-adv-x="911" d="M51 512q0 262 105.5 401.5t298.5 139.5q200 0 302.5 -143t102.5 -398q0 -263 -105.5 -402t-299.5 -139q-200 0 -302 143t-102 398zM303 426q6 -119 47.5 -178.5t104.5 -59.5q140 0 153 238h-305zM303 592h305q-10 130 -47.5 187t-103.5 57q-141 0 -154 -244z" />
<glyph unicode="&#x474;" horiz-adv-x="1081" d="M-25 1434h304l213 -842l28 -246h8l27 248l113 469q37 154 77 237t94.5 117.5t139.5 34.5q106 0 188 -45l-53 -229q-44 26 -94 26q-39 0 -64 -40t-47 -124l-301 -1050h-196z" />
<glyph unicode="&#x475;" horiz-adv-x="892" d="M-18 1024h284l140 -522l26 -172h8l21 174l37 145q51 219 109.5 306t166.5 87q94 0 152 -34l-35 -211q-32 14 -53 14q-31 0 -57.5 -30.5t-51.5 -106.5l-225 -684h-156z" />
<glyph unicode="&#x48a;" horiz-adv-x="1206" d="M92 0v1434h258v-750l-22 -209h10l82 223l407 736h201v-1211h189v-63l-164 -426h-181l76 266h-178v764l21 203h-11l-78 -217l-407 -750h-203zM219 1753l234 37q12 -125 114 -125q103 0 115 123l209 -31q-17 -130 -99 -191t-227 -61q-151 0 -240.5 57t-105.5 191z" />
<glyph unicode="&#x48b;" horiz-adv-x="1005" d="M88 0v1024h244v-465l-19 -160h6l74 170l277 455h164v-801h176v-63l-164 -393h-180l75 233h-151v446l18 166h-6l-76 -174l-274 -438h-164zM178 1397l207 45q11 -148 100 -148q43 0 69 34.5t36 111.5l184 -45q-22 -135 -101 -202t-194 -67q-56 0 -104.5 14.5t-90.5 45 t-70 84.5t-36 127z" />
<glyph unicode="&#x48c;" horiz-adv-x="1116" d="M0 1098v223h236v164h258v-164h333v-223h-333v-195q71 17 159 17q74 0 133.5 -11.5t115.5 -42t94 -79.5t60.5 -128.5t22.5 -183.5q0 -249 -119.5 -372t-373.5 -123q-214 0 -350 32v1086h-236zM494 229q38 -12 106 -12q209 0 209 248q0 132 -54.5 181.5t-152.5 49.5 q-24 0 -59.5 -5t-48.5 -11v-451z" />
<glyph unicode="&#x48d;" horiz-adv-x="929" d="M-10 838v186h184v410h244v-410h270v-186h-270v-179q82 15 162 15q163 0 240 -86t77 -232q0 -190 -96 -280t-324 -90q-163 0 -303 14v838h-184zM418 215q44 -12 88 -12q72 0 105.5 36t33.5 111q0 137 -133 137q-50 0 -94 -12v-260z" />
<glyph unicode="&#x48e;" horiz-adv-x="976" d="M92 0v1419q149 35 338 35q82 0 149.5 -10.5t137 -41t116.5 -81t77 -137.5t30 -203q0 -245 -135 -377l104 -153l-153 -129l-133 182q-71 -19 -140 -19q-95 0 -133 9v-494h-258zM350 725q27 -10 92 -10q46 0 90 12l-100 147l74 111l123 -180q41 67 41 178q0 128 -59.5 185 t-155.5 57q-55 0 -105 -11v-489z" />
<glyph unicode="&#x48f;" horiz-adv-x="915" d="M88 -410v1434h182l25 -117h6q48 74 106.5 108t143.5 34q159 0 236 -120t77 -390q0 -282 -102 -426l80 -107l-146 -133l-96 117q-55 -19 -119 -19q-92 0 -149 35v-416h-244zM332 229q41 -41 112 -41q35 0 64 13l-86 110l65 84l91 -110q34 84 34 260q0 148 -33.5 217 t-107.5 69q-101 0 -139 -120v-482z" />
<glyph unicode="&#x490;" horiz-adv-x="780" d="M92 0v1434h502l35 311h166v-549h-445v-1196h-258z" />
<glyph unicode="&#x491;" horiz-adv-x="632" d="M88 0v1024h354l35 311h166v-534h-311v-801h-244z" />
<glyph unicode="&#x492;" horiz-adv-x="868" d="M2 608v178h162v648h702v-238h-444v-410h371v-178h-371v-608h-258v608h-162z" />
<glyph unicode="&#x493;" horiz-adv-x="692" d="M0 399v162h129v463h555v-223h-311v-240h274v-162h-274v-399h-244v399h-129z" />
<glyph unicode="&#x494;" horiz-adv-x="993" d="M92 0v1434h703v-238h-445v-428q110 45 221 45q62 0 113 -13.5t99 -49.5t81 -93t52.5 -149.5t19.5 -214.5q0 -284 -93 -418.5t-313 -134.5q-85 0 -104 8v227q11 -4 88 -4q79 0 115.5 74t36.5 238q0 165 -45 228.5t-134 63.5q-63 0 -137 -38v-537h-258z" />
<glyph unicode="&#x495;" horiz-adv-x="907" d="M88 0v1024h549v-223h-305v-271q105 43 209 43q69 0 122 -21t98.5 -72.5t70 -151t24.5 -242.5q0 -267 -86.5 -392.5t-296.5 -125.5q-79 0 -106 10v217q28 -4 86 -4q76 0 110.5 67.5t34.5 225.5q0 148 -36.5 207t-108.5 59q-70 0 -121 -31v-319h-244z" />
<glyph unicode="&#x496;" horiz-adv-x="1486" d="M-10 0l286 631l95 78l-92 73l-267 652h299l213 -617h64v617h243v-641l60 28l215 613h289l-256 -631l-82 -68l100 -84l182 -413h142v-494h-183l-26 256h-137l-240 625h-64v-625h-243v649l-58 -28l-241 -621h-299z" />
<glyph unicode="&#x497;" horiz-adv-x="1253" d="M-8 0l205 469l59 61l-86 78l-160 416h258l138 -416h69v416h232v-436l61 28l137 408h258l-170 -416l-67 -65l86 -82l96 -238h139v-456h-180l-27 233h-116l-150 424h-67v-424h-232v444l-63 -28l-150 -416h-270z" />
<glyph unicode="&#x498;" horiz-adv-x="890" d="M25 43l67 229q104 -63 268 -63q91 0 149 57t58 168q0 102 -58 151.5t-196 53.5q-15 0 -31 1t-34 1h-47v209h49q112 0 147 14q59 18 96 63.5t37 114.5q0 96 -46 137.5t-136 41.5q-64 0 -124 -19.5t-101 -46.5l-66 223q48 30 147 55t197 25q67 0 122.5 -9t108.5 -34t89 -64 t58 -103t22 -148q0 -111 -46.5 -199t-140.5 -129v-12q224 -62 224 -348q0 -97 -28.5 -175t-79 -129.5t-114 -83t-139.5 -44.5l-22 -338h-168l-31 335q-154 22 -231 66z" />
<glyph unicode="&#x499;" horiz-adv-x="724" d="M29 47l49 199q81 -49 203 -49q149 0 149 120q0 54 -40 81.5t-138 27.5h-78v182h98q55 0 90 32.5t35 80.5q0 102 -127 102q-104 0 -184 -51l-55 195q56 32 142 52.5t175 20.5q293 0 293 -254q0 -79 -34 -144t-97 -93v-8q86 -25 125 -86t39 -166q0 -109 -59 -188t-177 -107 l-24 -352h-168l-33 344q-113 14 -184 61z" />
<glyph unicode="&#x49a;" horiz-adv-x="1093" d="M92 0v1434h258v-637l51 24l301 613h291l-327 -605l-97 -75l99 -78l245 -438h170v-494h-182l-24 256h-146l-325 614h-56v-614h-258z" />
<glyph unicode="&#x49b;" horiz-adv-x="901" d="M88 0v1024h244v-436l49 28l172 408h262l-186 -393l-90 -80l98 -80l108 -248h144v-456h-180l-27 233h-113l-182 424h-55v-424h-244z" />
<glyph unicode="&#x49c;" horiz-adv-x="1236" d="M92 0v1434h258v-635l92 8v272h170v-256l39 4l246 607h277l-267 -603l-96 -77l96 -80l314 -674h-297l-267 612h-45v-260h-170v260h-92v-612h-258z" />
<glyph unicode="&#x49d;" horiz-adv-x="1005" d="M88 0v1024h244v-436l67 8v246h133v-230l37 4l133 408h256l-147 -395l-92 -78l96 -78l170 -473h-266l-141 424h-46v-242h-133v242h-67v-424h-244z" />
<glyph unicode="&#x49e;" horiz-adv-x="1185" d="M2 1114v197h215v123h258v-123h150v-174h-150v-340l90 28l271 609h282l-295 -603l-118 -77l108 -80l356 -674h-313l-303 614h-78v-614h-258v1114h-215z" />
<glyph unicode="&#x49f;" horiz-adv-x="858" d="M-31 1120v162h135v152h244v-152h258v-162h-258v-532l49 28l170 408h264l-188 -406l-88 -69l96 -70l209 -479h-274l-180 424h-58v-424h-244v1120h-135z" />
<glyph unicode="&#x4a0;" horiz-adv-x="1236" d="M0 1196v238h526v-637l52 24l301 613h290l-327 -605l-97 -75l97 -78l379 -676h-314l-325 614h-56v-614h-258v1153v43h-268z" />
<glyph unicode="&#x4a1;" horiz-adv-x="927" d="M-10 801v223h428v-436l51 26l172 410h260l-184 -389l-92 -78l96 -80l209 -477h-275l-180 424h-57v-424h-244v801h-184z" />
<glyph unicode="&#x4a2;" horiz-adv-x="1177" d="M92 0v1434h258v-590h391v590h258v-1196h150v-494h-182l-25 256h-201v606h-391v-606h-258z" />
<glyph unicode="&#x4a3;" horiz-adv-x="966" d="M88 0v1024h244v-393h246v393h243v-801h131v-456h-180l-27 233h-167v408h-246v-408h-244z" />
<glyph unicode="&#x4a4;" horiz-adv-x="1427" d="M92 0v1434h258v-590h391v590h703v-238h-445v-1196h-258v606h-391v-606h-258z" />
<glyph unicode="&#x4a5;" horiz-adv-x="1118" d="M88 0v1024h244v-393h246v393h550v-223h-307v-801h-243v408h-246v-408h-244z" />
<glyph unicode="&#x4a6;" horiz-adv-x="1619" d="M92 0v1434h889v-666q110 45 219 45q62 0 113.5 -13.5t99.5 -49.5t81 -93t53 -149.5t20 -214.5q0 -277 -93 -415t-313 -138q-87 0 -106 8v227q11 -4 88 -4q78 0 115.5 75.5t37.5 236.5q0 159 -45.5 225.5t-134.5 66.5q-33 0 -73.5 -12.5t-61.5 -25.5v-60v-477h-258v1196 h-373v-1196h-258z" />
<glyph unicode="&#x4a7;" horiz-adv-x="1386" d="M88 0v1024h725v-492q100 41 209 41q52 0 95.5 -12.5t85 -45.5t70 -86t45.5 -138.5t17 -198.5q0 -273 -86.5 -398.5t-300.5 -125.5q-72 0 -102 10v217q32 -4 88 -4q76 0 112.5 69.5t36.5 221.5q0 146 -38.5 207t-110.5 61q-66 0 -121 -31v-319h-244v801h-237v-801h-244z " />
<glyph unicode="&#x4a8;" horiz-adv-x="1519" d="M59 719q0 373 134 558t411 185v-237q-274 0 -274 -496q0 -239 93.5 -379.5t221.5 -140.5q58 0 78 10q-76 67 -126 209t-50 324q0 316 115 478.5t327 162.5q110 0 192.5 -42.5t132 -121t73.5 -182t24 -232.5q0 -145 -37.5 -276t-87 -210t-102.5 -118q14 -2 45 -2 q45 0 90 15.5t76 41.5l80 -207q-88 -88 -258 -88q-75 0 -149.5 25.5t-119.5 73.5q-126 -99 -303 -99q-285 0 -435.5 194.5t-150.5 553.5zM817 760q0 -136 41 -263.5t119 -195.5q72 68 118 204t46 298q0 79 -7.5 139.5t-24.5 110.5t-48 76t-76 26q-80 0 -124 -99t-44 -296z " />
<glyph unicode="&#x4a9;" horiz-adv-x="1224" d="M49 512q0 527 414 541v-217q-85 -7 -123.5 -84.5t-38.5 -233.5q0 -152 56 -240t149 -88q46 0 63 17q-44 44 -75 138.5t-31 207.5q0 91 18 171t57 149.5t110 110t167 40.5q93 0 161 -34t106 -94.5t55.5 -134t17.5 -163.5q0 -131 -49 -247.5t-111 -164.5q36 -17 80 -7 t74 40l51 -176q-70 -70 -207 -70q-140 0 -217 84q-99 -84 -274 -84q-221 0 -337 143t-116 396zM698 549q0 -92 26 -171t73 -128q49 42 77.5 132.5t28.5 201.5q0 223 -96 223q-62 0 -85.5 -64.5t-23.5 -193.5z" />
<glyph unicode="&#x4aa;" horiz-adv-x="935" d="M59 719q0 168 30.5 299.5t80.5 213.5t120.5 135t144 74t157.5 21q173 0 297 -53l-51 -227q-81 43 -215 43q-293 0 -293 -508q0 -115 18 -206.5t54.5 -160t96.5 -105t140 -36.5q113 0 215 65l51 -217q-72 -60 -211 -77l-22 -338h-168l-31 340q-192 34 -303 213t-111 524z " />
<glyph unicode="&#x4ab;" horiz-adv-x="716" d="M51 512q0 268 96 403.5t283 135.5q150 0 254 -58l-57 -202q-71 36 -152 36q-87 0 -129.5 -75.5t-42.5 -239.5q0 -146 45.5 -230.5t138.5 -84.5q83 0 154 47l51 -189q-61 -49 -149 -67l-23 -346h-168l-33 344q-141 35 -204.5 169t-63.5 357z" />
<glyph unicode="&#x4ac;" horiz-adv-x="970" d="M16 1196v238h938v-238h-340v-958h150v-494h-182l-25 256h-201v1196h-340z" />
<glyph unicode="&#x4ad;" horiz-adv-x="706" d="M2 801v223h703v-223h-230v-578h143v-456h-180l-26 233h-181v801h-229z" />
<glyph unicode="&#x4ae;" horiz-adv-x="1013" d="M-8 1434h307l199 -543l20 -156h10l23 160l194 539h277l-387 -899v-535h-258v532z" />
<glyph unicode="&#x4af;" horiz-adv-x="835" d="M-18 1024h284l142 -594l26 -205h8l21 207l127 592h264l-303 -1026v-408h-244v408z" />
<glyph unicode="&#x4b0;" horiz-adv-x="1013" d="M-8 1434h307l199 -543l20 -156h10l23 160l194 539h277l-360 -836h235v-176h-262v-422h-258v422h-262v176h233z" />
<glyph unicode="&#x4b1;" horiz-adv-x="835" d="M-18 1024h284l142 -594l26 -205h8l21 207l127 592h264l-303 -1024h194v-162h-194v-248h-244v248h-198v162h196z" />
<glyph unicode="&#x4b2;" horiz-adv-x="1142" d="M12 0l350 729l-317 705h311l166 -410l39 -156l37 156l174 410h279l-328 -691l233 -505h177v-494h-183l-24 256h-160l-193 440l-43 160l-41 -160l-192 -440h-285z" />
<glyph unicode="&#x4b3;" horiz-adv-x="931" d="M8 0l264 524l-243 500h286l105 -242l39 -131l43 131l106 242h264l-245 -492l151 -309h144v-456h-181l-26 233h-103l-125 266l-45 146l-47 -146l-125 -266h-262z" />
<glyph unicode="&#x4b4;" horiz-adv-x="1417" d="M16 1196v238h818v-238h-220v-958h369v1196h258v-1196h150v-494h-183l-26 256h-826v1196h-340z" />
<glyph unicode="&#x4b5;" horiz-adv-x="1101" d="M2 801v223h627v-223h-154v-578h238v801h243v-801h123v-456h-180l-25 233h-643v801h-229z" />
<glyph unicode="&#x4b6;" horiz-adv-x="1116" d="M70 879v555h258v-471q0 -127 36 -181.5t121 -54.5q132 0 195 72v635h258v-1196h149v-494h-182l-24 256h-201v578q-113 -80 -285 -80q-71 0 -127.5 19.5t-102 62.5t-70.5 119t-25 180z" />
<glyph unicode="&#x4b7;" horiz-adv-x="927" d="M49 659v365h244v-274q0 -115 20.5 -160t83.5 -45q79 0 129 43v436h244v-801h139v-456h-180l-27 233h-176v397q-84 -69 -213 -69q-131 0 -197.5 74t-66.5 257z" />
<glyph unicode="&#x4b8;" horiz-adv-x="1112" d="M70 881v553h258v-469q0 -117 30.5 -171.5t104.5 -64.5v248h172v-234q78 18 127 54v637h258v-1434h-258v580q-66 -39 -127 -54v-276h-172v250q-18 -2 -51 -2q-342 0 -342 383z" />
<glyph unicode="&#x4b9;" horiz-adv-x="933" d="M47 676v348h244v-258q0 -108 21 -160.5t75 -64.5v250h135v-240q55 12 80 37v436h244v-1024h-244v397q-29 -22 -80 -41v-235h-135v205q-23 -2 -59 -2q-143 0 -212 78.5t-69 273.5z" />
<glyph unicode="&#x4ba;" horiz-adv-x="1036" d="M92 0v1434h258v-578q120 82 293 82q320 0 320 -393v-545h-258v465q0 126 -36 185t-122 59q-60 0 -112.5 -19t-84.5 -51v-639h-258z" />
<glyph unicode="&#x4bb;" horiz-adv-x="919" d="M88 0v1434h244v-502h6q91 119 246 119q88 0 142 -33t84 -117.5t30 -228.5v-672h-244v618q0 112 -26.5 160.5t-92.5 48.5q-50 0 -91 -34t-54 -88v-705h-244z" />
<glyph unicode="&#x4bc;" horiz-adv-x="1366" d="M0 901q3 103 45 168h211q-37 -59 -37 -135q0 -112 137 -100q12 294 136 461t346 167q456 0 456 -600q0 -118 -18 -256h-662q16 -397 299 -397q128 0 261 98l65 -223q-162 -113 -375 -113q-236 0 -367 161.5t-141 473.5h-51q-162 0 -233.5 80.5t-71.5 214.5zM612 829h430 q5 78 5 84q0 141 -50.5 233.5t-152.5 92.5q-219 0 -232 -410z" />
<glyph unicode="&#x4bd;" horiz-adv-x="1112" d="M6 705q0 95 57 169h203q-61 -58 -61 -165q0 -98 102 -95q23 215 128.5 327t279.5 112q69 0 127 -20t108.5 -64t79.5 -125.5t29 -192.5q0 -87 -21 -207h-497q5 -131 55 -196.5t156 -65.5q61 0 115 19t87 45l76 -170q-52 -45 -140 -74t-183 -29q-190 0 -290 123.5 t-114 347.5h-16q-139 0 -212 64t-69 197zM549 606h282q12 238 -120 238q-149 0 -162 -238z" />
<glyph unicode="&#x4be;" horiz-adv-x="1366" d="M0 901q3 103 45 168h211q-37 -59 -37 -135q0 -112 137 -100q12 294 136 461t346 167q456 0 456 -600q0 -118 -18 -256h-662q16 -397 299 -397q128 0 261 98l65 -223q-121 -83 -266 -104l-23 -338h-168l-30 340q-185 35 -285.5 192.5t-110.5 431.5h-51q-162 0 -233.5 80.5 t-71.5 214.5zM612 829h430q5 78 5 84q0 141 -50.5 233.5t-152.5 92.5q-219 0 -232 -410z" />
<glyph unicode="&#x4bf;" horiz-adv-x="1112" d="M6 705q0 95 57 169h203q-61 -58 -61 -165q0 -98 102 -95q23 215 128.5 327t279.5 112q69 0 127 -20t108.5 -64t79.5 -125.5t29 -192.5q0 -87 -21 -207h-497q5 -131 55 -196.5t156 -65.5q61 0 115 19t87 45l76 -170q-79 -69 -211 -90l-22 -344h-168l-33 344 q-271 68 -293 458h-16q-139 0 -212 64t-69 197zM549 606h282q12 238 -120 238q-149 0 -162 -238z" />
<glyph unicode="&#x4c0;" horiz-adv-x="487" d="M115 0v1434h258v-1434h-258z" />
<glyph unicode="&#x4c3;" horiz-adv-x="1048" d="M92 0v1434h258v-637l51 24l301 613h291l-315 -574l-105 -82h80q109 -34 173.5 -100t96 -182.5t31.5 -300.5v-56q0 -282 -96 -421.5t-274 -139.5q-58 0 -107 10v219q121 -10 170 71.5t49 279.5q0 231 -62.5 343.5t-221.5 112.5h-62v-614h-258z" />
<glyph unicode="&#x4c4;" horiz-adv-x="856" d="M88 0v1024h244v-444l49 24l172 420h262l-188 -408l-82 -65l67 -6q59 -20 99 -64t59.5 -108.5t27 -130t7.5 -150.5v-35q0 -481 -307 -481q-64 0 -119 14v215q92 -17 137 47.5t45 213.5q0 173 -41.5 257t-132.5 95h-55v-418h-244z" />
<glyph unicode="&#x4c5;" horiz-adv-x="1120" d="M-25 14l29 234q90 -33 135 65q49 90 74 354.5t33 766.5h719v-1211h165v-63l-163 -426h-181l76 266h-155v1196h-218q-15 -440 -42 -681.5t-91 -367.5q-24 -47 -55 -80t-64.5 -50t-63.5 -24t-60 -7q-77 0 -138 28z" />
<glyph unicode="&#x4c6;" horiz-adv-x="954" d="M-31 18l29 213q70 -23 105 23q56 73 76 400q9 147 14 370h606v-801h159v-63l-163 -393h-181l76 233h-135v801h-147q-5 -112 -11 -195.5t-16.5 -173t-24.5 -152t-35.5 -121t-49 -94t-65.5 -56.5t-85 -21q-106 0 -152 30z" />
<glyph unicode="&#x4c7;" horiz-adv-x="1091" d="M92 0v1434h258v-590h391v590h258v-1434v-61q0 -363 -274 -363q-51 0 -113 12v217q80 -7 104.5 39t24.5 156v606h-391v-606h-258z" />
<glyph unicode="&#x4c8;" horiz-adv-x="909" d="M88 0v1024h244v-393h246v393h243v-1087q0 -359 -268 -359q-59 0 -119 14v211q84 -7 114 39.5t30 157.5v408h-246v-408h-244z" />
<glyph unicode="&#x4c9;" horiz-adv-x="1161" d="M92 0v1434h258v-590h391v590h258v-1211h172v-63l-163 -426h-181l76 266h-162v606h-391v-606h-258z" />
<glyph unicode="&#x4ca;" horiz-adv-x="987" d="M88 0v1024h244v-393h246v393h243v-801h170v-63l-164 -393h-180l76 233h-145v408h-246v-408h-244z" />
<glyph unicode="&#x4cb;" horiz-adv-x="1030" d="M70 879v555h258v-471q0 -127 36 -181.5t121 -54.5q132 0 195 72v635h258v-1434h-199l-24 -256h-183v494h148v340q-113 -80 -285 -80q-71 0 -127.5 19.5t-102 62.5t-70.5 119t-25 180z" />
<glyph unicode="&#x4cc;" horiz-adv-x="860" d="M49 698v326h244v-225q0 -123 21.5 -172t84.5 -49q84 0 129 38v408h244v-1024h-205l-24 -233h-181v426h166v233q-75 -66 -215 -66q-129 0 -196.5 80t-67.5 258z" />
<glyph unicode="&#x4cd;" horiz-adv-x="1443" d="M92 0v1434h248l299 -621l49 -178h8l47 182l281 617h244v-1211h188v-63l-164 -426h-180l76 266h-178v739l28 275h-10l-76 -246l-233 -504h-86l-248 506l-76 248h-12l39 -277v-741h-244z" />
<glyph unicode="&#x4ce;" horiz-adv-x="1214" d="M88 0v1024h256l186 -377l41 -137h9l43 141l172 373h254v-801h170v-63l-164 -393h-181l76 233h-133v471l14 211h-10l-61 -190l-150 -308h-92l-164 308l-63 190h-12l26 -211v-471h-217z" />
<glyph unicode="&#x4cf;" horiz-adv-x="444" d="M100 0v1434h244v-1434h-244z" />
<glyph unicode="&#x4d0;" horiz-adv-x="1026" d="M-6 0l416 1444h202l418 -1444h-270l-88 324h-338l-84 -324h-256zM170 1753l233 37q12 -125 115 -125t115 123l209 -31q-17 -130 -99 -191t-227 -61q-151 0 -240.5 57t-105.5 191zM389 537h238l-82 333l-33 226h-8l-35 -228z" />
<glyph unicode="&#x4d1;" horiz-adv-x="845" d="M35 283q0 179 127 259t358 68q11 122 -15.5 174t-109.5 52q-134 0 -243 -56l-62 183q136 81 363 81q167 0 239 -86.5t72 -259.5q0 -73 -8.5 -234.5t-4.5 -269.5t31 -196h-198l-39 125h-8q-74 -137 -242 -137q-121 0 -190.5 80.5t-69.5 216.5zM127 1397l207 45 q11 -148 100 -148q43 0 69 34.5t36 111.5l184 -45q-22 -135 -101 -202t-194 -67q-56 0 -104.5 14.5t-90.5 45t-70 84.5t-36 127zM287 324q0 -62 25.5 -95.5t70.5 -33.5q94 0 141 88v170q-102 13 -169.5 -18t-67.5 -111z" />
<glyph unicode="&#x4d2;" horiz-adv-x="1026" d="M-6 0l416 1444h202l418 -1444h-270l-88 324h-338l-84 -324h-256zM186 1634q0 119 142 119q135 0 135 -119q0 -116 -135 -116q-142 0 -142 116zM389 537h238l-82 333l-33 226h-8l-35 -228zM559 1634q0 119 137 119q140 0 140 -119q0 -116 -140 -116q-137 0 -137 116z" />
<glyph unicode="&#x4d3;" horiz-adv-x="845" d="M35 283q0 179 127 259t358 68q11 122 -15.5 174t-109.5 52q-134 0 -243 -56l-62 183q136 81 363 81q167 0 239 -86.5t72 -259.5q0 -73 -8.5 -234.5t-4.5 -269.5t31 -196h-198l-39 125h-8q-74 -137 -242 -137q-121 0 -190.5 80.5t-69.5 216.5zM106 1294q0 65 35.5 102.5 t96.5 37.5q58 0 92.5 -37.5t34.5 -102.5q0 -61 -35 -97t-92 -36q-60 0 -96 36t-36 97zM287 324q0 -62 25.5 -95.5t70.5 -33.5q94 0 141 88v170q-102 13 -169.5 -18t-67.5 -111zM487 1294q0 66 34.5 103t94.5 37t94.5 -37t34.5 -103q0 -62 -34.5 -97.5t-94.5 -35.5 t-94.5 35.5t-34.5 97.5z" />
<glyph unicode="&#x4d4;" horiz-adv-x="1468" d="M-49 0l717 1434h727v-238h-459v-352h416v-238h-416v-368h467v-238h-725v354h-295l-162 -354h-270zM481 567h197v502h-10l-54 -199z" />
<glyph unicode="&#x4d5;" horiz-adv-x="1337" d="M35 285q0 181 126 261t357 68q2 25 2 66q0 81 -27.5 116t-95.5 35q-132 0 -245 -65l-64 184q67 44 161 69t195 25q86 0 140 -26.5t90 -83.5q82 119 254 119q70 0 128.5 -20.5t108.5 -65t78.5 -126.5t28.5 -194q0 -91 -21 -205h-493q5 -136 52.5 -198t152.5 -62 q59 0 113.5 18.5t86.5 43.5l80 -170q-54 -44 -141.5 -72.5t-186.5 -28.5q-223 0 -317 166h-10q-46 -75 -114.5 -115t-174.5 -40q-122 0 -193 83t-71 218zM287 324q0 -58 24.5 -90.5t71.5 -32.5q100 0 143 92v164q-239 19 -239 -133zM764 604h280q6 113 -25 176.5t-97 63.5 q-76 0 -114 -60t-44 -180z" />
<glyph unicode="&#x4d6;" horiz-adv-x="880" d="M92 0v1434h717v-238h-459v-352h416v-238h-416v-368h467v-238h-725zM115 1753l233 37q12 -125 115 -125t115 123l208 -31q-17 -131 -98.5 -191.5t-226.5 -60.5q-151 0 -240.5 57t-105.5 191z" />
<glyph unicode="&#x4d7;" horiz-adv-x="876" d="M51 512q0 271 107.5 406t306.5 135q69 0 127 -20t108.5 -64t79.5 -125.5t29 -192.5q0 -87 -21 -207h-497q5 -131 55 -196.5t156 -65.5q61 0 115.5 19t87.5 45l75 -170q-52 -45 -140 -74t-183 -29q-406 0 -406 539zM143 1397l207 45q11 -148 101 -148q43 0 68.5 34.5 t35.5 111.5l184 -45q-22 -135 -101 -202t-194 -67q-56 0 -104.5 14.5t-90.5 45t-70 84.5t-36 127zM299 606h283q12 238 -121 238q-149 0 -162 -238z" />
<glyph unicode="&#x4d8;" horiz-adv-x="1067" d="M59 578q0 114 19 256h657q-8 192 -71.5 291.5t-206.5 99.5q-125 0 -260 -86l-58 225q62 40 162.5 69t198.5 29q254 0 380 -178.5t126 -566.5q0 -364 -117.5 -555t-376.5 -191q-229 0 -341 160t-112 447zM324 518q0 -143 49.5 -233t148.5 -90q112 0 162.5 102t50.5 319 h-407q-4 -22 -4 -98z" />
<glyph unicode="&#x4d9;" horiz-adv-x="860" d="M53 393q0 91 21 205h491q-8 131 -54.5 187.5t-150.5 56.5q-110 0 -196 -68l-84 178q56 44 145.5 71.5t186.5 27.5q200 0 298.5 -140t98.5 -399q0 -266 -105 -402.5t-294 -136.5q-72 0 -133 22t-113 69t-81.5 131t-29.5 198zM279 436q-8 -114 27.5 -184t103.5 -70 q75 0 116 67.5t39 186.5h-286z" />
<glyph unicode="&#x4da;" horiz-adv-x="1067" d="M59 578q0 114 19 256h657q-8 192 -71.5 291.5t-206.5 99.5q-125 0 -260 -86l-58 225q62 40 162.5 69t198.5 29q254 0 380 -178.5t126 -566.5q0 -364 -117.5 -555t-376.5 -191q-229 0 -341 160t-112 447zM193 1634q0 119 141 119q135 0 135 -119q0 -116 -135 -116 q-141 0 -141 116zM324 518q0 -143 49.5 -233t148.5 -90q112 0 162.5 102t50.5 319h-407q-4 -22 -4 -98zM565 1634q0 119 137 119q140 0 140 -119q0 -116 -140 -116q-137 0 -137 116z" />
<glyph unicode="&#x4db;" horiz-adv-x="860" d="M53 393q0 91 21 205h491q-8 131 -54.5 187.5t-150.5 56.5q-110 0 -196 -68l-84 178q56 44 145.5 71.5t186.5 27.5q200 0 298.5 -140t98.5 -399q0 -266 -105 -402.5t-294 -136.5q-72 0 -133 22t-113 69t-81.5 131t-29.5 198zM100 1294q0 66 35.5 103t95.5 37 q58 0 92.5 -37.5t34.5 -102.5q0 -61 -35 -97t-92 -36q-60 0 -95.5 36t-35.5 97zM279 436q-8 -114 27.5 -184t103.5 -70q75 0 116 67.5t39 186.5h-286zM481 1294q0 66 34.5 103t94.5 37t94.5 -37t34.5 -103q0 -62 -34.5 -97.5t-94.5 -35.5t-94.5 35.5t-34.5 97.5z" />
<glyph unicode="&#x4dc;" horiz-adv-x="1435" d="M-10 0l286 631l95 78l-92 73l-267 652h299l213 -617h64v617h243v-641l60 28l215 613h289l-256 -631l-82 -68l100 -84l289 -651h-311l-240 625h-64v-625h-243v649l-58 -28l-241 -621h-299zM391 1634q0 119 141 119q136 0 136 -119q0 -116 -136 -116q-141 0 -141 116z M764 1634q0 119 137 119q139 0 139 -119q0 -116 -139 -116q-137 0 -137 116z" />
<glyph unicode="&#x4dd;" horiz-adv-x="1191" d="M-8 0l205 469l59 61l-86 78l-160 416h258l138 -416h69v416h232v-436l61 28l137 408h258l-170 -416l-67 -65l86 -82l188 -461h-276l-150 424h-67v-424h-232v444l-63 -28l-150 -416h-270zM276 1294q0 65 35.5 102.5t96.5 37.5q58 0 92.5 -37.5t34.5 -102.5q0 -61 -35 -97 t-92 -36q-60 0 -96 36t-36 97zM657 1294q0 66 34.5 103t94.5 37t94.5 -37t34.5 -103q0 -62 -34.5 -97.5t-94.5 -35.5t-94.5 35.5t-34.5 97.5z" />
<glyph unicode="&#x4de;" horiz-adv-x="890" d="M25 43l67 229q104 -63 268 -63q91 0 149 57t58 168q0 102 -58 151.5t-196 53.5q-15 0 -31 1t-34 1h-47v209h49q112 0 147 14q59 18 96 63.5t37 114.5q0 96 -46 137.5t-136 41.5q-64 0 -124 -19.5t-101 -46.5l-66 223q48 30 147 55t197 25q67 0 122.5 -9t108.5 -34t89 -64 t58 -103t22 -148q0 -111 -46.5 -199t-140.5 -129v-12q224 -62 224 -348q0 -113 -38 -200t-103.5 -138.5t-146.5 -77t-175 -25.5q-108 0 -200.5 19.5t-149.5 52.5zM86 1634q0 119 141 119q135 0 135 -119q0 -116 -135 -116q-141 0 -141 116zM459 1634q0 119 137 119 q139 0 139 -119q0 -116 -139 -116q-137 0 -137 116z" />
<glyph unicode="&#x4df;" horiz-adv-x="724" d="M12 1294q0 66 35.5 103t95.5 37q58 0 92.5 -37.5t34.5 -102.5q0 -61 -35 -97t-92 -36q-60 0 -95.5 36t-35.5 97zM29 47l49 199q81 -49 203 -49q149 0 149 120q0 54 -40 81.5t-138 27.5h-78v182h98q55 0 90 32.5t35 80.5q0 102 -127 102q-104 0 -184 -51l-55 195 q56 32 142 52.5t175 20.5q293 0 293 -254q0 -79 -34 -144t-97 -93v-8q86 -25 125 -86t39 -166q0 -137 -92 -223t-273 -86q-172 0 -280 67zM393 1294q0 66 34.5 103t94.5 37t94.5 -37t34.5 -103q0 -62 -34.5 -97.5t-94.5 -35.5t-94.5 35.5t-34.5 97.5z" />
<glyph unicode="&#x4e0;" horiz-adv-x="925" d="M51 47l62 229q51 -30 120 -48.5t136 -18.5q104 0 163.5 62.5t59.5 172.5q0 114 -66 163.5t-209 49.5h-135v115l256 371l80 88l-102 -25h-338v228h733v-148l-276 -397l-82 -66v-10l82 25q146 -5 236.5 -104t90.5 -290q0 -223 -123.5 -348t-345.5 -125q-89 0 -185 19 t-157 57z" />
<glyph unicode="&#x4e1;" horiz-adv-x="825" d="M16 -358l82 202q96 -59 213 -59q101 0 163.5 62t62.5 167q0 236 -271 236h-102v104l196 369l95 98l-127 -14h-287v217h686v-137l-227 -385l-80 -60v-4l61 6q56 -4 108 -31t95.5 -75t69.5 -123.5t26 -167.5q0 -224 -128 -351.5t-345 -127.5q-181 0 -291 74z" />
<glyph unicode="&#x4e2;" horiz-adv-x="1120" d="M92 0v1434h258v-750l-22 -209h10l82 223l407 736h201v-1434h-258v764l21 203h-11l-78 -217l-407 -750h-203zM272 1571v182h592v-182h-592z" />
<glyph unicode="&#x4e3;" horiz-adv-x="921" d="M88 0v1024h244v-465l-19 -160h6l74 170l277 455h164v-1024h-244v446l18 166h-6l-76 -174l-274 -438h-164zM186 1161v187h557v-187h-557z" />
<glyph unicode="&#x4e4;" horiz-adv-x="1120" d="M92 0v1434h258v-750l-22 -209h10l82 223l407 736h201v-1434h-258v764l21 203h-11l-78 -217l-407 -750h-203zM240 1634q0 119 141 119q135 0 135 -119q0 -116 -135 -116q-141 0 -141 116zM612 1634q0 119 138 119q139 0 139 -119q0 -116 -139 -116q-138 0 -138 116z" />
<glyph unicode="&#x4e5;" horiz-adv-x="921" d="M88 0v1024h244v-465l-19 -160h6l74 170l277 455h164v-1024h-244v446l18 166h-6l-76 -174l-274 -438h-164zM154 1294q0 66 35.5 103t95.5 37q58 0 92.5 -37.5t34.5 -102.5q0 -61 -35 -97t-92 -36q-60 0 -95.5 36t-35.5 97zM535 1294q0 66 34.5 103t94.5 37t94.5 -37 t34.5 -103q0 -62 -34.5 -97.5t-94.5 -35.5t-94.5 35.5t-34.5 97.5z" />
<glyph unicode="&#x4e6;" horiz-adv-x="1132" d="M59 717q0 745 506 745q131 0 228.5 -52t158.5 -150.5t91 -234t30 -308.5q0 -365 -128.5 -555.5t-379.5 -190.5q-132 0 -229.5 52t-158 151t-89.5 234t-29 309zM242 1634q0 119 141 119q135 0 135 -119q0 -116 -135 -116q-141 0 -141 116zM330 717q0 -151 22 -261 t76 -178.5t137 -68.5q120 0 179 123t59 385q0 110 -12.5 198.5t-39.5 160t-74 110.5t-112 39q-235 0 -235 -508zM614 1634q0 119 138 119q139 0 139 -119q0 -116 -139 -116q-138 0 -138 116z" />
<glyph unicode="&#x4e7;" horiz-adv-x="911" d="M51 512q0 267 105 403t299 136q405 0 405 -539q0 -270 -104.5 -404.5t-300.5 -134.5q-404 0 -404 539zM135 1294q0 66 35.5 103t95.5 37q58 0 92.5 -37.5t34.5 -102.5q0 -61 -35 -97t-92 -36q-60 0 -95.5 36t-35.5 97zM303 512q0 -322 152 -322q80 0 116.5 74t36.5 248 q0 164 -35.5 243t-117.5 79q-75 0 -113.5 -75.5t-38.5 -246.5zM516 1294q0 66 34.5 103t94.5 37t94.5 -37t34.5 -103q0 -62 -34.5 -97.5t-94.5 -35.5t-94.5 35.5t-34.5 97.5z" />
<glyph unicode="&#x4e8;" horiz-adv-x="1130" d="M59 717q0 745 506 745q131 0 229 -52t158 -150.5t89.5 -233.5t29.5 -309q0 -366 -127.5 -556t-378.5 -190q-132 0 -229.5 52t-158 151t-89.5 234t-29 309zM330 612q27 -403 235 -403q218 0 238 403h-473zM330 829h471q-28 396 -236 396q-211 0 -235 -396z" />
<glyph unicode="&#x4e9;" horiz-adv-x="911" d="M51 512q0 262 105.5 401.5t298.5 139.5q200 0 302.5 -143t102.5 -398q0 -263 -105.5 -402t-299.5 -139q-200 0 -302 143t-102 398zM303 426q6 -119 47.5 -178.5t104.5 -59.5q140 0 153 238h-305zM303 592h305q-10 130 -47.5 187t-103.5 57q-141 0 -154 -244z" />
<glyph unicode="&#x4ea;" horiz-adv-x="1130" d="M59 717q0 745 506 745q131 0 229 -52t158 -150.5t89.5 -233.5t29.5 -309q0 -366 -127.5 -556t-378.5 -190q-132 0 -229.5 52t-158 151t-89.5 234t-29 309zM242 1634q0 119 141 119q135 0 135 -119q0 -116 -135 -116q-141 0 -141 116zM330 612q27 -403 235 -403 q218 0 238 403h-473zM330 829h471q-28 396 -236 396q-211 0 -235 -396zM614 1634q0 119 138 119q139 0 139 -119q0 -116 -139 -116q-138 0 -138 116z" />
<glyph unicode="&#x4eb;" horiz-adv-x="911" d="M51 512q0 262 105.5 401.5t298.5 139.5q200 0 302.5 -143t102.5 -398q0 -263 -105.5 -402t-299.5 -139q-200 0 -302 143t-102 398zM135 1294q0 66 35.5 103t95.5 37q58 0 92.5 -37.5t34.5 -102.5q0 -61 -35 -97t-92 -36q-60 0 -95.5 36t-35.5 97zM303 426 q6 -119 47.5 -178.5t104.5 -59.5q140 0 153 238h-305zM303 592h305q-10 130 -47.5 187t-103.5 57q-141 0 -154 -244zM516 1294q0 66 34.5 103t94.5 37t94.5 -37t34.5 -103q0 -62 -34.5 -97.5t-94.5 -35.5t-94.5 35.5t-34.5 97.5z" />
<glyph unicode="&#x4ec;" horiz-adv-x="976" d="M29 37l67 229q116 -57 260 -57q137 0 210 100.5t83 311.5h-434v213h432q-8 182 -78 286.5t-211 104.5q-152 0 -268 -72l-59 223q66 38 160.5 62t181.5 24q127 0 225 -40.5t171 -127t111 -231t38 -344.5q0 -748 -572 -748q-94 0 -179.5 19.5t-137.5 46.5zM74 1634 q0 119 141 119q135 0 135 -119q0 -116 -135 -116q-141 0 -141 116zM446 1634q0 119 138 119q139 0 139 -119q0 -116 -139 -116q-138 0 -138 116z" />
<glyph unicode="&#x4ed;" horiz-adv-x="772" d="M16 1294q0 66 35.5 103t95.5 37q58 0 92.5 -37.5t34.5 -102.5q0 -61 -35 -97t-92 -36q-60 0 -95.5 36t-35.5 97zM31 33l57 203q82 -46 193 -46q98 0 140.5 55.5t47.5 180.5h-295v184h295q-6 114 -47 170t-129 56q-117 0 -193 -50l-65 185q110 82 305 82q381 0 381 -541 q0 -271 -104 -405t-300 -134q-79 0 -158.5 16t-127.5 44zM397 1294q0 66 34.5 103t94.5 37t94.5 -37t34.5 -103q0 -62 -34.5 -97.5t-94.5 -35.5t-94.5 35.5t-34.5 97.5z" />
<glyph unicode="&#x4ee;" horiz-adv-x="972" d="M-20 1434h305l219 -625l31 -191h10l26 197l162 619h266l-319 -992q-27 -85 -47.5 -141.5t-45.5 -113t-49 -90t-55 -61t-67.5 -39t-81.5 -11.5q-58 0 -97.5 10.5t-80.5 38.5l63 217q44 -26 98 -29q78 0 105 156zM215 1571v182h592v-182h-592z" />
<glyph unicode="&#x4ef;" horiz-adv-x="819" d="M-20 1024h292l144 -575l26 -160h11l18 162l119 573h250l-256 -924q-24 -85 -38 -131.5t-35.5 -111t-38 -98.5t-40 -74t-46.5 -59.5t-53 -32.5t-65 -13q-98 0 -151 31l41 209q63 -24 109 15t69 165zM139 1161v187h557v-187h-557z" />
<glyph unicode="&#x4f0;" horiz-adv-x="972" d="M-20 1434h305l219 -625l31 -191h10l26 197l162 619h266l-319 -992q-27 -85 -47.5 -141.5t-45.5 -113t-49 -90t-55 -61t-67.5 -39t-81.5 -11.5q-58 0 -97.5 10.5t-80.5 38.5l63 217q44 -26 98 -29q78 0 105 156zM197 1634q0 119 141 119q135 0 135 -119q0 -116 -135 -116 q-141 0 -141 116zM569 1634q0 119 138 119q139 0 139 -119q0 -116 -139 -116q-138 0 -138 116z" />
<glyph unicode="&#x4f1;" horiz-adv-x="819" d="M-20 1024h292l144 -575l26 -160h11l18 162l119 573h250l-256 -924q-24 -85 -38 -131.5t-35.5 -111t-38 -98.5t-40 -74t-46.5 -59.5t-53 -32.5t-65 -13q-98 0 -151 31l41 209q63 -24 109 15t69 165zM109 1294q0 66 35.5 103t95.5 37q58 0 92.5 -37.5t34.5 -102.5 q0 -61 -35 -97t-92 -36q-60 0 -95.5 36t-35.5 97zM489 1294q0 66 34.5 103t94.5 37t95 -37t35 -103q0 -61 -35 -97t-95 -36t-94.5 35.5t-34.5 97.5z" />
<glyph unicode="&#x4f2;" horiz-adv-x="972" d="M-20 1434h305l219 -625l31 -191h10l26 197l162 619h266l-319 -992q-27 -85 -47.5 -141.5t-45.5 -113t-49 -90t-55 -61t-67.5 -39t-81.5 -11.5q-58 0 -97.5 10.5t-80.5 38.5l63 217q44 -26 98 -29q78 0 105 156zM233 1518l99 223h246v-33l-168 -190h-177zM522 1518 l162 223h256v-33l-242 -190h-176z" />
<glyph unicode="&#x4f3;" horiz-adv-x="819" d="M-20 1024h292l144 -575l26 -160h11l18 162l119 573h250l-256 -924q-24 -85 -38 -131.5t-35.5 -111t-38 -98.5t-40 -74t-46.5 -59.5t-53 -32.5t-65 -13q-98 0 -151 31l41 209q63 -24 109 15t69 165zM205 1169l59 265h221v-33l-131 -232h-149zM457 1169l123 265h233v-33 l-203 -232h-153z" />
<glyph unicode="&#x4f4;" horiz-adv-x="1030" d="M70 879v555h258v-471q0 -127 36 -181.5t121 -54.5q132 0 195 72v635h258v-1434h-258v578q-113 -80 -285 -80q-71 0 -127.5 19.5t-102 62.5t-70.5 119t-25 180zM188 1634q0 119 142 119q135 0 135 -119q0 -116 -135 -116q-142 0 -142 116zM561 1634q0 119 137 119 q140 0 140 -119q0 -116 -140 -116q-137 0 -137 116z" />
<glyph unicode="&#x4f5;" horiz-adv-x="858" d="M49 659v365h244v-274q0 -115 20.5 -160t83.5 -45q79 0 129 43v436h244v-1024h-244v397q-84 -69 -213 -69q-131 0 -197.5 74t-66.5 257zM94 1294q0 66 35.5 103t95.5 37q58 0 92.5 -37.5t34.5 -102.5q0 -61 -35 -97t-92 -36q-60 0 -95.5 36t-35.5 97zM475 1294 q0 66 34.5 103t94.5 37t94.5 -37t34.5 -103q0 -62 -34.5 -97.5t-94.5 -35.5t-94.5 35.5t-34.5 97.5z" />
<glyph unicode="&#x4f6;" horiz-adv-x="780" d="M92 0v1434h703v-238h-445v-958h156v-494h-182l-25 256h-207z" />
<glyph unicode="&#x4f7;" horiz-adv-x="634" d="M88 0v1024h555v-223h-311v-578h153v-456h-180l-26 233h-191z" />
<glyph unicode="&#x4f8;" horiz-adv-x="1368" d="M92 12v1422h258v-514q67 16 146 16q72 0 130 -12t112 -43t90 -81.5t57.5 -131.5t21.5 -189q0 -255 -116 -377t-367 -122q-210 0 -332 32zM350 229q35 -12 92 -12q96 0 145.5 59t49.5 191t-49 181.5t-144 49.5q-20 0 -51 -6t-43 -12v-451zM360 1634q0 119 142 119 q135 0 135 -119q0 -116 -135 -116q-142 0 -142 116zM733 1634q0 119 137 119q140 0 140 -119q0 -116 -140 -116q-137 0 -137 116zM1018 0v1434h258v-1434h-258z" />
<glyph unicode="&#x4f9;" horiz-adv-x="1210" d="M88 0v1024h244v-365q83 15 162 15q299 0 299 -318q0 -191 -91 -280.5t-309 -89.5q-172 0 -305 14zM285 1294q0 66 35.5 103t95.5 37q58 0 92.5 -37.5t34.5 -102.5q0 -61 -35 -97t-92 -36q-60 0 -95.5 36t-35.5 97zM332 215q44 -12 88 -12q66 0 93.5 33.5t27.5 111.5 q0 74 -27 107.5t-92 33.5q-46 0 -90 -12v-262zM666 1294q0 66 34.5 103t94.5 37t94.5 -37t34.5 -103q0 -62 -34.5 -97.5t-94.5 -35.5t-94.5 35.5t-34.5 97.5zM881 0v1024h243v-1024h-243z" />
<glyph unicode="&#x4fc;" horiz-adv-x="1075" d="M12 0l350 729l-315 705h309l166 -410l39 -156l37 156l174 410h279l-328 -691l209 -436q88 -170 88 -354q0 -377 -293 -377q-64 0 -119 14v217q84 -7 115 32.5t31 115.5q0 108 -70 250l-109 235l-47 160l-39 -160l-192 -440h-285z" />
<glyph unicode="&#x4fd;" horiz-adv-x="897" d="M8 0l264 524l-243 500h290l99 -219l43 -158l45 158l104 219h267l-246 -492l141 -270q37 -68 60.5 -154t23.5 -159q0 -371 -278 -371q-64 0 -119 14v209q83 -10 118 25t35 108q0 99 -61 207l-55 105l-52 155l-49 -153l-121 -248h-266z" />
<glyph unicode="&#x2000;" horiz-adv-x="895" />
<glyph unicode="&#x2001;" horiz-adv-x="1790" />
<glyph unicode="&#x2002;" horiz-adv-x="895" />
<glyph unicode="&#x2003;" horiz-adv-x="1790" />
<glyph unicode="&#x2004;" horiz-adv-x="596" />
<glyph unicode="&#x2005;" horiz-adv-x="447" />
<glyph unicode="&#x2006;" horiz-adv-x="298" />
<glyph unicode="&#x2007;" horiz-adv-x="298" />
<glyph unicode="&#x2008;" horiz-adv-x="223" />
<glyph unicode="&#x2009;" horiz-adv-x="358" />
<glyph unicode="&#x200a;" horiz-adv-x="99" />
<glyph unicode="&#x2010;" horiz-adv-x="610" d="M92 471v234h426v-234h-426z" />
<glyph unicode="&#x2011;" horiz-adv-x="610" d="M92 471v234h426v-234h-426z" />
<glyph unicode="&#x2012;" horiz-adv-x="610" d="M92 471v234h426v-234h-426z" />
<glyph unicode="&#x2013;" horiz-adv-x="1112" d="M178 479v223h754v-223h-754z" />
<glyph unicode="&#x2014;" horiz-adv-x="1384" d="M180 479v223h1022v-223h-1022z" />
<glyph unicode="&#x2018;" horiz-adv-x="385" d="M59 1309q0 75 22 136t57 98.5t64.5 58.5t59.5 34l66 -104q-37 -19 -64 -56.5t-31 -78.5q38 -5 65.5 -39.5t27.5 -91.5q0 -59 -35 -95t-90 -36q-65 0 -103.5 47.5t-38.5 126.5z" />
<glyph unicode="&#x2019;" horiz-adv-x="385" d="M59 1319q0 59 35 96t90 37q66 0 104 -46t38 -128q0 -60 -15 -111t-37 -85t-51.5 -61t-53 -41t-46.5 -24l-62 103q85 41 93 129q-39 2 -67 35.5t-28 95.5z" />
<glyph unicode="&#x201a;" horiz-adv-x="385" d="M59 127q0 59 35 96t90 37q66 0 104 -46t38 -128q0 -60 -15 -111t-37 -85t-51.5 -61t-53 -41t-46.5 -24l-62 103q85 41 93 129q-39 2 -67 35.5t-28 95.5z" />
<glyph unicode="&#x201c;" horiz-adv-x="700" d="M59 1309q0 75 22 136t57 98.5t64.5 58.5t59.5 34l66 -104q-37 -19 -64 -56.5t-31 -78.5q38 -5 65.5 -39.5t27.5 -91.5q0 -59 -35 -95t-90 -36q-65 0 -103.5 47.5t-38.5 126.5zM373 1309q0 61 15.5 113t37 86.5t51.5 62t52.5 41.5t45.5 24l66 -104q-36 -19 -63 -56 t-31 -79q38 -5 65 -39.5t27 -91.5q0 -59 -35 -95t-90 -36q-65 0 -103 47.5t-38 126.5z" />
<glyph unicode="&#x201d;" horiz-adv-x="700" d="M59 1319q0 59 35 96t90 37q66 0 104 -46t38 -128q0 -60 -15 -111t-37 -85t-51.5 -61t-53 -41t-46.5 -24l-62 103q85 41 93 129q-39 2 -67 35.5t-28 95.5zM373 1319q0 59 35 96t90 37q66 0 103.5 -46t37.5 -128q0 -60 -15 -111t-37 -85t-51.5 -61t-53 -41t-46.5 -24 l-61 103q84 41 92 129q-39 2 -66.5 35.5t-27.5 95.5z" />
<glyph unicode="&#x201e;" horiz-adv-x="698" d="M59 127q0 59 35 96t90 37q66 0 104 -46t38 -128q0 -60 -15 -111t-37 -85t-51.5 -61t-53 -41t-46.5 -24l-62 103q85 41 93 129q-39 2 -67 35.5t-28 95.5zM373 127q0 59 35 96t90 37q66 0 103.5 -46t37.5 -128q0 -60 -15 -111t-37 -85t-51.5 -61t-53 -41t-46.5 -24l-61 103 q84 41 92 129q-39 2 -66.5 35.5t-27.5 95.5z" />
<glyph unicode="&#x2026;" horiz-adv-x="1476" d="M92 133q0 74 39.5 114t106.5 40q72 0 110.5 -39.5t38.5 -114.5q0 -73 -40 -114.5t-109 -41.5q-68 0 -107 41.5t-39 114.5zM598 133q0 74 39 114t106 40q72 0 111 -39.5t39 -114.5q0 -73 -40.5 -114.5t-109.5 -41.5q-68 0 -106.5 41.5t-38.5 114.5zM1102 133q0 74 39 114 t106 40q72 0 111 -39.5t39 -114.5q0 -73 -40.5 -114.5t-109.5 -41.5q-68 0 -106.5 41.5t-38.5 114.5z" />
<glyph unicode="&#x202f;" horiz-adv-x="358" />
<glyph unicode="&#x2039;" horiz-adv-x="524" d="M45 530l268 471l150 -96l-150 -289l-80 -84l80 -73l164 -277l-153 -104z" />
<glyph unicode="&#x203a;" horiz-adv-x="524" d="M47 182l164 277l80 73l-80 84l-150 289l150 96l268 -471l-278 -452z" />
<glyph unicode="&#x205f;" horiz-adv-x="447" />
<glyph unicode="&#x20ac;" d="M6 479l60 187h81v51v67h-141l60 187h102q12 60 22 90q61 206 187.5 303.5t290.5 97.5q148 0 266 -47l-66 -205q-67 33 -194 33q-136 0 -215 -125q-37 -57 -58 -147h426l-47 -187h-401v-67v-51h366l-47 -187h-299q18 -87 56 -153q77 -133 237 -133q128 0 211 53l49 -197 q-51 -36 -133 -56t-162 -20q-174 0 -295 101t-178 307q-10 37 -20 98h-158z" />
<glyph unicode="&#x2122;" horiz-adv-x="1640" d="M51 1217v217h625v-217h-191v-521h-243v521h-191zM731 696v738h246l147 -293l37 -129h2l39 133l135 289h244v-738h-209v295l31 211h-10l-60 -174l-104 -240h-154l-106 234l-66 180h-10l43 -207v-299h-205z" />
<glyph unicode="&#xe000;" horiz-adv-x="1024" d="M0 0v1024h1024v-1024h-1024z" />
</font>
</defs>
</svg>
