<?xml version="1.0" standalone="no"?>
<!DOCTYPE svg PUBLIC "-//W3C//DTD SVG 1.1//EN" "http://www.w3.org/Graphics/SVG/1.1/DTD/svg11.dtd" >
<svg xmlns="http://www.w3.org/2000/svg">
<metadata></metadata>
<defs>
<font id="corkiregular" horiz-adv-x="694" >
<font-face units-per-em="2048" ascent="1536" descent="-512" />
<missing-glyph horiz-adv-x="430" />
<glyph horiz-adv-x="0" />
<glyph horiz-adv-x="682" />
<glyph unicode=" "  horiz-adv-x="430" />
<glyph unicode="&#x09;" horiz-adv-x="430" />
<glyph unicode="&#xa0;" horiz-adv-x="430" />
<glyph unicode="!" horiz-adv-x="337" d="M111 821v715h118v-715l-14 -465h-94zM121 -2v233h94v-233h-94z" />
<glyph unicode="&#x22;" horiz-adv-x="460" d="M94 1438v118h92v-118l-16 -262h-57zM279 1438l16 -262h57l19 262v118h-92v-118z" />
<glyph unicode="#" horiz-adv-x="1097" d="M39 502l22 110h222l67 312h-221l23 110h221l106 502h113l-107 -502h246l107 502h110l-106 -502h223l-23 -110h-223l-67 -312h223l-23 -110h-223l-106 -502h-111l106 502h-245l-107 -502h-112l106 502h-221zM395 612h246l68 312h-246z" />
<glyph unicode="$" horiz-adv-x="765" d="M92 1262q0 109 46.5 186t125.5 100l6 103h92l5 -101q64 -15 110 -73t68 -150h8v229h84v-567h-82q-2 51 -10.5 110.5t-16.5 93.5l-8 34q-28 84 -72.5 147.5t-103.5 63.5q-55 0 -94 -46t-39 -130q0 -42 9.5 -81.5t33.5 -85t42.5 -75.5t59.5 -90t62 -92q47 -63 74 -101 t67 -102.5t61 -114t37.5 -112.5t16.5 -123q0 -127 -43 -203q-45 -79 -137 -98l-5 -99h-92l-6 103q-51 13 -89.5 48.5t-57.5 78.5q-14 30 -23.5 65.5t-12.5 54.5t-3 25h-8v-280h-93v538h95q12 -112 45 -213q73 -207 176 -207q64 0 99.5 56t35.5 139q0 58 -15 113.5t-50.5 117 t-57.5 93.5t-72 100q-150 200 -209 316.5t-59 228.5z" />
<glyph unicode="%" horiz-adv-x="1239" d="M92 930v373q0 112 59.5 182.5t165.5 70.5t165 -71t59 -182v-373q0 -110 -59 -181t-165 -71q-105 0 -165 70t-60 182zM199 922q0 -68 30 -105t88 -37t88.5 37.5t30.5 104.5v393q0 67 -29.5 104t-89.5 37q-59 0 -88.5 -37t-29.5 -104v-393zM285 0l555 1536h116l-553 -1536 h-118zM698 231v373q0 112 60 183t166 71q105 0 164 -71.5t59 -182.5v-373q0 -110 -58.5 -180.5t-164.5 -70.5q-105 0 -165.5 70t-60.5 181zM805 223q0 -68 30.5 -104.5t88.5 -36.5t88 37t30 104v393q0 67 -29 104.5t-89 37.5q-59 0 -89 -37.5t-30 -104.5v-393z" />
<glyph unicode="&#x26;" horiz-adv-x="964" d="M106 254v266q0 75 13.5 131t32.5 85t44.5 46.5t43 22t34.5 4.5q-45 2 -78.5 23t-50 47t-26 60.5t-11.5 55t-2 39.5v238q0 112 80.5 188t192.5 76h223v-100h-223q-65 0 -109.5 -48t-44.5 -116v-252q0 -11 1.5 -24.5t9.5 -40.5t21.5 -47t41.5 -36t66 -16h227v176h110v-176 h164v-94h-164v-508q0 -96 39 -129t125 -33v-112q-92 0 -143 23.5t-82 78.5q-83 -99 -211 -102h-49q-113 0 -194 81t-81 193zM225 244q0 -66 48 -114t114 -48h43q66 0 114 48t48 114v518h-219q-10 0 -20.5 -2.5t-29.5 -9.5t-34.5 -24.5t-30.5 -43.5t-24 -71t-9 -103v-264z " />
<glyph unicode="'" horiz-adv-x="278" d="M94 1438v118h92v-118l-16 -262h-57z" />
<glyph unicode="(" horiz-adv-x="468" d="M92 768q0 141 22.5 284.5t54 247.5t63.5 188.5t54 127.5l23 43l68 -37q-7 -17 -19 -47t-42.5 -124.5t-53.5 -190t-42 -231.5t-19 -261q0 -124 18 -257.5t44 -235.5t52 -186t44 -129l18 -44l-68 -39q-9 16 -23.5 45t-52 123.5t-66 193t-52 243.5t-23.5 286z" />
<glyph unicode=")" horiz-adv-x="468" d="M92 -84q7 17 19 47t42.5 124.5t53.5 190t42 231t19 259.5q0 125 -18 259t-44 235.5t-52 186t-44 129.5l-18 44l68 37q9 -16 23.5 -45t52 -123.5t66 -193t52 -243.5t23.5 -286t-22.5 -284.5t-54.5 -247.5t-63.5 -188.5t-54.5 -127.5l-22 -43z" />
<glyph unicode="*" horiz-adv-x="659" d="M100 1241l150 72l-150 71l56 99l137 -94l-12 165h114l-12 -165l135 94l57 -99l-149 -71l149 -72l-57 -100l-135 94l12 -164h-114l12 164l-137 -94z" />
<glyph unicode="+" d="M92 612v105h205v203h102v-203h203v-105h-203v-202h-102v202h-205z" />
<glyph unicode="," horiz-adv-x="385" d="M139 0v231h150v-229q0 -92 -78 -190l-68 36q38 72 45 98q5 23 5 54h-54z" />
<glyph unicode="-" d="M92 608v107h510v-107h-510z" />
<glyph unicode="." horiz-adv-x="354" d="M113 0v231h149v-231h-149z" />
<glyph unicode="/" horiz-adv-x="618" d="M76 0l338 1536h116l-337 -1536h-117z" />
<glyph unicode="0" horiz-adv-x="747" d="M92 254v1028q0 141 76 207.5t205 66.5q145 0 213.5 -73t68.5 -199v-1030q0 -141 -75.5 -207.5t-206.5 -66.5q-145 0 -213 73.5t-68 200.5zM211 244q0 -85 43.5 -124.5t118.5 -39.5q85 0 124.5 44.5t39.5 119.5v1048q0 85 -44.5 124.5t-119.5 39.5q-84 0 -123 -43.5 t-39 -118.5v-1050z" />
<glyph unicode="1" horiz-adv-x="618" d="M92 1348v79q37 0 66.5 11t44.5 27.5t24.5 32.5t12.5 27l2 11h118v-1436h146v-100h-412v100h148v1248h-150z" />
<glyph unicode="2" horiz-adv-x="798" d="M94 0v100q9 12 25.5 34.5t63.5 94t90 145t95 179.5t89.5 206.5t63.5 218t26 220.5q0 133 -43 195.5t-117 62.5q-88 0 -129 -59t-41 -160v-229h-117v217q0 171 77 251t210 80q144 0 211.5 -95t67.5 -259q0 -248 -118 -536t-319 -566h361v289h119v-389h-615z" />
<glyph unicode="3" horiz-adv-x="747" d="M92 258v225h113v-237q0 -85 45.5 -125.5t124.5 -40.5q83 0 122.5 45t39.5 121v313q0 67 -10.5 111t-32 66t-46 30t-59.5 8h-84v96h90q73 1 107.5 46t34.5 120v254q0 85 -44.5 125.5t-119.5 40.5q-85 0 -125.5 -45t-40.5 -121v-239h-113v227q0 144 76.5 211t208.5 67 q143 0 209.5 -74.5t66.5 -203.5v-238q0 -109 -46 -162.5t-124 -56.5q91 0 130.5 -60.5t39.5 -189.5v-313q0 -144 -74 -211t-206 -67q-144 0 -213.5 75t-69.5 203z" />
<glyph unicode="4" horiz-adv-x="745" d="M57 326v84l363 1126h137v-1104h145v-106h-145v-226h145v-100h-409v100h147v226h-383zM176 432h264v483l11 424l-101 -370z" />
<glyph unicode="5" horiz-adv-x="745" d="M92 254v184h115v-194q0 -85 43.5 -124.5t118.5 -39.5h8q81 0 119.5 44.5t38.5 119.5v481q0 85 -44.5 124.5t-119.5 39.5h-9q-81 0 -118 -41t-37 -111v-53h-113v852h518v-109h-403v-534q56 98 186 98q133 0 195.5 -74t62.5 -202v-461q0 -142 -74.5 -209.5t-201.5 -67.5h-8 q-142 0 -209.5 74.5t-67.5 202.5z" />
<glyph unicode="6" horiz-adv-x="759" d="M92 258v1020q0 144 73.5 211t201.5 67q133 0 196.5 -74.5t63.5 -203.5v-154h-113v168q0 164 -154 164q-149 0 -149 -164v-403q62 102 182 102q133 0 195.5 -74t62.5 -202v-457q0 -144 -74 -211t-202 -67q-146 0 -214.5 74.5t-68.5 203.5zM211 244q0 -85 43.5 -124.5 t118.5 -39.5q82 0 120.5 44.5t38.5 119.5v483q0 85 -42 125.5t-115 40.5q-85 0 -124.5 -44.5t-39.5 -121.5v-483z" />
<glyph unicode="7" horiz-adv-x="845" d="M92 1133v403h666v-113q-7 -11 -18.5 -32t-45.5 -94t-65 -153.5t-68.5 -209t-64.5 -263t-45.5 -312t-18.5 -359.5h-123q0 359 88 759t234 677h-422v-303h-117z" />
<glyph unicode="8" horiz-adv-x="753" d="M92 246v379q0 173 158 223q-156 40 -156 219v211q0 144 76 211t207 67q145 0 213.5 -74.5t68.5 -203.5v-211q0 -176 -155 -219q81 -25 119.5 -84t38.5 -139v-379q0 -138 -76 -202t-209 -64q-147 0 -216 71.5t-69 194.5zM211 233q0 -79 44.5 -116t121.5 -37q85 0 125.5 41 t40.5 112v400q0 85 -44.5 124.5t-121.5 39.5q-85 0 -125.5 -44.5t-40.5 -119.5v-400zM211 1055q0 -81 45 -119.5t121 -38.5q85 0 125.5 42.5t40.5 115.5v243q0 81 -45 119.5t-121 38.5q-85 0 -125.5 -42.5t-40.5 -115.5v-243z" />
<glyph unicode="9" horiz-adv-x="747" d="M92 821v457q0 144 76.5 211t208.5 67q145 0 213.5 -74.5t68.5 -203.5v-1020q0 -143 -78 -210.5t-210 -67.5q-144 0 -209.5 74t-65.5 204v154h113v-168q0 -85 44.5 -124.5t121.5 -39.5q85 0 125.5 44.5t40.5 119.5v389q-69 -88 -195 -88t-190 75t-64 201zM211 809 q0 -85 45 -125.5t121 -40.5q84 0 124 45t40 121v483q0 85 -44.5 124.5t-119.5 39.5q-85 0 -125.5 -44.5t-40.5 -119.5v-483z" />
<glyph unicode=":" horiz-adv-x="313" d="M82 0v233h149v-233h-149zM82 598v233h149v-233h-149z" />
<glyph unicode=";" horiz-adv-x="393" d="M129 0v156h150v-154q0 -92 -78 -190l-68 36q22 42 29.5 57t13.5 39.5t6 55.5h-53zM129 598v233h150v-233h-150z" />
<glyph unicode="&#x3c;" horiz-adv-x="671" d="M92 649v115q486 244 488 246v-115l-369 -188l369 -189v-115z" />
<glyph unicode="=" d="M92 508v106h510v-106h-510zM92 715v104h510v-104h-510z" />
<glyph unicode="&#x3e;" horiz-adv-x="671" d="M92 403v115l369 189l-369 188v115l488 -246v-115q-486 -246 -488 -246z" />
<glyph unicode="?" horiz-adv-x="749" d="M92 1145v133q0 116 79 196t196 80h16q114 0 194 -80.5t80 -195.5v-80q0 -96 -25 -167t-60 -114t-70.5 -81.5t-60.5 -92t-25 -122.5v-265h-103v260q0 84 23.5 145t56.5 98.5t66 77t56.5 105t23.5 156.5v90q0 68 -45.5 117t-110.5 49h-16q-66 0 -114 -49t-48 -117v-143 h-113zM313 -2v233h103v-233h-103z" />
<glyph unicode="@" horiz-adv-x="1138" d="M121 158v757q0 230 121.5 338.5t330.5 108.5q118 0 205 -33t138.5 -94t76.5 -140.5t25 -179.5v-720q0 -100 -41.5 -147.5t-112.5 -47.5h-2q-63 0 -93 42.5t-30 115.5q-40 -178 -211 -178q-120 0 -178.5 80.5t-58.5 207.5q0 151 81 231t228 107l115 21v184q0 178 -129 178 q-72 0 -108 -53t-36 -145v-25h-98v299h82l8 -94h4q41 114 168 114q106 0 158.5 -73.5t52.5 -196.5v-637q0 -80 51 -80q50 3 50 90v746q0 169 -93.5 248.5t-255.5 79.5q-179 0 -263.5 -88.5t-84.5 -239.5v-795q0 -170 91 -252t235 -82q105 0 186 64l41 -76q-85 -82 -233 -82 q-108 0 -189.5 33.5t-131.5 94.5t-74.5 141t-24.5 178zM397 274q0 -93 41.5 -140.5t110.5 -47.5q85 0 125.5 68t40.5 184v192l-103 -18q-115 -24 -165 -84t-50 -154z" />
<glyph unicode="A" horiz-adv-x="811" d="M20 0v100h107l195 1436h167l195 -1436h107v-100h-330v100h104l-63 482h-193l-63 -482h104v-100h-330zM315 670h181l-50 374l-40 406l-41 -406z" />
<glyph unicode="B" horiz-adv-x="747" d="M61 0v100h107v1336h-107v100h400q115 0 169 -78.5t54 -212.5v-203q0 -107 -48 -159.5t-130 -55.5q98 -4 144 -80.5t46 -205.5v-262q0 -144 -63 -211.5t-172 -67.5h-400zM287 100h127q85 0 124.5 42.5t39.5 115.5v270q0 130 -44.5 191t-119.5 61h-127v-680zM287 874h139 q71 0 105 44.5t34 119.5v230q0 168 -112 168h-166v-562z" />
<glyph unicode="C" horiz-adv-x="704" d="M61 250v1036q0 140 69 205t189 65q144 0 183 -104h4l12 84h98v-547h-118v273q0 100 -42.5 147t-115.5 47q-82 0 -121 -52t-39 -142v-1024q0 -82 42 -121t114 -39q84 0 123 43t39 117v311h118v-299q0 -139 -75.5 -204.5t-204.5 -65.5q-141 0 -208 72.5t-67 197.5z" />
<glyph unicode="D" horiz-adv-x="724" d="M61 0v100h107v1336h-107v100h381q114 0 168 -78.5t54 -212.5v-954q0 -150 -59.5 -220.5t-160.5 -70.5h-383zM287 100h157q52 0 76.5 46t24.5 124v996q0 170 -105 170h-153v-1336z" />
<glyph unicode="E" horiz-adv-x="739" d="M61 0v100h105v1336h-105v100h596v-547h-118v447h-254v-621h219v-98h-219v-617h254v449h118v-549h-596z" />
<glyph unicode="F" horiz-adv-x="729" d="M61 0v100h105v1336h-105v100h596v-547h-118v447h-254v-656h260v-98h-260v-582h145v-100h-369z" />
<glyph unicode="G" horiz-adv-x="753" d="M61 250v1036q0 139 67 204.5t181 65.5q136 0 189 -104h8l12 84h98v-547h-118v234q0 120 -45 176.5t-123 56.5t-114 -47t-36 -127v-1042q0 -82 44.5 -121t119.5 -39q79 0 116.5 46t37.5 124v350h-113v100h338v-100h-107v-620h-110l-8 94h-4q-51 -94 -164 -94 q-138 0 -203.5 72.5t-65.5 197.5z" />
<glyph unicode="H" horiz-adv-x="870" d="M61 0v100h107v1336h-107v100h330v-100h-104v-605h297v605h-105v100h330v-100h-107v-1336h107v-100h-330v100h105v635h-297v-635h104v-100h-330z" />
<glyph unicode="I" horiz-adv-x="450" d="M61 0v100h105v1336h-105v100h328v-100h-104v-1336h104v-100h-328z" />
<glyph unicode="J" horiz-adv-x="665" d="M20 252v295h115v-305q0 -82 35 -121t96 -41q63 0 93 43.5t30 118.5v1194h-104v100h329v-100h-106v-1184q0 -141 -66 -206.5t-180 -65.5q-125 0 -183.5 73t-58.5 199z" />
<glyph unicode="K" horiz-adv-x="874" d="M61 0v100h107v1336h-107v100h328v-100h-102v-1336h102v-100h-328zM289 762l289 674h-101v100h342v-100h-114l-304 -664l336 -672h115v-100h-340v100h96z" />
<glyph unicode="L" horiz-adv-x="710" d="M61 1436v100h330v-100h-104v-1336h254v478h118v-578h-596v100h105v1336h-107z" />
<glyph unicode="M" horiz-adv-x="1234" d="M61 0v100h109v1336h-107v100h224l331 -1247l330 1247h223v-100h-106v-1336h109v-100h-330v100h102v494l12 604l-276 -1096h-129l-274 1096l10 -602v-496h102v-100h-330z" />
<glyph unicode="N" horiz-adv-x="882" d="M61 0v100h107v1336h-107v100h222l344 -1241l-21 510v631h-104v100h329v-100h-106v-1436h-115l-344 1241l21 -520v-621h104v-100h-330z" />
<glyph unicode="O" horiz-adv-x="690" d="M61 254v1028q0 141 76 207.5t207 66.5q147 0 216 -73t69 -199v-1030q0 -141 -76.5 -207.5t-208.5 -66.5q-146 0 -214.5 73.5t-68.5 200.5zM180 244q0 -85 44.5 -124.5t119.5 -39.5q85 0 125.5 44.5t40.5 119.5v1048q0 85 -44.5 124.5t-121.5 39.5q-85 0 -124.5 -43.5 t-39.5 -118.5v-1050z" />
<glyph unicode="P" horiz-adv-x="735" d="M61 0v100h107v1336h-105v100h408q110 0 161.5 -78.5t51.5 -212.5v-256q0 -150 -57.5 -220.5t-155.5 -70.5h-184v-598h168v-100h-394zM287 799h162q116 0 116 170v297q0 88 -32.5 129t-88.5 41h-157v-637z" />
<glyph unicode="Q" horiz-adv-x="706" d="M61 250v1034q0 141 77 206.5t210 65.5q145 0 214 -73t69 -199v-1034q0 -48 -13 -85t-24.5 -52t-38.5 -45l121 -160l-86 -68l-123 162q-56 -22 -119 -22q-148 0 -217.5 72t-69.5 198zM180 240q0 -82 45 -121t123 -39q85 0 124.5 43t39.5 117v1054q0 84 -44.5 123 t-119.5 39q-87 0 -127.5 -43.5t-40.5 -118.5v-1054z" />
<glyph unicode="R" horiz-adv-x="825" d="M61 0v100h107v1336h-107v100h414q19 0 39.5 -3.5t53.5 -21t57.5 -46t42.5 -86t18 -134.5v-229q0 -4 -0.5 -12t-4 -30t-10 -42.5t-20.5 -46t-33 -44t-50.5 -32.5t-69.5 -16q14 -1 28.5 -4.5t36.5 -13t40.5 -30t35.5 -50t27 -78.5t10 -111v-406h98v-100h-217v520 q0 225 -147 225h-123v-645h139v-100h-365zM287 840h123q50 0 84.5 19.5t49 49t19.5 53.5q4 20 4 37v7v260q0 44 -10 76.5t-24.5 50t-34.5 28t-35.5 13t-32.5 2.5h-143v-596z" />
<glyph unicode="S" horiz-adv-x="724" d="M68 0v518h110q25 -217 83.5 -318.5t139.5 -101.5q69 0 101.5 53t32.5 144q0 153 -201 424q-266 356 -266 538q0 154 62 226.5t169 72.5q89 0 144.5 -61.5t80.5 -167.5h8v209h103v-547h-100q-2 51 -10.5 110.5t-16.5 93.5l-8 34q-35 109 -81.5 160t-96.5 51 q-67 0 -99.5 -46.5t-32.5 -125.5q0 -134 222 -437q245 -337 245 -548q0 -155 -61.5 -228t-167.5 -73q-126 0 -185 75.5t-59 204.5h-8v-260h-108z" />
<glyph unicode="T" horiz-adv-x="901" d="M41 991v545h819v-545h-119v445h-231v-1336h145v-100h-409v100h145v1336h-231v-445h-119z" />
<glyph unicode="U" horiz-adv-x="874" d="M51 1436v100h330v-100h-105v-1192q0 -164 154 -164h14q79 0 116.5 44.5t37.5 119.5v1192h-104v100h329v-100h-106v-1184q0 -141 -73.5 -206.5t-199.5 -65.5h-14q-141 0 -206.5 73t-65.5 199v1184h-107z" />
<glyph unicode="V" horiz-adv-x="808" d="M20 1436v100h330v-100h-104l108 -881l49 -461l52 461l108 881h-104v100h329v-100h-106l-195 -1436h-168l-192 1436h-107z" />
<glyph unicode="W" horiz-adv-x="1239" d="M20 1436v100h328v-100h-104l159 -1293l160 1293h-104v100h325v-100h-106l160 -1293l159 1293h-106v100h328v-100h-105l-194 -1436h-164l-135 1096l-136 -1096h-163l-195 1436h-107z" />
<glyph unicode="X" horiz-adv-x="870" d="M20 0v100h107l223 664l-223 672h-107v100h330v-100h-104l190 -600l189 600h-105v100h330v-100h-107l-219 -672l219 -664h107v-100h-330v100h105l-189 588l-190 -588h104v-100h-330z" />
<glyph unicode="Y" horiz-adv-x="866" d="M20 1436v100h332v-100h-104l184 -678l189 678h-105v100h330v-100h-107l-245 -822v-514h135v-100h-389v100h135v514l-248 822h-107z" />
<glyph unicode="Z" horiz-adv-x="702" d="M72 0l420 1436h-285v-447h-113v547h547l-420 -1436h297v420h113v-520h-559z" />
<glyph unicode="[" horiz-adv-x="440" d="M92 43v1450q0 85 41 125.5t115 40.5h100v-98h-98q-27 0 -41 -17.5t-14 -40.5v-1470q0 -23 14 -40.5t41 -17.5h98v-98h-100q-74 0 -115 40.5t-41 125.5z" />
<glyph unicode="\" horiz-adv-x="626" d="M96 1536h105l338 -1536h-105z" />
<glyph unicode="]" horiz-adv-x="440" d="M92 -25h98q27 0 41.5 17.5t14.5 40.5v1470q0 23 -14.5 40.5t-41.5 17.5h-98v98h101q155 0 155 -166v-1450q0 -166 -155 -166h-101v98z" />
<glyph unicode="a" horiz-adv-x="708" d="M37 258q0 265 299 365l131 43v147q0 172 -127 172q-137 0 -137 -184v-101h-101v365h82l6 -88h3q23 55 70 81.5t104 26.5q109 0 163 -70.5t54 -193.5v-721h90v-100h-185v133q-19 -72 -76 -107.5t-132 -35.5q-119 0 -181.5 75.5t-62.5 192.5zM156 268q0 -74 36 -123 t107 -49q86 0 127 58t41 184v229l-121 -39q-96 -30 -143 -97.5t-47 -162.5z" />
<glyph unicode="b" horiz-adv-x="702" d="M51 0v100h86v1336h-86v100h203v-549h2q39 98 152 98q115 0 169 -72.5t54 -197.5v-575q0 -129 -56.5 -189.5t-154.5 -60.5q-136 0 -174 104l-4 -94h-191zM254 276q0 -184 133 -184q64 0 94.5 47t30.5 127v525q0 100 -35.5 147t-95.5 47q-127 0 -127 -194v-515z" />
<glyph unicode="c" horiz-adv-x="614" d="M72 260v555q0 139 57.5 204.5t155.5 65.5q115 0 155 -102h4l11 82h96v-365h-117v91q0 100 -33 147t-90 47q-63 0 -93 -52t-30 -142v-541q0 -82 34 -121t91 -39q63 0 93 43.5t30 116.5v112h117v-108q0 -136 -65.5 -200t-178.5 -64q-123 0 -180 72t-57 198z" />
<glyph unicode="d" horiz-adv-x="692" d="M72 240v575q0 124 54 197t161 73q115 0 159 -98h3v449h-87v100h203v-1436h86v-100h-194v106q-43 -116 -176 -116q-95 0 -152 61t-57 189zM190 266q0 -174 127 -174q132 0 132 184v515q0 194 -127 194q-61 0 -96.5 -47.5t-35.5 -146.5v-525z" />
<glyph unicode="e" horiz-adv-x="632" d="M72 264v547q0 141 65.5 207.5t177.5 66.5q126 0 186 -73t60 -199v-326h-373v-233q0 -164 131 -164q64 0 94.5 44.5t30.5 119.5v111h117v-101q0 -141 -66 -207.5t-180 -66.5q-126 0 -184.5 73t-58.5 201zM188 590h256v231q0 164 -129 164q-127 0 -127 -162v-233z" />
<glyph unicode="f" horiz-adv-x="497" d="M37 0v100h90v865h-90v100h90v258q0 130 45.5 181.5t124.5 51.5q93 0 131.5 -59t38.5 -174v-43h-100v57q0 72 -15.5 97.5t-44.5 25.5q-38 0 -50.5 -30t-12.5 -93v-272h196v-100h-196v-865h188v-100h-395z" />
<glyph unicode="g" horiz-adv-x="675" d="M72 305v506q0 141 57.5 207.5t155.5 66.5q112 0 159 -92v72h205v-100h-90v-1049q0 -130 -65.5 -192t-176.5 -62q-123 0 -180 55.5t-57 151.5v70h115v-64q0 -59 33.5 -87t90.5 -28q64 0 94.5 33.5t30.5 91.5v256q-35 -100 -161 -100q-109 0 -160 70.5t-51 193.5zM188 295 q0 -79 34 -116.5t93 -37.5q66 0 96.5 44.5t30.5 119.5v549q-11 131 -127 131q-127 0 -127 -162v-528z" />
<glyph unicode="h" horiz-adv-x="768" d="M51 0v100h90v1336h-90v100h207v-559h4q60 108 168 108q110 0 161.5 -72t51.5 -198v-715h90v-100h-299v100h92v680q0 100 -36.5 147.5t-98.5 47.5q-69 0 -101 -52.5t-32 -142.5v-680h90v-100h-297z" />
<glyph unicode="i" horiz-adv-x="389" d="M51 0v100h90v865h-90v100h207v-965h90v-100h-297zM139 1296v240h119v-240h-119z" />
<glyph unicode="j" horiz-adv-x="319" d="M-20 -238h75q52 0 69 18t17 79v1106h-121v100h238v-1227q0 -96 -41.5 -136t-146.5 -40h-90v100zM141 1296v240h117v-240h-117z" />
<glyph unicode="k" horiz-adv-x="737" d="M53 0v100h92v1336h-92v100h297v-100h-88v-1336h74v-100h-283zM264 569l223 396h-90v100h299v-100h-92l-225 -392l242 -473h92v-100h-269v100h54z" />
<glyph unicode="l" horiz-adv-x="378" d="M51 0v100h90v1336h-90v100h207v-1436h90v-100h-297z" />
<glyph unicode="m" horiz-adv-x="1177" d="M43 0v100h90v865h-90v100h207v-88h4q65 108 178 108q141 0 195 -139q60 139 209 139q112 0 164.5 -72t52.5 -198v-715h90v-100h-301v100h94v680q0 100 -39 147.5t-106 47.5q-68 0 -102.5 -47.5t-37.5 -128.5v-699h97v-100h-310v100h97v680q0 100 -38.5 147.5t-105.5 47.5 q-73 0 -107 -52.5t-34 -142.5v-680h94v-100h-301z" />
<glyph unicode="n" horiz-adv-x="753" d="M37 0v100h90v865h-90v100h207v-88h4q60 108 168 108q110 0 161.5 -72t51.5 -198v-715h90v-100h-299v100h92v680q0 100 -36.5 147.5t-98.5 47.5q-69 0 -101 -52.5t-32 -142.5v-680h90v-100h-297z" />
<glyph unicode="o" horiz-adv-x="632" d="M72 264v547q0 141 65.5 207.5t179.5 66.5q126 0 185 -73t59 -199v-549q0 -141 -66 -207.5t-180 -66.5q-126 0 -184.5 73t-58.5 201zM188 254q0 -164 127 -164q66 0 97.5 44.5t31.5 119.5v567q0 164 -129 164q-127 0 -127 -162v-569z" />
<glyph unicode="p" horiz-adv-x="706" d="M51 -238h90v1203h-90v100h195l4 -113q48 133 174 133q109 0 160 -67t51 -182v-576q0 -139 -60 -204.5t-163 -65.5q-116 0 -152 88h-2v-316h86v-100h-293v100zM258 274q0 -184 127 -184q67 0 99 52.5t32 142.5v526q0 89 -34 131.5t-91 42.5q-133 0 -133 -194v-517z" />
<glyph unicode="q" horiz-adv-x="692" d="M72 250v586q0 129 56.5 189t154.5 60q125 0 174 -133l4 113h190v-100h-86v-1203h86v-100h-289v100h87v316h-3q-39 -98 -151 -98q-115 0 -169 72.5t-54 197.5zM190 274q0 -99 35.5 -146.5t96.5 -47.5q127 0 127 194v514q0 100 -36 147.5t-98 47.5q-64 0 -94.5 -47 t-30.5 -127v-535z" />
<glyph unicode="r" horiz-adv-x="546" d="M37 0v100h90v865h-90v100h194v-104q10 58 44 86t83 28q81 0 119.5 -63t38.5 -170v-142h-100v156q0 62 -23 92.5t-59 30.5q-90 0 -90 -164v-715h90v-100h-297z" />
<glyph unicode="s" horiz-adv-x="548" d="M41 0v389h90q15 -148 59.5 -223.5t114.5 -75.5q44 0 69 31.5t25 81.5q0 65 -37.5 131.5t-134.5 183.5q-97 109 -141.5 197t-44.5 168q0 93 51.5 147.5t132.5 54.5q59 0 98 -30.5t66 -93.5v104h96v-383h-90q0 144 -38 222.5t-109 78.5q-45 0 -70.5 -30.5t-25.5 -78.5 q0 -59 39.5 -126.5t127.5 -174.5q102 -119 146.5 -206t44.5 -168q0 -92 -49.5 -150.5t-134.5 -58.5q-145 0 -191 153v-143h-94z" />
<glyph unicode="t" horiz-adv-x="473" d="M31 965v100h90v344h117v-344h147v-100h-147v-811q0 -54 65 -54h82v-100h-84q-103 0 -141.5 29.5t-38.5 120.5v815h-90z" />
<glyph unicode="u" horiz-adv-x="702" d="M10 965v100h207v-791q0 -95 35 -139.5t96 -44.5q137 0 137 191v684h-90v100h207v-965h90v-100h-198v78h-5q-45 -88 -163 -88q-116 0 -171 72.5t-55 197.5v705h-90z" />
<glyph unicode="v" d="M10 965v100h271v-100h-62l127 -871l127 871h-61v100h272v-100h-94l-158 -965h-170l-158 965h-94z" />
<glyph unicode="w" horiz-adv-x="1003" d="M16 965v100h269v-100h-68l113 -871l106 871h-57v100h246v-100h-58l107 -871l112 871h-67v100h268v-100h-94l-137 -965h-168l-86 793l-86 -793h-168l-137 965h-95z" />
<glyph unicode="x" horiz-adv-x="712" d="M10 0v100h92l174 435l-174 430h-92v100h273v-100h-62l135 -367l131 367h-55v100h270v-100h-96l-172 -430l172 -435h96v-100h-270v100h57l-133 371l-135 -371h62v-100h-273z" />
<glyph unicode="y" horiz-adv-x="679" d="M10 965v100h264v-100h-61l131 -871l121 871h-59v100h264v-100h-92l-158 -1121q-11 -83 -56 -132.5t-124 -49.5h-134v100h123q66 0 80 86l23 152h-80l-150 965h-92z" />
<glyph unicode="z" horiz-adv-x="591" d="M41 0l350 965h-241v-199h-109v299h500l-344 -965h237v185h107v-285h-500z" />
<glyph unicode="{" horiz-adv-x="550" d="M31 717v102h8q41 0 71 17t44 37.5t22 49t9 41.5t1 23v506q0 85 42 125.5t116 40.5h53v-96h-53q-26 0 -39.5 -17t-13.5 -41v-485q0 -28 -1 -46.5t-5 -50.5t-14.5 -53.5t-27.5 -45t-45.5 -37t-66.5 -17.5q33 -4 58.5 -16t42 -27.5t28.5 -39t18 -42.5t9 -46.5t3.5 -43 t0.5 -39.5v-485q0 -24 13.5 -40t39.5 -16h53v-98h-53q-73 0 -115.5 41.5t-42.5 124.5v508q0 8 -1 17.5t-4.5 31t-13.5 40t-25 37t-42 29.5t-61 11h-8z" />
<glyph unicode="|" horiz-adv-x="286" d="M92 0v1536h103v-1536h-103z" />
<glyph unicode="}" horiz-adv-x="550" d="M92 -25h53q26 0 40 16t14 40v485q0 29 1 47t5 50.5t14.5 54.5t27 45.5t45 38t66.5 18.5q-33 3 -58.5 15t-42 26.5t-28.5 38t-17.5 42t-8.5 46.5t-3.5 43t-0.5 39v485q0 24 -14 41t-40 17h-53v96h53q74 0 116 -40.5t42 -125.5v-506q0 -10 1 -23.5t9.5 -41t22.5 -49t44 -38 t71 -16.5h8v-102h-8q-41 0 -71 -16.5t-44 -37.5t-22.5 -48.5t-9.5 -40.5t-1 -23v-508q0 -83 -42.5 -124.5t-115.5 -41.5h-53v98z" />
<glyph unicode="&#xa5;" horiz-adv-x="1101" d="M92 1425v111h361v-111h-115l211 -682l215 682h-115v111h361v-111h-133l-267 -809h191v-94h-191v-96h191v-96h-191v-219h146v-111h-410v111h146v219h-189v96h189v96h-189v94h186l-266 809h-131z" />
<glyph unicode="&#xa8;" horiz-adv-x="696" d="M172 1296v240h121v-240h-121zM403 1296v240h121v-240h-121z" />
<glyph unicode="&#xa9;" horiz-adv-x="948" d="M92 334v868q0 94 28.5 163t80.5 110.5t120.5 61t153.5 19.5q197 0 290 -95t93 -259v-868q0 -94 -28.5 -163t-80.5 -110.5t-120.5 -61t-153.5 -19.5q-197 0 -290 95t-93 259zM170 317q0 -136 82.5 -200t222.5 -64q157 0 231 71t74 193v887q0 144 -82 211.5t-223 67.5 q-157 0 -231 -71t-74 -193v-902zM283 383v711q0 98 52 144t142 46q94 0 133 -80l8 80h52v-401h-76v211q0 112 -117 112t-117 -112v-711q0 -113 119 -113q113 0 113 113v186h78v-186q0 -100 -51.5 -146.5t-141.5 -46.5q-100 0 -147 51.5t-47 141.5z" />
<glyph unicode="&#xab;" horiz-adv-x="628" d="M100 616l125 279h117l-125 -279l125 -280h-117zM303 616l125 279h117l-125 -279l125 -280h-117z" />
<glyph unicode="&#xad;" d="M92 608v107h510v-107h-510z" />
<glyph unicode="&#xae;" horiz-adv-x="948" d="M78 717v491q0 165 116 267t281 102q169 0 282 -101.5t113 -267.5v-491q0 -166 -113 -267.5t-282 -101.5q-165 0 -281 102t-116 267zM158 688q0 -80 47.5 -142.5t119 -93t150.5 -30.5q78 0 150.5 32t121 94t48.5 140v549q0 83 -47.5 145t-118.5 91.5t-154 29.5 q-79 0 -150 -29.5t-119 -92t-48 -144.5v-549zM256 606v70h70v590h-70v69h262q12 0 25 -2.5t33.5 -13t35.5 -28.5t26 -53t11 -83v-57q0 -5 -0.5 -14t-6.5 -32.5t-17 -41.5t-34.5 -34t-55.5 -18q15 0 30 -5.5t35 -21.5t32.5 -55t12.5 -96v-104h51v-70h-131v182q0 45 -10 75.5 t-26 43t-28.5 17t-25.5 4.5h-76v-252h60v-70h-203zM399 987h80q25 0 43 10.5t26.5 25.5t14 30.5t5.5 26.5l1 10v69q0 34 -7 57t-18.5 33t-20.5 13.5t-17 3.5h-107v-279z" />
<glyph unicode="&#xb4;" horiz-adv-x="395" d="M51 1251l197 265l96 -74l-217 -252z" />
<glyph unicode="&#xbb;" horiz-adv-x="628" d="M100 336l125 280l-125 279h117l125 -279l-125 -280h-117zM303 336l125 280l-125 279h117l125 -279l-125 -280h-117z" />
<glyph unicode="&#x401;" horiz-adv-x="739" d="M61 0v100h105v1336h-105v100h596v-547h-118v447h-254v-621h219v-98h-219v-617h254v449h118v-549h-596zM199 1653v239h110v-239h-110zM430 1653v239h111v-239h-111z" />
<glyph unicode="&#x410;" horiz-adv-x="851" d="M41 0v100h106l195 1436h168l195 -1436h106v-100h-330v100h105l-64 482h-192l-64 -482h105v-100h-330zM336 670h180l-49 374l-41 406l-41 -406z" />
<glyph unicode="&#x411;" horiz-adv-x="768" d="M61 0v100h107v1336h-107v100h598v-424h-118v324h-254v-562h159q129 0 189.5 -74.5t60.5 -203.5v-317q0 -144 -67 -211.5t-183 -67.5h-385zM287 100h127q85 0 124.5 42.5t39.5 115.5v270q0 126 -44.5 186t-119.5 60h-127v-674z" />
<glyph unicode="&#x412;" horiz-adv-x="747" d="M61 0v100h107v1336h-107v100h400q115 0 169 -78.5t54 -212.5v-203q0 -107 -48 -159.5t-130 -55.5q98 -4 144 -80.5t46 -205.5v-262q0 -144 -63 -211.5t-172 -67.5h-400zM287 100h127q85 0 124.5 42.5t39.5 115.5v270q0 130 -44.5 191t-119.5 61h-127v-680zM287 874h139 q71 0 105 44.5t34 119.5v230q0 168 -112 168h-166v-562z" />
<glyph unicode="&#x413;" horiz-adv-x="729" d="M61 0v100h105v1336h-105v100h596v-547h-118v447h-254v-1336h145v-100h-369z" />
<glyph unicode="&#x414;" horiz-adv-x="866" d="M61 100h62q2 4 5.5 13.5t12.5 48t15.5 87t12 135.5t5.5 189v863h-106v100h737v-100h-107v-1336h107v-299h-107v199h-524v-199h-113v299zM244 100h336v1336h-287v-879q0 -167 -12.5 -281t-24.5 -145z" />
<glyph unicode="&#x415;" horiz-adv-x="739" d="M61 0v100h105v1336h-105v100h596v-547h-118v447h-254v-621h219v-98h-219v-617h254v449h118v-549h-596z" />
<glyph unicode="&#x416;" horiz-adv-x="1290" d="M31 0v100h114l250 693l-217 643h-115v100h332v-100h-100l201 -600h90v600h-103v100h330v-100h-108v-600h90l200 600h-100v100h332v-100h-115l-217 -643l250 -693h115v-100h-330v100h96l-225 621h-96v-621h108v-100h-330v100h103v621h-97l-225 -621h96v-100h-329z" />
<glyph unicode="&#x417;" horiz-adv-x="659" d="M61 258v184h111v-196q0 -85 42 -125.5t114 -40.5q84 0 122.5 44.5t38.5 121.5v272q0 132 -36.5 194t-98.5 62h-55v96h55q135 0 135 166v226q0 100 -43 147t-116 47q-81 0 -119.5 -52t-38.5 -142v-170h-111v444h89l14 -94h4q46 114 188 114q130 0 191 -72t61 -198v-246 q0 -109 -46 -162.5t-124 -56.5q88 0 129 -78.5t41 -212.5v-272q0 -144 -75.5 -211t-206.5 -67q-136 0 -200.5 74.5t-64.5 203.5z" />
<glyph unicode="&#x418;" horiz-adv-x="892" d="M61 1436v100h330v-100h-104v-734l-21 -393l344 1227h221v-100h-106v-1336h106v-100h-329v100h104v703l21 420l-344 -1223h-211v100h96v1336h-107z" />
<glyph unicode="&#x419;" horiz-adv-x="892" d="M51 1436v100h330v-100h-105v-734l-20 -393l344 1227h221v-100h-106v-1336h106v-100h-329v100h104v703l20 420l-344 -1223h-211v100h97v1336h-107zM279 1817v45h86v-39q0 -30 22 -53t74 -23t74 23t22 53v39h86v-45q0 -60 -45 -105t-137 -45t-137 45t-45 105z" />
<glyph unicode="&#x41a;" horiz-adv-x="882" d="M61 0v100h107v1336h-107v100h328v-100h-102v-1336h102v-100h-328zM289 748l289 688h-101v100h342v-100h-114l-297 -678l329 -658h115v-100h-340v100h94z" />
<glyph unicode="&#x41b;" horiz-adv-x="851" d="M33 0v100h47q60 0 75 29.5t15 138.5v1168h-107v100h728v-100h-107v-1336h107v-100h-334v100h108v1336h-276v-1184q3 -122 -38.5 -187t-121.5 -65h-96z" />
<glyph unicode="&#x41c;" horiz-adv-x="1234" d="M61 0v100h109v1336h-107v100h224l329 -1247l332 1247h223v-100h-106v-1336h109v-100h-330v100h102v496l10 602l-274 -1096h-129l-277 1096l13 -604v-494h102v-100h-330z" />
<glyph unicode="&#x41d;" horiz-adv-x="870" d="M61 0v100h107v1336h-107v100h330v-100h-104v-605h297v605h-105v100h330v-100h-107v-1336h107v-100h-330v100h105v635h-297v-635h104v-100h-330z" />
<glyph unicode="&#x41e;" horiz-adv-x="686" d="M61 254v1028q0 141 76 207.5t205 66.5q145 0 214 -73t69 -199v-1030q0 -141 -76 -207.5t-207 -66.5q-145 0 -213 73.5t-68 200.5zM178 244q0 -85 44.5 -124.5t119.5 -39.5q85 0 125.5 44.5t40.5 119.5v1048q0 85 -44.5 124.5t-121.5 39.5q-85 0 -124.5 -43.5 t-39.5 -118.5v-1050z" />
<glyph unicode="&#x41f;" horiz-adv-x="849" d="M61 0v100h107v1336h-107v100h727v-100h-106v-1336h106v-100h-329v100h104v1336h-276v-1336h104v-100h-330z" />
<glyph unicode="&#x420;" horiz-adv-x="735" d="M61 0v100h107v1336h-105v100h408q110 0 161.5 -78.5t51.5 -212.5v-201q0 -149 -57.5 -219.5t-155.5 -70.5h-184v-654h168v-100h-394zM287 854h162q116 0 116 170v242q0 88 -32.5 129t-88.5 41h-157v-582z" />
<glyph unicode="&#x421;" horiz-adv-x="704" d="M61 250v1036q0 140 69 205t189 65q144 0 183 -104h4l12 84h98v-547h-118v273q0 100 -42.5 147t-115.5 47q-82 0 -121 -52t-39 -142v-1024q0 -82 42 -121t114 -39q84 0 123 43t39 117v311h118v-299q0 -139 -75.5 -204.5t-204.5 -65.5q-141 0 -208 72.5t-67 197.5z" />
<glyph unicode="&#x422;" horiz-adv-x="901" d="M41 991v545h819v-545h-119v445h-231v-1336h145v-100h-409v100h145v1336h-231v-445h-119z" />
<glyph unicode="&#x423;" horiz-adv-x="843" d="M12 1436v100h336v-100h-108l204 -895l154 895h-104v100h340v-100h-107l-240 -1248q-20 -101 -71 -144.5t-148 -43.5h-88v100h86q53 0 78 26.5t33 74.5l47 241h-72l-231 994h-109z" />
<glyph unicode="&#x424;" horiz-adv-x="768" d="M31 500v536q0 141 75.5 208t204.5 67h13v125h-146v100h410v-100h-146v-125h19q142 0 209 -73.5t67 -199.5v-538q0 -141 -74.5 -208t-201.5 -67h-19v-125h146v-100h-410v100h146v125h-13q-145 0 -212.5 73.5t-67.5 201.5zM147 492q0 -85 44.5 -125.5t119.5 -40.5h13v884 h-13q-85 0 -124.5 -44t-39.5 -119v-555zM442 326h19q82 0 121 44.5t39 121.5v552q0 86 -43 126t-117 40h-19v-884z" />
<glyph unicode="&#x425;" horiz-adv-x="923" d="M20 0v100h125l224 664l-224 672h-125v100h371v-100h-119l191 -600l188 600h-116v100h368v-100h-125l-219 -672l219 -664h125v-100h-368v100h116l-188 588l-191 -588h119v-100h-371z" />
<glyph unicode="&#x426;" horiz-adv-x="882" d="M61 0v100h107v1336h-107v100h330v-100h-104v-1336h299v1336h-105v100h330v-100h-106v-1336h106v-295h-106v195h-644z" />
<glyph unicode="&#x427;" horiz-adv-x="843" d="M20 1436v100h330v-100h-106v-570q0 -84 43.5 -122.5t118.5 -38.5q78 0 114.5 43t36.5 118v570h-104v100h329v-100h-106v-1336h106v-100h-366v100h141v592q-51 -94 -168 -94q-136 0 -200 71.5t-64 194.5v572h-105z" />
<glyph unicode="&#x428;" horiz-adv-x="1245" d="M61 0v100h107v1336h-107v100h330v-100h-104v-1336h276v1336h-106v100h329v-100h-104v-1336h276v1336h-104v100h330v-100h-107v-1336h107v-100h-1123z" />
<glyph unicode="&#x429;" horiz-adv-x="1298" d="M61 0v100h107v1336h-107v100h330v-100h-104v-1336h276v1336h-106v100h329v-100h-104v-1336h276v1336h-104v100h330v-100h-107v-1336h160v-295h-107v195h-1069z" />
<glyph unicode="&#x42a;" horiz-adv-x="927" d="M49 1112v424h514v-100h-104v-654h184q110 0 162.5 -78t52.5 -212v-201q0 -149 -58.5 -220t-156.5 -71h-407v100h104v1336h-180v-324h-111zM459 100h157q62 0 91.5 46t29.5 124v242q0 170 -116 170h-162v-582z" />
<glyph unicode="&#x42b;" horiz-adv-x="1251" d="M104 0v100h105v1336h-105v100h328v-100h-104v-654h184q110 0 161.5 -78t51.5 -212v-201q0 -150 -57.5 -220.5t-155.5 -70.5h-408zM328 100h157q62 0 91.5 46t29.5 124v242q0 170 -117 170h-161v-582zM821 0v100h105v1336h-105v100h328v-100h-105v-1336h105v-100h-328z " />
<glyph unicode="&#x42c;" horiz-adv-x="753" d="M61 0v100h105v1336h-105v100h328v-100h-104v-654h184q110 0 161.5 -78t51.5 -212v-201q0 -150 -57.5 -220.5t-155.5 -70.5h-408zM285 100h157q62 0 91.5 46t29.5 124v242q0 170 -117 170h-161v-582z" />
<glyph unicode="&#x42d;" horiz-adv-x="696" d="M88 250v268h111v-278q0 -67 46.5 -113.5t114.5 -46.5q66 0 111 46t45 114v475h-260v102h260v445q0 98 -43 146t-117 48q-75 0 -116 -48t-41 -146v-273h-111v547h90l12 -94h5q19 51 67 82.5t115 31.5q126 0 192 -75.5t66 -194.5v-1036q0 -116 -75.5 -193t-199.5 -77 q-121 0 -196.5 77t-75.5 193z" />
<glyph unicode="&#x42e;" horiz-adv-x="1241" d="M113 0v100h104v1336h-104v100h327v-100h-104v-619h219v465q0 141 76 207.5t205 66.5q145 0 213.5 -73t68.5 -199v-1030q0 -141 -75.5 -207.5t-206.5 -66.5q-145 0 -213 73.5t-68 200.5v463h-219v-617h104v-100h-327zM672 254q0 -85 44.5 -124.5t119.5 -39.5 q85 0 125 44.5t40 119.5v1028q0 85 -44 124.5t-121 39.5q-85 0 -124.5 -43.5t-39.5 -118.5v-1030z" />
<glyph unicode="&#x42f;" horiz-adv-x="825" d="M41 0v100h98v447q0 74 15 129.5t35 84t47.5 46t45 22t35.5 5.5q-53 3 -91.5 27t-56 56t-28 64t-11.5 54l-1 22v188q0 56 9.5 101.5t24 75t35.5 52t40 34t40.5 18.5t35 8.5t26.5 1.5h424v-100h-107v-1336h107v-100h-365v100h140v686h-133q-148 0 -148 -225v-561h-217z M248 1047q-1 -15 1.5 -33t12.5 -42.5t26 -44t46.5 -33t71.5 -13.5h133v555h-154q-26 0 -46 -5.5t-43 -21.5t-35.5 -52t-12.5 -91v-219z" />
<glyph unicode="&#x430;" horiz-adv-x="708" d="M37 258q0 265 299 365l131 43v147q0 172 -127 172q-137 0 -137 -184v-101h-101v365h82l6 -88h3q23 55 70 81.5t104 26.5q109 0 163 -70.5t54 -193.5v-721h90v-100h-185v133q-19 -72 -76 -107.5t-132 -35.5q-119 0 -181.5 75.5t-62.5 192.5zM156 268q0 -74 36 -123 t107 -49q86 0 127 58t41 184v229l-121 -39q-96 -30 -143 -97.5t-47 -162.5z" />
<glyph unicode="&#x431;" d="M37 0v100h90v865h-90v100h545v-299h-109v199h-229v-328h135q136 0 200 -88.5t64 -239.5q0 -159 -68 -234t-184 -75h-354zM244 100h125q155 0 155 213q0 119 -41.5 174.5t-113.5 55.5h-125v-443z" />
<glyph unicode="&#x432;" horiz-adv-x="714" d="M41 0v100h92v865h-92v100h336q121 0 178 -71.5t57 -192.5q0 -198 -151 -232q90 -3 133 -76t43 -190q0 -158 -72 -230.5t-198 -72.5h-326zM252 100h108q160 0 160 207q0 109 -44 162t-116 53h-108v-422zM252 616h108q69 0 102.5 49.5t33.5 129.5q0 170 -146 170h-98v-349z " />
<glyph unicode="&#x433;" horiz-adv-x="612" d="M45 -2v100h90v865h-90v102h547v-299h-117v199h-223v-865h125v-102h-332z" />
<glyph unicode="&#x434;" horiz-adv-x="729" d="M41 100h53q5 12 12 40t19 149.5t12 283.5v392h-92v100h647v-100h-92v-865h92v-299h-112v199h-426v-199h-113v299zM211 100h272v865h-229v-408q0 -167 -11 -281t-21 -145z" />
<glyph unicode="&#x435;" horiz-adv-x="632" d="M72 264v547q0 141 65.5 207.5t177.5 66.5q126 0 186 -73t60 -199v-326h-373v-233q0 -164 131 -164q64 0 94.5 44.5t30.5 119.5v100h117v-90q0 -141 -66 -207.5t-180 -66.5q-126 0 -184.5 73t-58.5 201zM188 590h256v231q0 164 -129 164q-127 0 -127 -162v-233z" />
<glyph unicode="&#x436;" horiz-adv-x="1157" d="M20 0v100h101l215 453l-203 412h-100v100h309v-100h-88l182 -373h84v362h-90v111h293v-111h-86v-362h84l178 373h-88v100h309v-100h-100l-199 -412l215 -453h101v-100h-308v100h84l-174 381h-102v-381h90v-100h-297v100h90v381h-102l-174 -381h84v-100h-308z" />
<glyph unicode="&#x437;" horiz-adv-x="696" d="M86 262v90h117v-90q0 -162 149 -162q78 0 115 44.5t37 119.5v90q0 90 -38.5 132t-105.5 42h-36v97h43q120 0 120 157v35q0 81 -37 119.5t-100 38.5q-71 0 -105 -44.5t-34 -119.5v-45h-111v299h88l11 -94h2q23 55 68 84.5t100 29.5q233 0 233 -249v-50q0 -173 -139 -213 q81 0 119.5 -55t38.5 -151v-99q0 -144 -71 -211t-194 -67q-136 0 -203 73.5t-67 198.5z" />
<glyph unicode="&#x438;" horiz-adv-x="774" d="M41 965v100h297v-100h-88v-422l-21 -324h2l293 846h209v-100h-92v-865h92v-100h-299v100h90v400l19 319h-2l-291 -819h-187v100h70v865h-92z" />
<glyph unicode="&#x439;" horiz-adv-x="774" d="M41 965v100h297v-100h-88v-422l-21 -324h2l293 846h209v-100h-92v-865h92v-100h-299v100h90v400l19 319h-2l-291 -819h-187v100h70v865h-92zM219 1341v45h86v-38q0 -30 22 -53t74 -23t74.5 23t22.5 53v38h86v-45q0 -60 -45.5 -104.5t-137.5 -44.5t-137 44.5t-45 104.5z " />
<glyph unicode="&#x43a;" horiz-adv-x="724" d="M41 0v100h92v863h-92v100h276v-100h-67v-863h67v-100h-276zM252 549l242 416h-76v100h291v-100h-93l-245 -412l247 -453h93v-100h-287v100h65z" />
<glyph unicode="&#x43b;" horiz-adv-x="675" d="M4 0v100h47q53 0 65.5 29.5t12.5 138.5v697h-90v100h600v-100h-92v-865h92v-100h-289v100h78v865h-180v-713q3 -123 -32.5 -187.5t-104.5 -64.5h-107z" />
<glyph unicode="&#x43c;" horiz-adv-x="974" d="M37 0v100h92v865h-90v100h205l243 -752l246 752h205v-100h-90v-865h92v-100h-297v100h88v312l21 419h-2l-209 -679h-105l-211 677h-2l23 -421v-308h88v-100h-297z" />
<glyph unicode="&#x43d;" horiz-adv-x="765" d="M41 0v100h90v865h-90v100h295v-100h-88v-383h274v383h-88v100h295v-100h-90v-865h90v-100h-295v100h88v394h-274v-394h88v-100h-295z" />
<glyph unicode="&#x43e;" horiz-adv-x="632" d="M72 262v549q0 141 65.5 207.5t179.5 66.5q126 0 185 -73t59 -199v-551q0 -141 -66 -207.5t-180 -66.5q-126 0 -184.5 73t-58.5 201zM188 252q0 -164 127 -164q66 0 97.5 44.5t31.5 119.5v569q0 164 -129 164q-127 0 -127 -162v-571z" />
<glyph unicode="&#x43f;" horiz-adv-x="733" d="M39 0v100h92v865h-92v100h657v-100h-92v-865h92v-100h-290v100h81v865h-239v-865h82v-100h-291z" />
<glyph unicode="&#x440;" horiz-adv-x="702" d="M51 -219h86v1184h-86v100h191l4 -113q23 60 64 96.5t116 36.5q92 0 148.5 -60.5t56.5 -188.5v-576q0 -126 -54.5 -198t-170.5 -72q-115 0 -150 88h-2v-297h86v-100h-289v100zM254 274q0 -184 125 -184q133 0 133 195v524q0 80 -30.5 127t-94.5 47q-62 0 -97.5 -47.5 t-35.5 -147.5v-514z" />
<glyph unicode="&#x441;" horiz-adv-x="614" d="M72 260v555q0 139 57.5 204.5t155.5 65.5q115 0 155 -102h4l11 82h96v-383h-117v109q0 100 -33 147t-90 47q-63 0 -93 -52t-30 -142v-541q0 -82 34 -121t91 -39q63 0 93 43.5t30 116.5v112h117v-108q0 -136 -65.5 -200t-178.5 -64q-123 0 -180 72t-57 198z" />
<glyph unicode="&#x442;" horiz-adv-x="739" d="M31 766v299h678v-299h-113v199h-168v-865h123v-100h-365v100h125v865h-168v-199h-112z" />
<glyph unicode="&#x443;" horiz-adv-x="684" d="M10 965v100h248v-100h-45l133 -871l119 871h-49v100h254v-100h-92l-158 -1121q-11 -83 -55.5 -132t-124.5 -50h-134v102h123q67 0 80 84l23 152h-82l-148 965h-92z" />
<glyph unicode="&#x444;" horiz-adv-x="837" d="M72 254v557q0 141 69.5 207.5t190.5 66.5h28v238h-122v111h239v-349h31q133 0 195.5 -73t62.5 -199v-559q0 -141 -69.5 -207.5t-188.5 -66.5h-31v-207h125v-111h-366v111h124v207h-28q-133 0 -196.5 73.5t-63.5 200.5zM188 244q0 -164 144 -164h28v905h-28 q-73 0 -108.5 -43.5t-35.5 -118.5v-579zM477 80h31q73 0 107 44.5t34 119.5v577q0 164 -141 164h-31v-905z" />
<glyph unicode="&#x445;" horiz-adv-x="712" d="M10 0v100h92l174 435l-174 430h-92v100h273v-100h-62l135 -367l131 367h-55v100h270v-100h-96l-172 -430l172 -435h96v-100h-270v100h57l-133 371l-135 -371h62v-100h-273z" />
<glyph unicode="&#x446;" horiz-adv-x="708" d="M37 0v100h92v865h-92v100h280v-100h-71v-865h219v865h-72v100h281v-100h-92v-865h92v-295h-105v195h-532z" />
<glyph unicode="&#x447;" horiz-adv-x="770" d="M41 965v100h299v-100h-90v-293q0 -100 37 -147.5t100 -47.5q70 0 103.5 52.5t33.5 142.5v293h-92v100h301v-100h-92v-875h92v-90h-301v90h92v375h-4q-56 -96 -162 -96q-116 0 -170.5 72t-54.5 198v326h-92z" />
<glyph unicode="&#x448;" horiz-adv-x="1044" d="M37 0v100h92v865h-92v100h280v-100h-71v-865h219v865h-72v100h260v-100h-71v-865h219v865h-72v100h281v-100h-92v-865h92v-100h-973z" />
<glyph unicode="&#x449;" horiz-adv-x="1044" d="M39 0v100h90v865h-90v100h278v-100h-71v-865h219v865h-72v100h260v-100h-71v-865h219v865h-72v100h281v-100h-92v-865h92v-295h-111v195h-860z" />
<glyph unicode="&#x44a;" horiz-adv-x="776" d="M20 766v299h416v-100h-78v-328h134q136 0 200 -84t64 -229q0 -167 -68 -245.5t-184 -78.5h-344v100h82v865h-113v-199h-109zM358 100h125q81 0 118.5 60.5t37.5 163.5q0 113 -42 166t-114 53h-125v-443z" />
<glyph unicode="&#x44b;" horiz-adv-x="1017" d="M37 965v100h278v-100h-77v-328h133q136 0 200 -84t64 -229q0 -167 -68 -245.5t-184 -78.5h-344v100h82v865h-84zM238 100h124q81 0 118.5 60.5t37.5 163.5q0 113 -42 166t-114 53h-124v-443zM686 0v100h90v865h-90v100h297v-100h-90v-865h90v-100h-297z" />
<glyph unicode="&#x44c;" horiz-adv-x="661" d="M37 0h352q116 0 184 78.5t68 245.5q0 145 -64 229t-200 84h-133v328h86v100h-293v-100h90v-865h-90v-100zM244 100v443h125q72 0 113.5 -53t41.5 -166q0 -103 -37 -163.5t-118 -60.5h-125z" />
<glyph unicode="&#x44d;" horiz-adv-x="704" d="M125 254v108h117v-112q0 -83 35.5 -121.5t97.5 -38.5q73 0 107 43t34 117v233h-229v103h229v205q0 99 -37.5 146.5t-101.5 47.5q-135 0 -135 -194v-109h-115v383h98l11 -94h4q38 114 159 114t177.5 -72.5t56.5 -197.5v-555q0 -139 -68 -204.5t-184 -65.5q-132 0 -194 71 t-62 193z" />
<glyph unicode="&#x44e;" horiz-adv-x="978" d="M37 0v100h94v869h-94v96h301v-96h-90v-408h170v240q0 141 66 207.5t180 66.5q124 0 183.5 -72t59.5 -190v-549q0 -141 -65.5 -207.5t-179.5 -66.5q-126 0 -185 73.5t-59 200.5v209h-170v-373h90v-100h-301zM535 254q0 -164 127 -164q66 0 97.5 44.5t31.5 119.5v567 q0 79 -34.5 116.5t-94.5 37.5q-127 0 -127 -162v-559z" />
<glyph unicode="&#x44f;" horiz-adv-x="718" d="M41 0v100h86v193q0 129 41 191t111 65q-92 6 -135.5 68t-43.5 165q0 145 66 214t180 69h330v-100h-92v-865h92v-100h-297v100h88v398h-98q-125 0 -125 -191v-307h-203zM215 780q0 -182 152 -182h100v367h-102q-78 0 -114 -50t-36 -135z" />
<glyph unicode="&#x451;" horiz-adv-x="632" d="M72 264v547q0 141 65.5 207.5t177.5 66.5q126 0 186 -73t60 -199v-326h-373v-233q0 -164 131 -164q64 0 94.5 44.5t30.5 119.5v100h117v-90q0 -141 -66 -207.5t-180 -66.5q-126 0 -184.5 73t-58.5 201zM174 1296v240h102v-240h-102zM188 590h256v231q0 164 -129 164 q-127 0 -127 -162v-233zM375 1296v240h102v-240h-102z" />
<glyph unicode="&#x2000;" horiz-adv-x="946" />
<glyph unicode="&#x2001;" horiz-adv-x="1892" />
<glyph unicode="&#x2002;" horiz-adv-x="946" />
<glyph unicode="&#x2003;" horiz-adv-x="1892" />
<glyph unicode="&#x2004;" horiz-adv-x="630" />
<glyph unicode="&#x2005;" horiz-adv-x="473" />
<glyph unicode="&#x2006;" horiz-adv-x="315" />
<glyph unicode="&#x2007;" horiz-adv-x="315" />
<glyph unicode="&#x2008;" horiz-adv-x="236" />
<glyph unicode="&#x2009;" horiz-adv-x="378" />
<glyph unicode="&#x200a;" horiz-adv-x="105" />
<glyph unicode="&#x2010;" d="M92 608v107h510v-107h-510z" />
<glyph unicode="&#x2011;" d="M92 608v107h510v-107h-510z" />
<glyph unicode="&#x2012;" d="M92 608v107h510v-107h-510z" />
<glyph unicode="&#x2013;" horiz-adv-x="1208" d="M92 608v107h1024v-107h-1024z" />
<glyph unicode="&#x2014;" horiz-adv-x="2232" d="M92 608v107h2048v-107h-2048z" />
<glyph unicode="&#x2018;" horiz-adv-x="319" d="M94 1206l51 350h84l-16 -350h-119z" />
<glyph unicode="&#x2019;" horiz-adv-x="319" d="M94 1206l17 350h118l-51 -350h-84z" />
<glyph unicode="&#x201a;" horiz-adv-x="319" d="M92 -252l17 350h118l-51 -350h-84z" />
<glyph unicode="&#x201c;" horiz-adv-x="507" d="M94 1206l51 350h84l-16 -350h-119zM283 1206l51 350h84l-19 -350h-116z" />
<glyph unicode="&#x201d;" horiz-adv-x="507" d="M92 1206l19 350h116l-51 -350h-84zM281 1206l16 350h119l-51 -350h-84z" />
<glyph unicode="&#x201e;" horiz-adv-x="507" d="M92 -252l19 350h116l-51 -350h-84zM281 -252l16 350h119l-51 -350h-84z" />
<glyph unicode="&#x202f;" horiz-adv-x="378" />
<glyph unicode="&#x2039;" horiz-adv-x="425" d="M100 616l125 279h117l-125 -279l125 -280h-117z" />
<glyph unicode="&#x203a;" horiz-adv-x="425" d="M100 336l125 280l-125 279h117l125 -279l-125 -280h-117z" />
<glyph unicode="&#x205f;" horiz-adv-x="473" />
<glyph unicode="&#x20ac;" horiz-adv-x="839" d="M92 627v94h109v94h-109v94h109v377q0 119 66 194.5t192 75.5q67 0 115 -31.5t67 -82.5h4l12 114h91v-567h-111v262q0 98 -41.5 146.5t-116.5 48.5q-74 0 -117 -48.5t-43 -146.5v-342h265v-94h-265v-94h265v-94h-265v-377q0 -68 45 -114t111 -46q68 0 115 46.5t47 113.5 v268h111v-268q0 -116 -76 -193t-197 -77q-124 0 -199 77t-75 193v377h-109z" />
<glyph unicode="&#x2122;" horiz-adv-x="747" d="M92 1384v152h238v-152h-37v115h-60v-348h33v-39h-110v39h34v348h-61v-115h-37zM350 1112v39h31v348h-31v37h64l90 -346l92 346h59v-37h-28v-348h28v-39h-90v39h25v233l-70 -272h-33l-67 272v-233h22v-39h-92z" />
<glyph unicode="&#x25fc;" horiz-adv-x="1064" d="M0 0v1065h1065v-1065h-1065z" />
</font>
</defs>
</svg>
