<?xml version="1.0" standalone="no"?>
<!DOCTYPE svg PUBLIC "-//W3C//DTD SVG 1.1//EN" "http://www.w3.org/Graphics/SVG/1.1/DTD/svg11.dtd" >
<svg xmlns="http://www.w3.org/2000/svg">
<metadata></metadata>
<defs>
<font id="corporate_s_lightregular" horiz-adv-x="1024" >
<font-face units-per-em="2048" ascent="1370" descent="-678" />
<missing-glyph horiz-adv-x="512" />
<glyph unicode="&#xfb01;" horiz-adv-x="974" d="M35 881v88h139v63q0 109 6.5 154.5t26.5 85.5q29 55 85.5 86t127.5 31q54 0 131 -25v-109q-58 37 -123 37q-97 0 -129 -84q-14 -43 -14 -159v-80h245v-88h-239v-881h-117v881h-139zM672 1290q0 38 26 65t64 27t64 -26t26 -66q0 -37 -26 -62.5t-64 -25.5t-64 25t-26 63z M705 0v969h116v-969h-116z" />
<glyph unicode="&#xfb02;" horiz-adv-x="974" d="M35 881v88h139v63q0 109 6.5 154.5t26.5 85.5q29 55 85.5 86t127.5 31q54 0 131 -25v-109q-60 37 -123 37q-97 0 -129 -84q-14 -43 -14 -159v-80h245v-88h-239v-881h-117v881h-139zM705 0v1370h116v-1370h-116z" />
<glyph unicode="&#xfb03;" horiz-adv-x="1525" d="M35 881v88h139v63q0 109 6.5 154.5t26.5 85.5q29 55 85.5 86t127.5 31q60 0 131 -25v-109q-60 37 -123 37q-97 0 -129 -84q-14 -43 -14 -159v-80h442v63q0 112 6 155.5t27 84.5q28 54 84.5 85.5t126.5 31.5q63 0 131 -25v-109q-60 37 -123 37q-96 0 -127 -84 q-16 -47 -16 -159v-80h245v-88h-237v-881h-117v881h-436v-881h-117v881h-139zM1225 1290q0 38 26 65t64 27t64 -26t26 -66q0 -37 -26 -62.5t-64 -25.5t-64 25t-26 63zM1255 0v969h117v-969h-117z" />
<glyph unicode="&#xfb04;" horiz-adv-x="1525" d="M35 881v88h139v63q0 109 6.5 154.5t26.5 85.5q29 55 85.5 86t127.5 31q60 0 131 -25v-109q-60 37 -123 37q-97 0 -129 -84q-14 -43 -14 -159v-80h442v63q0 112 6 155.5t27 84.5q28 54 84.5 85.5t126.5 31.5q63 0 131 -25v-109q-60 37 -123 37q-96 0 -127 -84 q-16 -47 -16 -159v-80h245v-88h-237v-881h-117v881h-436v-881h-117v881h-139zM1255 0v1370h117v-1370h-117z" />
<glyph horiz-adv-x="2048" />
<glyph horiz-adv-x="2048" />
<glyph unicode="&#xd;" horiz-adv-x="2048" />
<glyph unicode=" "  horiz-adv-x="512" />
<glyph unicode="&#x09;" horiz-adv-x="512" />
<glyph unicode="&#xa0;" horiz-adv-x="512" />
<glyph unicode="!" horiz-adv-x="507" d="M147 82q0 44 31.5 75t75.5 31q43 0 73.5 -31t30.5 -75q0 -43 -31 -74t-75 -31q-43 0 -74 31t-31 74zM195 1343h116l-22 -983h-82z" />
<glyph unicode="&#x22;" horiz-adv-x="618" d="M117 1366h123l-17 -547h-90zM379 1366h123l-17 -547h-90z" />
<glyph unicode="#" horiz-adv-x="1228" d="M84 442l14 95h234l49 315h-231l14 94h233l66 420h106l-67 -420h323l68 420h104l-65 -420h233l-16 -94h-231l-52 -315h234l-15 -95h-233l-70 -442h-106l69 442h-321l-72 -442h-104l69 442h-233zM438 537h324l49 315h-324z" />
<glyph unicode="$" horiz-adv-x="1064" d="M96 369h115q8 -128 84.5 -205.5t202.5 -81.5v575q-165 65 -213 93q-156 99 -156 276q0 151 101 249.5t268 110.5v127h67v-124q151 -7 247.5 -90t102.5 -209h-122q-6 79 -68.5 131.5t-159.5 60.5v-522q165 -62 236 -109q162 -107 162 -297q0 -159 -109 -262t-289 -115 v-137h-67v137q-186 9 -291 111.5t-111 280.5zM246 1036q0 -121 110 -188q31 -18 142 -62v496q-117 -12 -184.5 -78.5t-67.5 -167.5zM565 82q129 12 203 81.5t74 176.5q0 64 -27.5 119t-77.5 90q-24 19 -58 35t-114 47v-549z" />
<glyph unicode="%" horiz-adv-x="1077" d="M43 1051q0 138 72 232.5t176 94.5q106 0 178 -94t72 -233t-72 -233.5t-178 -94.5q-104 0 -176 95t-72 233zM88 0l803 1366h100l-807 -1366h-96zM145 1051q0 -101 42 -169.5t104 -68.5q64 0 105.5 67.5t41.5 170.5t-41.5 170t-105.5 67q-63 0 -104.5 -67t-41.5 -170z M537 315q0 138 71.5 233t177.5 95q104 0 176 -95t72 -233q0 -139 -72 -233t-178 -94q-104 0 -175.5 94.5t-71.5 232.5zM639 315q0 -101 41.5 -169t103.5 -68q63 0 105.5 67.5t42.5 169.5q0 103 -42 170.5t-106 67.5q-63 0 -104 -67.5t-41 -170.5z" />
<glyph unicode="&#x26;" horiz-adv-x="1220" d="M100 346q0 120 61.5 210.5t223.5 209.5q-106 138 -135 196t-29 130q0 116 80 188t207 72q121 0 191.5 -66t70.5 -180q0 -97 -52 -179t-177 -182l305 -415q50 84 53 280h98q1 -130 -17.5 -215.5t-64.5 -156.5l175 -238h-136l-104 141q-72 -80 -154 -115.5t-194 -35.5 q-182 0 -292 97.5t-110 258.5zM217 350q0 -114 83 -190t206 -76q167 0 280 143l-335 451q-101 -74 -148 -121q-40 -41 -63 -96.5t-23 -110.5zM332 1104q0 -52 19 -90t102 -152q2 -3 22 -31q101 78 144 142t43 137q0 65 -44 106t-114 41q-74 0 -123 -43.5t-49 -109.5z" />
<glyph unicode="'" horiz-adv-x="512" d="M195 1366h122l-16 -547h-90z" />
<glyph unicode="(" horiz-adv-x="557" d="M158 483q0 299 64 530t184 363h83q-106 -137 -162.5 -367t-56.5 -526q0 -591 219 -893h-83q-122 141 -185 368.5t-63 524.5z" />
<glyph unicode=")" horiz-adv-x="557" d="M68 -410q219 302 219 893q0 296 -56.5 526t-162.5 367h84q120 -132 183.5 -362.5t63.5 -530.5q0 -607 -247 -893h-84z" />
<glyph unicode="*" d="M197 1067l28 88l242 -78v254h92v-254l242 78l28 -88l-241 -78l149 -207l-75 -53l-148 205l-149 -205l-76 55l149 205z" />
<glyph unicode="+" horiz-adv-x="1064" d="M111 649v78h378v393h82v-393h381v-78h-381v-393h-82v393h-378z" />
<glyph unicode="," horiz-adv-x="479" d="M78 -244q145 135 160 240h-19q-40 0 -69 30.5t-29 71.5q0 45 32.5 77t79.5 32q53 0 86 -38t33 -99q0 -144 -145 -314h-129z" />
<glyph unicode="-" horiz-adv-x="571" d="M0 471v88h571v-88h-571z" />
<glyph unicode="." horiz-adv-x="526" d="M158 82q0 44 31 75t75 31q43 0 74 -31t31 -75q0 -43 -31.5 -74t-75.5 -31q-43 0 -73.5 31t-30.5 74z" />
<glyph unicode="/" horiz-adv-x="1177" d="M135 -272l783 1638h126l-782 -1638h-127z" />
<glyph unicode="0" horiz-adv-x="1064" d="M111 662q0 325 112.5 506.5t313.5 181.5q192 0 303.5 -184t111.5 -500q0 -351 -143 -547q-47 -65 -120 -100t-159 -35q-85 0 -157 35t-119 100q-143 196 -143 543zM229 664q0 -271 88 -449q34 -64 90 -98.5t125 -34.5t124 34.5t87 98.5q91 171 91 451q0 283 -91 452 q-32 63 -86.5 98t-119.5 35q-149 0 -220 -133q-88 -171 -88 -454z" />
<glyph unicode="1" horiz-adv-x="1064" d="M250 1067v82q124 4 187 49t85 145h78v-1343h-108v1067h-242z" />
<glyph unicode="2" horiz-adv-x="1064" d="M176 0v88q9 11 45.5 60.5t135.5 184t204 275.5q156 216 176 251q4 6 8 13q46 88 46 164q0 95 -65.5 153t-172.5 58q-124 0 -189.5 -75.5t-74.5 -229.5h-111q3 199 100.5 303.5t280.5 104.5q158 0 254 -86.5t96 -227.5q0 -88 -36 -163.5t-160 -239.5q-351 -470 -396 -533 h615v-100h-756z" />
<glyph unicode="3" horiz-adv-x="1064" d="M123 350v23h104q3 -141 77 -215t212 -74q141 0 221 79.5t80 217.5q0 137 -80.5 212t-228.5 75q-30 0 -55 -4v106l55 -2q119 0 189.5 68t70.5 182q0 106 -65 167.5t-179 61.5t-175.5 -61.5t-80.5 -190.5h-104q9 169 104.5 262t261.5 93q160 0 258.5 -89t98.5 -235 q0 -207 -197 -297q126 -46 186 -129t60 -211q0 -185 -112.5 -296t-299.5 -111q-186 0 -293.5 98.5t-107.5 269.5z" />
<glyph unicode="4" horiz-adv-x="1064" d="M86 338v86l551 919h106v-901h230v-104h-228v-350h-114v350h-545zM201 442h432l6 736z" />
<glyph unicode="5" horiz-adv-x="1064" d="M170 303h106q19 -106 83 -163.5t165 -57.5q132 0 215.5 106t83.5 275q0 152 -73.5 244t-196.5 92q-87 0 -146 -37.5t-102 -120.5l-106 10l82 680h591l-18 -100h-475l-60 -434q90 106 240 106q172 0 276.5 -119.5t104.5 -318.5q0 -161 -78 -293q-114 -188 -338 -188 q-151 0 -247.5 86.5t-106.5 232.5z" />
<glyph unicode="6" horiz-adv-x="1064" d="M176 440q0 397 502 926h127q-234 -249 -395 -524q82 47 170 47q156 0 259 -127.5t103 -319.5q0 -204 -105.5 -331t-275.5 -127t-277.5 127t-107.5 329zM295 434q0 -155 73.5 -253.5t190.5 -98.5t190.5 98.5t73.5 255.5q0 155 -73 255t-187 100q-120 0 -194 -98.5 t-74 -258.5z" />
<glyph unicode="7" horiz-adv-x="1064" d="M209 1227v104h805v-100l-658 -1231h-129l660 1227h-678z" />
<glyph unicode="8" horiz-adv-x="1064" d="M145 358q0 234 203 342q-166 81 -166 293q0 152 100 254.5t248 102.5q149 0 250 -102.5t101 -254.5q0 -213 -164 -293q203 -108 203 -342q0 -166 -108 -270t-280 -104t-279.5 104t-107.5 270zM264 365q0 -127 74 -205t194 -78t194.5 78t74.5 205q0 126 -73.5 204 t-190.5 78q-125 0 -199 -76.5t-74 -205.5zM301 995q0 -113 64 -183.5t167 -70.5q102 0 166 71t64 185q0 111 -64 182.5t-163 71.5q-105 0 -169.5 -70.5t-64.5 -185.5z" />
<glyph unicode="9" horiz-adv-x="1064" d="M121 889q0 206 105.5 333.5t275.5 127.5t277.5 -127.5t107.5 -329.5q0 -200 -120.5 -422.5t-381.5 -505.5h-127q246 270 395 524q-79 -47 -170 -47q-156 0 -259 127.5t-103 319.5zM240 897q0 -157 73 -256.5t187 -99.5q120 0 194 98t74 258q0 157 -73.5 255.5 t-190.5 98.5t-190.5 -98.5t-73.5 -255.5z" />
<glyph unicode=":" horiz-adv-x="526" d="M158 82q0 44 31 75t75 31q43 0 74 -31t31 -75q0 -43 -31.5 -74t-75.5 -31q-43 0 -73.5 31t-30.5 74zM158 862q0 44 31 75.5t75 31.5q43 0 74 -31.5t31 -75.5q0 -43 -31.5 -73.5t-75.5 -30.5q-43 0 -73.5 30.5t-30.5 73.5z" />
<glyph unicode=";" horiz-adv-x="479" d="M78 -244q145 135 160 240h-19q-40 0 -69 30.5t-29 71.5q0 45 32.5 77t79.5 32q53 0 86 -38t33 -99q0 -144 -145 -314h-129zM121 862q0 44 31 75.5t75 31.5q43 0 74 -31.5t31 -75.5q0 -43 -31.5 -73.5t-75.5 -30.5q-43 0 -73.5 30.5t-30.5 73.5z" />
<glyph unicode="&#x3c;" d="M68 639v96l886 402v-107l-772 -344l772 -342v-106z" />
<glyph unicode="=" horiz-adv-x="1064" d="M111 522v82h841v-82h-841zM111 772v82h841v-82h-841z" />
<glyph unicode="&#x3e;" d="M70 238v106l772 342l-772 344v107l886 -404v-94z" />
<glyph unicode="?" horiz-adv-x="839" d="M94 1034q8 152 91.5 234t232.5 82q140 0 221.5 -76.5t81.5 -206.5q0 -80 -36 -142t-142 -163q-33 -32 -49 -48.5t-32.5 -40.5t-21.5 -38.5t-10 -47.5t-5.5 -61.5t-0.5 -85.5q0 -42 2 -73h-111q-2 31 -2 125q0 75 2.5 110t20 75t42 67.5t81.5 84.5q80 82 109.5 134 t29.5 110q0 78 -49 123t-135 45q-100 0 -152.5 -50t-64.5 -157h-103zM262 82q0 44 31.5 75t75.5 31q43 0 73.5 -31t30.5 -75q0 -43 -31 -74t-75 -31q-43 0 -74 31t-31 74z" />
<glyph unicode="@" horiz-adv-x="1501" d="M72 686q0 199 92.5 360.5t256 253t365.5 91.5q186 0 333.5 -77.5t230 -216.5t82.5 -315q0 -128 -46 -241t-123.5 -180.5t-164.5 -67.5q-64 0 -103.5 38.5t-44.5 104.5q-96 -149 -256 -149q-126 0 -206 94t-80 240q0 173 104.5 295t253.5 122q91 0 147.5 -42.5 t87.5 -131.5l29 148h84l-86 -445q-12 -59 -12 -98q0 -47 23.5 -74.5t62.5 -27.5q63 0 119.5 57.5t90.5 153.5t34 202q0 238 -156 385.5t-408 147.5q-132 0 -247 -48t-197 -131.5t-129 -200.5t-47 -251q0 -125 43.5 -241t122.5 -203q173 -185 479 -185q122 0 225 25t221 82 l27 -76q-221 -109 -473 -109q-339 0 -537 201q-92 94 -145 229.5t-53 280.5zM506 618q0 -115 54.5 -182t146.5 -67q110 0 183 102.5t73 257.5q0 104 -52 163.5t-143 59.5q-109 0 -185.5 -97.5t-76.5 -236.5z" />
<glyph unicode="A" horiz-adv-x="1134" d="M49 0l473 1376h90l473 -1376h-122l-134 387h-524l-135 -387h-121zM338 489h457l-228 721z" />
<glyph unicode="B" horiz-adv-x="1099" d="M180 0v1366h211q145 0 213.5 -6.5t126.5 -26.5q100 -34 155.5 -114.5t55.5 -192.5q0 -119 -56 -192.5t-173 -108.5q153 -38 226 -123t73 -225q0 -124 -59.5 -217t-159.5 -125q-65 -21 -145 -28t-257 -7h-211zM297 102h143q131 0 198.5 7.5t117.5 29.5q60 26 94.5 91 t34.5 153q0 92 -46 160t-128 94q-88 25 -273 25h-141v-560zM297 764h133q111 0 173.5 10.5t109.5 38.5q51 31 79.5 86.5t28.5 124.5q0 78 -35.5 134t-101.5 79q-42 17 -92.5 22t-165.5 5h-129v-500z" />
<glyph unicode="C" horiz-adv-x="1232" d="M117 680q0 323 149 516t398 193q183 0 300.5 -100t145.5 -279h-115q-34 139 -116 206.5t-217 67.5q-192 0 -305 -162t-113 -438q0 -280 113 -441t309 -161q153 0 243.5 93.5t110.5 273.5h113q-22 -224 -142.5 -348t-318.5 -124q-256 0 -405.5 189.5t-149.5 513.5z" />
<glyph unicode="D" horiz-adv-x="1269" d="M180 0v1366h174q219 0 314.5 -15.5t183.5 -64.5q141 -80 222 -240.5t81 -361.5q0 -212 -87.5 -374t-242.5 -240q-85 -43 -177 -56.5t-302 -13.5h-166zM297 102h92q183 0 254.5 12.5t147.5 57.5q116 71 176.5 201.5t60.5 308.5q0 192 -69 329.5t-197 200.5 q-70 33 -143.5 42.5t-258.5 9.5h-63v-1162z" />
<glyph unicode="E" horiz-adv-x="1003" d="M180 0v1366h715v-102h-598v-506h557v-103h-557v-553h606v-102h-723z" />
<glyph unicode="F" horiz-adv-x="976" d="M180 0v1366h715v-102h-598v-506h557v-103h-557v-655h-117z" />
<glyph unicode="G" horiz-adv-x="1259" d="M117 684q0 324 150.5 514.5t406.5 190.5q182 0 295 -99t139 -280h-115q-37 142 -114.5 208t-208.5 66q-198 0 -312 -160t-114 -438q0 -336 166 -502q105 -102 284 -102q160 0 320 88v389h-279v111h391v-559q-186 -134 -430 -134q-273 0 -426 187t-153 520z" />
<glyph unicode="H" horiz-adv-x="1267" d="M180 0v1366h117v-602h674v602h116v-1366h-116v668h-674v-668h-117z" />
<glyph unicode="I" horiz-adv-x="475" d="M176 0v1366h121v-1366h-121z" />
<glyph unicode="J" horiz-adv-x="557" d="M-2 -43q8 -2 20 -2q146 0 203 78q25 34 32 77t7 169v1087h121v-1090q0 -127 -5 -173t-24 -87q-34 -78 -115.5 -120.5t-197.5 -42.5q-23 0 -41 2v102z" />
<glyph unicode="K" horiz-adv-x="1097" d="M180 0v1366h117v-1366h-117zM299 713l571 653h146l-572 -651l633 -715h-168z" />
<glyph unicode="L" horiz-adv-x="946" d="M180 0v1366h121v-1264h582v-102h-703z" />
<glyph unicode="M" horiz-adv-x="1560" d="M180 0v1366h189l411 -1235l412 1235h188v-1366h-116v1260l-424 -1260h-117l-426 1260v-1260h-117z" />
<glyph unicode="N" horiz-adv-x="1284" d="M180 0v1366h129l688 -1196v1196h109v-1366h-135l-680 1192v-1192h-111z" />
<glyph unicode="O" horiz-adv-x="1304" d="M117 692q0 304 151.5 500.5t384.5 196.5q236 0 386.5 -197.5t150.5 -507.5q0 -205 -68 -366.5t-190 -251t-277 -89.5q-241 0 -389.5 197.5t-148.5 517.5zM244 690q0 -269 114 -438.5t295 -169.5q180 0 295 169t115 433q0 173 -52 310t-146 213.5t-212 76.5 q-178 0 -293.5 -168t-115.5 -426z" />
<glyph unicode="P" horiz-adv-x="1050" d="M180 0v1366h195q154 0 233 -7.5t140 -27.5q110 -37 173.5 -135.5t63.5 -230.5q0 -120 -50 -209t-144 -133q-65 -29 -144 -39.5t-244 -10.5h-106v-573h-117zM297 676h102q171 0 258 18q98 20 149.5 89.5t51.5 183.5q0 97 -41 166.5t-115 97.5q-53 22 -112 27.5t-219 5.5 h-74v-588z" />
<glyph unicode="Q" horiz-adv-x="1318" d="M117 682q0 312 150 509.5t386 197.5t386.5 -197.5t150.5 -507.5q0 -245 -98 -428l262 -279h-146l-180 183q-148 -183 -375 -183q-156 0 -278 89.5t-190 250t-68 365.5zM244 690q0 -269 114 -438.5t295 -169.5q180 0 295 169t115 433q0 173 -52 310t-146 213.5t-212 76.5 q-178 0 -293.5 -168t-115.5 -426z" />
<glyph unicode="R" horiz-adv-x="1130" d="M180 0v1366h209q159 0 227.5 -7t135.5 -30q106 -34 167.5 -124.5t61.5 -213.5q0 -269 -295 -368l375 -623h-143l-367 606h-254v-606h-117zM297 709h96q138 0 191 5t104 23q80 28 123 94.5t43 161.5q0 87 -37.5 149.5t-105.5 90.5q-50 19 -110.5 25t-205.5 6h-98v-555z " />
<glyph unicode="S" horiz-adv-x="1107" d="M117 399h116q8 -152 91 -234.5t231 -82.5q132 0 217.5 74.5t85.5 191.5q0 105 -78 180q-31 29 -72.5 53.5t-132.5 65.5q-213 98 -276 144q-137 100 -137 258q0 148 110.5 244t282.5 96q173 0 274.5 -95.5t110.5 -265.5h-115q-12 124 -83.5 190t-194.5 66 q-115 0 -190.5 -64.5t-75.5 -162.5q0 -96 86 -160q34 -25 65.5 -41.5t181.5 -85.5q124 -57 189 -98.5t100 -85.5q78 -96 78 -230q0 -169 -119.5 -274t-310.5 -105q-228 0 -342 142q-44 54 -65 118t-27 162z" />
<glyph unicode="T" horiz-adv-x="921" d="M49 1264v102h823v-102h-352v-1264h-117v1264h-354z" />
<glyph unicode="U" horiz-adv-x="1245" d="M160 453v100v813h116v-811q2 -185 10 -242t42 -104q40 -60 118 -93.5t177 -33.5q110 0 193 41t120 113q23 43 28 94.5t7 224.5v811h116v-813q0 -171 -4 -219.5t-22 -100.5q-43 -121 -158.5 -188.5t-279.5 -67.5q-147 0 -255 54.5t-161 154.5q-26 51 -36.5 110t-10.5 157z " />
<glyph unicode="V" horiz-adv-x="1116" d="M33 1366h123l409 -1229l402 1229h120l-471 -1378h-114z" />
<glyph unicode="W" horiz-adv-x="1527" d="M43 1366h113l264 -1196l295 1196h100l293 -1196l268 1196h113l-318 -1378h-120l-287 1128l-285 -1128h-121z" />
<glyph unicode="X" horiz-adv-x="1083" d="M47 0l428 717l-407 649h135l340 -557l340 557h137l-410 -649l430 -717h-133l-364 604l-363 -604h-133z" />
<glyph unicode="Y" horiz-adv-x="1013" d="M33 1366h137l340 -670l336 670h137l-420 -780l2 -586h-114l2 586z" />
<glyph unicode="Z" horiz-adv-x="1003" d="M68 0v90l718 1174h-680v102h826v-80l-727 -1184h715v-102h-852z" />
<glyph unicode="[" horiz-adv-x="557" d="M199 -397v1763h272v-90h-166v-1583h166v-90h-272z" />
<glyph unicode="\" horiz-adv-x="1177" d="M135 1366h127l782 -1638h-126z" />
<glyph unicode="]" horiz-adv-x="557" d="M86 -307h166v1583h-166v90h272v-1763h-272v90z" />
<glyph unicode="^" d="M68 770l374 598h140l374 -598h-118l-328 514l-324 -514h-118z" />
<glyph unicode="_" d="M0 -147h1024v-101h-1024v101z" />
<glyph unicode="`" d="M254 1407h170l197 -262h-97z" />
<glyph unicode="a" horiz-adv-x="948" d="M100 254q0 158 132.5 243t457.5 134v51q0 118 -49 167.5t-166 49.5q-202 0 -231 -172h-111q13 130 101.5 199t242.5 69q115 0 195.5 -44.5t105.5 -119.5q19 -61 19 -208v-355q0 -131 3.5 -173t20.5 -95h-106q-18 63 -25 137q-88 -162 -287 -162q-137 0 -220 76.5 t-83 202.5zM213 256q0 -82 55.5 -133t145.5 -51q74 0 134 32.5t95 90.5q47 73 47 241v111q-265 -52 -371 -117t-106 -174z" />
<glyph unicode="b" horiz-adv-x="1011" d="M133 0q12 42 16.5 98t4.5 183v1089h106v-547q103 172 283 172q167 0 268.5 -138.5t101.5 -367.5q0 -232 -105 -373t-278 -141q-91 0 -154.5 38.5t-115.5 125.5v-28q0 -52 -16 -111h-111zM258 479q0 -183 75.5 -295t198.5 -112t197 112.5t74 302.5q0 187 -70.5 299.5 t-187.5 112.5q-130 0 -208.5 -114.5t-78.5 -305.5z" />
<glyph unicode="c" horiz-adv-x="956" d="M100 481q0 232 111 373t293 141q148 0 237.5 -89.5t104.5 -250.5h-107q-19 119 -79.5 181.5t-157.5 62.5q-131 0 -211 -114.5t-80 -301.5t80.5 -299t214.5 -112q103 0 165 66.5t74 189.5h111q-17 -171 -105.5 -262t-238.5 -91q-189 0 -300.5 137t-111.5 369z" />
<glyph unicode="d" horiz-adv-x="1011" d="M98 475q0 237 101.5 378.5t271.5 141.5q196 0 281 -172v547h106v-1089q0 -129 4.5 -184.5t16.5 -96.5h-111q-16 52 -16 111v28q-52 -87 -116 -125.5t-155 -38.5q-175 0 -279 135.5t-104 364.5zM209 481q0 -187 73.5 -298t198.5 -111t199 111t74 300q0 188 -74 302 t-195 114q-129 0 -202.5 -112t-73.5 -306z" />
<glyph unicode="e" horiz-adv-x="974" d="M100 473q0 238 108.5 380t289.5 142q172 0 274 -132t102 -353v-37h-661q4 -196 79.5 -298.5t215.5 -102.5q85 0 139 36.5t98 122.5l105 -18q-89 -238 -342 -238q-189 0 -298.5 133.5t-109.5 364.5zM215 561h545q-9 160 -79 249t-187 89q-115 0 -187.5 -88t-91.5 -250z " />
<glyph unicode="f" horiz-adv-x="550" d="M35 881v88h139v63q0 115 7 160t30 86q29 52 84 81.5t123 29.5q56 0 133 -25v-109q-60 37 -123 37q-98 0 -129 -84q-14 -38 -14 -159v-80h245v-88h-239v-881h-117v881h-139z" />
<glyph unicode="g" horiz-adv-x="958" d="M68 -139q0 88 49.5 145.5t156.5 95.5q-54 20 -78 46.5t-24 64.5q0 51 39 86t135 72q-203 73 -203 280q0 147 93.5 236.5t248.5 89.5q62 0 140 -19l286 11v-86l-198 6q96 -83 96 -238q0 -141 -88 -217q-32 -27 -74.5 -44t-157.5 -48q-111 -29 -156.5 -56t-45.5 -63 q0 -31 32.5 -42t155.5 -23q145 -13 202 -25t105 -39q63 -32 97 -90.5t34 -130.5q0 -135 -115 -214t-311 -79q-190 0 -304.5 76.5t-114.5 204.5zM170 -135q0 -85 86.5 -136t230.5 -51q149 0 234.5 50.5t85.5 136.5q0 89 -81.5 135.5t-238.5 46.5q-151 0 -234 -48t-83 -134z M256 653q0 -97 61.5 -157t161.5 -60t159.5 59.5t59.5 157.5q0 101 -60.5 167.5t-152.5 66.5q-101 0 -165 -65.5t-64 -168.5z" />
<glyph unicode="h" horiz-adv-x="993" d="M154 0v1370h106v-516q55 75 121 108t158 33q86 0 153 -32t105 -91q29 -44 38 -104.5t9 -212.5v-555h-107v563q0 116 -5 160.5t-23 77.5q-51 98 -181 98q-69 0 -126.5 -31t-92.5 -88q-49 -82 -49 -235v-545h-106z" />
<glyph unicode="i" horiz-adv-x="423" d="M121 1290q0 38 26 65t64 27t64 -26t26 -66q0 -37 -26 -62.5t-64 -25.5t-64 25t-26 63zM154 0v969h116v-969h-116z" />
<glyph unicode="j" horiz-adv-x="501" d="M-47 -289q18 -2 37 -2q154 0 205 82q22 35 29 90t7 185v903h117v-903q0 -148 -9 -211.5t-36 -110.5q-76 -131 -291 -131q-32 0 -59 2v96zM197 1290q0 38 26 65t64 27t64 -26t26 -66q0 -37 -26 -62.5t-64 -25.5t-64 25t-26 63z" />
<glyph unicode="k" horiz-adv-x="948" d="M154 0v1370h106v-1370h-106zM264 532l426 437h131l-418 -432l447 -537h-152z" />
<glyph unicode="l" horiz-adv-x="423" d="M154 0v1370h116v-1370h-116z" />
<glyph unicode="m" horiz-adv-x="1517" d="M131 969h105q18 -53 18 -135q41 83 108.5 122t167.5 39q105 0 168 -41t97 -131q85 172 295 172q82 0 145.5 -30.5t95.5 -85.5q25 -41 32 -91.5t7 -183.5v-604h-106v604q0 103 -5 141t-22 70q-47 84 -174 84q-140 0 -207 -115q-39 -65 -39 -202v-582h-108v582 q0 104 -4.5 145.5t-16.5 71.5q-20 48 -66 74t-110 26q-63 0 -117 -27.5t-86 -76.5q-49 -71 -49 -222v-573h-106v645q0 169 -4 219q-5 50 -19 105z" />
<glyph unicode="n" horiz-adv-x="1005" d="M131 969h105q18 -58 18 -146q99 172 297 172q105 0 178.5 -43t101.5 -121q17 -46 21 -88.5t4 -187.5v-555h-106v563q0 114 -5 157.5t-22 78.5q-44 100 -180 100q-69 0 -130 -32t-98 -87q-55 -80 -55 -223v-557h-106v645q0 175 -3 216t-20 108z" />
<glyph unicode="o" horiz-adv-x="1009" d="M100 492q0 223 113 363t293 140q181 0 293 -141.5t112 -370.5q0 -227 -112 -367.5t-293 -140.5q-184 0 -295 141.5t-111 375.5zM211 489q0 -190 80.5 -303.5t214.5 -113.5q132 0 213.5 113.5t81.5 297.5q0 186 -81.5 301t-213.5 115q-131 0 -213 -114.5t-82 -295.5z" />
<glyph unicode="p" horiz-adv-x="1011" d="M133 969h111q9 -30 12 -56t6 -96q50 94 116 137t163 43q166 0 268 -143t102 -375q0 -230 -98 -367t-264 -137q-185 0 -287 166v-544h-108v1089q0 129 -4.5 185t-16.5 98zM258 485q0 -183 78 -298t203 -115t193.5 107t68.5 300q0 192 -71.5 307t-190.5 115 q-124 0 -202.5 -116.5t-78.5 -299.5z" />
<glyph unicode="q" horiz-adv-x="1011" d="M100 473q0 232 105 377t274 145q97 0 160.5 -41t110.5 -135q2 94 18 150h111q-12 -41 -16.5 -97t-4.5 -186v-1089h-108v544q-100 -166 -277 -166q-169 0 -271 136t-102 362zM211 473q0 -184 69.5 -292.5t188.5 -108.5q129 0 207 113.5t78 299.5q0 184 -75.5 299 t-197.5 115q-121 0 -195.5 -117.5t-74.5 -308.5z" />
<glyph unicode="r" horiz-adv-x="634" d="M139 969h101q16 -82 16 -148q0 -34 -2 -61q49 123 108.5 179t137.5 56q63 0 129 -32v-107q-82 35 -125 35q-55 0 -107.5 -43.5t-87.5 -118.5q-47 -103 -47 -301v-428h-108v623q0 152 -2.5 206t-12.5 140z" />
<glyph unicode="s" horiz-adv-x="866" d="M94 291h105q21 -219 241 -219q101 0 162.5 51.5t61.5 136.5q0 82 -60 127q-25 17 -57 29t-166 53q-139 43 -197.5 103.5t-58.5 160.5q0 117 87.5 189.5t227.5 72.5q148 0 229 -73t87 -211h-105q-10 97 -62.5 142.5t-150.5 45.5q-91 0 -146.5 -45t-55.5 -117 q0 -64 44.5 -99t178.5 -75q117 -33 172 -59t86 -60q59 -62 59 -172q0 -136 -91 -216.5t-245 -80.5q-167 0 -256.5 82t-89.5 234z" />
<glyph unicode="t" horiz-adv-x="612" d="M57 881v88h148l4 280h106l-4 -280h242v-88h-244l-10 -531q-2 -98 -2 -110q0 -99 23 -132.5t90 -33.5q70 0 139 32v-98q-79 -26 -158 -26q-111 0 -159 45t-48 149q0 29 4 103q2 37 2 77l13 525h-146z" />
<glyph unicode="u" horiz-adv-x="978" d="M150 369v600h106v-604q0 -89 7 -133.5t26 -73.5q58 -86 178 -86q137 0 207 114q26 39 36.5 90.5t10.5 135.5v557h106v-676q0 -165 3 -204t20 -89h-109q-20 64 -20 137q-41 -86 -101.5 -124t-154.5 -38q-92 0 -165.5 39t-113.5 109q-22 39 -29 89t-7 157z" />
<glyph unicode="v" horiz-adv-x="835" d="M20 969h113l285 -852l287 852h108l-342 -983h-109z" />
<glyph unicode="w" horiz-adv-x="1292" d="M33 969h112l217 -795l236 795h98l236 -795l217 795h113l-279 -983h-98l-238 821l-237 -821h-99z" />
<glyph unicode="x" horiz-adv-x="862" d="M16 0l353 514l-301 455h122l244 -371l246 371h131l-311 -455l348 -514h-129l-285 428l-291 -428h-127z" />
<glyph unicode="y" horiz-adv-x="854" d="M33 969h114l279 -830l289 830h112l-315 -887q-65 -186 -92 -247.5t-64 -113.5q-94 -129 -268 -129h-35v97h11q61 0 100 10q41 11 77.5 47t63.5 94t62 162z" />
<glyph unicode="z" horiz-adv-x="796" d="M45 0v84l582 797h-543v88h676v-76l-590 -805h573v-88h-698z" />
<glyph unicode="{" horiz-adv-x="557" d="M94 446v74q65 20 91 65.5t26 137.5v326q0 186 59 257.5t213 71.5q11 0 19 -2v-82q-114 -3 -151.5 -47t-37.5 -176v-348q0 -99 -23.5 -150t-88.5 -90q66 -40 89 -89.5t23 -149.5v-348q0 -131 38.5 -176t150.5 -46v-84h-21q-152 0 -211 72t-59 258v324q0 92 -26.5 137.5 t-90.5 64.5z" />
<glyph unicode="|" d="M459 -342v1708h106v-1708h-106z" />
<glyph unicode="}" horiz-adv-x="557" d="M55 -326q112 1 150.5 46t38.5 176v348q0 100 23 149.5t89 89.5q-65 39 -88.5 90t-23.5 150v348q0 132 -37.5 176t-151.5 47v82q8 2 19 2q149 0 213 -73q34 -40 46.5 -95t12.5 -161v-324q0 -93 26 -138t91 -67v-74q-65 -20 -91 -65t-26 -137v-324q0 -186 -59 -258 t-211 -72h-21v84z" />
<glyph unicode="~" horiz-adv-x="1366" d="M193 502q58 115 121.5 166t148.5 51q74 0 235 -80q90 -45 128.5 -58.5t76.5 -13.5q62 0 106 34t95 122l67 -41q-57 -110 -124.5 -162.5t-153.5 -52.5q-47 0 -99 19t-186 85q-97 47 -153 47q-57 0 -102.5 -36.5t-92.5 -122.5z" />
<glyph unicode="&#xa1;" horiz-adv-x="507" d="M147 864q0 43 31.5 74t75.5 31q43 0 73.5 -31t30.5 -74q0 -44 -31 -75t-75 -31q-43 0 -74 31t-31 75zM195 -397l22 981h82l14 -981h-118z" />
<glyph unicode="&#xa2;" horiz-adv-x="1064" d="M174 674q0 209 87.5 346t244.5 172v207h67v-203q143 -3 231 -96.5t89 -245.5h-109q-9 238 -211 244v-830q95 5 154 73t68 185h110q-5 -151 -99 -252t-233 -102v-217h-67v219q-155 23 -243.5 156.5t-88.5 343.5zM283 678q0 -109 32.5 -201.5t90.5 -150.5q39 -37 100 -52 v818q-103 -32 -163 -144t-60 -270z" />
<glyph unicode="&#xa3;" horiz-adv-x="1064" d="M117 643v100h225q38 254 72 392q32 135 94.5 194.5t171.5 59.5q70 0 123.5 -27.5t79.5 -77.5q22 -41 28 -151h-106q-7 81 -25 106q-30 47 -102 47q-69 0 -101.5 -41t-58.5 -160q-18 -79 -61 -342h303v-100h-320q-38 -223 -69.5 -343.5t-73.5 -207.5q82 14 195 14h73 q53 -2 109 -2q73 0 105 8t55 33q21 21 30.5 48.5t12.5 74.5h106q0 -132 -76 -205q-43 -40 -95.5 -51.5t-193.5 -11.5h-471q90 157 177 643h-207z" />
<glyph unicode="&#xa4;" horiz-adv-x="1366" d="M129 1206l66 66l188 -189q75 59 145.5 85t153.5 26q160 0 295 -109l190 187l66 -66l-189 -188q107 -139 107 -293t-107 -293l191 -188l-66 -66l-188 189q-140 -107 -295 -107t-299 107l-188 -189l-64 66l184 188q-106 135 -106 295q0 80 24.5 148t81.5 143zM319 725 q0 -149 107 -256t256 -107q151 0 256.5 106t105.5 257t-105 259t-253 108q-154 0 -260.5 -106.5t-106.5 -260.5z" />
<glyph unicode="&#xa5;" horiz-adv-x="1064" d="M51 1366h133l355 -674l348 674h125l-264 -512h204v-82h-247l-89 -168h336v-82h-354l2 -522h-119l4 522h-374v82h356l-92 168h-264v82h219z" />
<glyph unicode="&#xa6;" d="M459 313h106v-655h-106v655zM459 694v672h106v-672h-106z" />
<glyph unicode="&#xa7;" d="M121 -4h108q6 -60 15 -93t28 -61q64 -88 201 -88q112 0 177 59t65 160q0 96 -88 164q-56 38 -195 121q-117 70 -161 100.5t-72 61.5q-58 67 -58 149q0 77 45 134t146 108q-152 96 -152 240q0 130 95 214.5t241 84.5q154 0 245 -87.5t95 -240.5h-111q-9 120 -65.5 176.5 t-165.5 56.5q-100 0 -162.5 -54.5t-62.5 -143.5q0 -85 73 -144q26 -21 197 -118q184 -103 242 -156q63 -60 63 -160q0 -83 -42 -143t-136 -111q74 -59 105.5 -116.5t31.5 -133.5q0 -146 -93.5 -230.5t-256.5 -84.5q-172 0 -259 83t-93 253zM250 569q0 -79 102 -145 q107 -71 250 -148q71 31 111.5 83.5t40.5 113.5q0 77 -70 125q-84 59 -266 158q-168 -70 -168 -187z" />
<glyph unicode="&#xa8;" d="M240 1280q0 41 28.5 69.5t69.5 28.5q40 0 68 -28.5t28 -69.5q0 -40 -28 -68t-68 -28q-41 0 -69.5 28t-28.5 68zM588 1280q0 41 28.5 69.5t69.5 28.5q40 0 68 -28.5t28 -69.5q0 -40 -28 -68t-68 -28q-41 0 -69.5 28t-28.5 68z" />
<glyph unicode="&#xa9;" horiz-adv-x="1642" d="M117 686q0 146 56 277t151 225t227.5 149.5t279.5 55.5q187 0 348 -95.5t255 -258.5t94 -353q0 -143 -56 -273.5t-150.5 -225t-225 -150t-273.5 -55.5t-274 55.5t-225.5 150t-150.5 225t-56 273.5zM201 684q0 -128 49 -245t132.5 -202t198.5 -135.5t242 -50.5 q168 0 311 85t226.5 231.5t83.5 318.5q0 170 -83 316t-225 231.5t-307 85.5q-173 0 -317.5 -84t-227.5 -230t-83 -321zM494 694q0 192 96 308t256 116q123 0 198.5 -62t92.5 -177h-88q-20 83 -69 122t-134 39q-118 0 -187 -93t-69 -253t69 -253t187 -93q193 0 217 217h88 q-14 -143 -91.5 -219t-209.5 -76q-163 0 -259.5 115t-96.5 309z" />
<glyph unicode="&#xaa;" d="M242 578v71h526v-71h-526zM268 920q0 98 84.5 151.5t290.5 85.5v35q0 62 -31 90.5t-100 28.5q-64 0 -98 -25.5t-43 -81.5h-82q9 88 66.5 133t158.5 45q75 0 128.5 -28.5t68.5 -75.5q12 -37 12 -131v-219q0 -78 3 -106.5t15 -63.5h-79q-15 48 -17 71q-41 -50 -79.5 -69 t-98.5 -19q-89 0 -144 49.5t-55 129.5zM352 924q0 -51 32.5 -81t88.5 -30q170 0 170 219v60q-162 -31 -226.5 -68t-64.5 -100z" />
<glyph unicode="&#xab;" horiz-adv-x="706" d="M98 477l172 490h70l-150 -490l150 -477h-70zM322 477l172 490h69l-147 -490l147 -477h-69z" />
<glyph unicode="&#xac;" d="M68 449v98h886v-547h-106v449h-780z" />
<glyph unicode="&#xad;" horiz-adv-x="571" d="M0 471v88h571v-88h-571z" />
<glyph unicode="&#xae;" horiz-adv-x="1642" d="M117 686q0 146 56 277t151 225t227.5 149.5t279.5 55.5q187 0 348 -95.5t255 -258.5t94 -353q0 -143 -56 -273.5t-150.5 -225t-225 -150t-273.5 -55.5t-274 55.5t-225.5 150t-150.5 225t-56 273.5zM201 684q0 -128 49 -245t132.5 -202t198.5 -135.5t242 -50.5 q168 0 311 85t226.5 231.5t83.5 318.5q0 170 -83 316t-225 231.5t-307 85.5q-173 0 -317.5 -84t-227.5 -230t-83 -321zM590 270v820h139q155 0 232 -21q69 -22 109 -77t40 -130q0 -80 -46.5 -136.5t-133.5 -82.5l239 -373h-110l-232 359h-147v-359h-90zM680 705h51 q86 0 119 3t65 13q47 15 73 52t26 91q0 48 -22 83t-62 48q-31 12 -67.5 15.5t-129.5 3.5h-53v-309z" />
<glyph unicode="&#xaf;" d="M238 1235v94h548v-94h-548z" />
<glyph unicode="&#xb0;" d="M229 1118q0 110 84 190.5t199 80.5q117 0 200 -80.5t83 -194.5t-83 -194t-200 -80q-119 0 -201 80.5t-82 197.5zM309 1116q0 -85 59 -143t144 -58q84 0 143.5 58.5t59.5 140.5q0 83 -59 141t-144 58q-83 0 -143 -57.5t-60 -139.5z" />
<glyph unicode="&#xb1;" horiz-adv-x="1064" d="M111 78v82h841v-82h-841zM111 649v78h378v393h82v-393h381v-78h-381v-379h-82v379h-378z" />
<glyph unicode="&#xb2;" horiz-adv-x="704" d="M121 532v64q9 12 39.5 49t50.5 62l86 108q89 111 124 156t60 84t27 52t2 40q0 54 -38.5 85.5t-104.5 31.5q-76 0 -115 -43.5t-45 -135.5h-84q3 256 248 256q103 0 166 -53t63 -139q0 -54 -23.5 -98.5t-103.5 -143.5q-57 -73 -142 -180t-95 -119h378v-76h-493z" />
<glyph unicode="&#xb3;" horiz-adv-x="704" d="M86 768h80q3 -170 176 -170q85 0 132.5 44t47.5 122q0 76 -48 118t-136 42q-25 0 -45 -2v79l43 -2q70 0 111.5 38.5t41.5 101.5q0 60 -37.5 93.5t-105.5 33.5q-70 0 -107 -35.5t-46 -112.5h-82q6 109 67 166t170 57q104 0 169 -54t65 -142q0 -117 -109 -176 q141 -57 141 -201q0 -111 -73.5 -178.5t-194.5 -67.5q-127 0 -194.5 63.5t-65.5 182.5z" />
<glyph unicode="&#xb4;" d="M459 1145l196 262h170l-270 -262h-96z" />
<glyph unicode="&#xb5;" d="M113 -338v1321h106v-571q0 -114 18.5 -174.5t65.5 -106.5q79 -76 199 -76q137 0 223 109q43 56 61.5 118t18.5 152v549h106v-983h-106v197q-51 -117 -124.5 -171.5t-182.5 -54.5q-92 0 -158.5 38.5t-120.5 123.5v-471h-106z" />
<glyph unicode="&#xb6;" horiz-adv-x="1134" d="M39 999q0 99 46 182.5t126 129.5q102 55 307 55h473v-90h-114v-1481h-101v1481h-227v-1481h-100v846h-33q-166 0 -271.5 100t-105.5 258z" />
<glyph unicode="&#xb7;" horiz-adv-x="526" d="M158 512q0 44 31 75t75 31q43 0 74 -31t31 -75q0 -43 -31.5 -73.5t-75.5 -30.5q-43 0 -73.5 30.5t-30.5 73.5z" />
<glyph unicode="&#xb8;" d="M344 -324q68 -18 105 -18q51 0 80.5 24.5t29.5 65.5q0 45 -36.5 66.5t-123.5 25.5l84 160h86l-61 -121q89 -10 130.5 -45t41.5 -98q0 -71 -53 -114.5t-140 -43.5q-66 0 -143 27v71z" />
<glyph unicode="&#xb9;" horiz-adv-x="704" d="M166 1159v64q84 3 122 28t50 86h65v-805h-86v627h-151z" />
<glyph unicode="&#xba;" d="M248 578v71h526v-71h-526zM248 1063q0 142 73 230.5t191 88.5q117 0 189.5 -88.5t72.5 -230.5q0 -146 -73 -234t-193 -88q-115 0 -187.5 90.5t-72.5 231.5zM332 1063q0 -112 49 -181t127 -69q83 0 132.5 68t49.5 182q0 110 -49.5 179t-128.5 69q-82 0 -131 -67.5 t-49 -180.5z" />
<glyph unicode="&#xbb;" horiz-adv-x="706" d="M143 0l148 489l-148 478h70l172 -478l-172 -489h-70zM367 0l149 489l-149 478h69l172 -478l-172 -489h-69z" />
<glyph unicode="&#xbc;" horiz-adv-x="1654" d="M166 1159v64q84 3 122 28t50 86h65v-805h-86v627h-151zM387 0l780 1331h101l-783 -1331h-98zM1014 199v61l352 545h78v-529h145v-77h-143v-205h-88v205h-344zM1110 276h250l2 396z" />
<glyph unicode="&#xbd;" horiz-adv-x="1654" d="M166 1159v64q84 3 122 28t50 86h65v-805h-86v627h-151zM387 0l780 1331h101l-783 -1331h-98zM1071 0v63q25 29 88 113q18 20 156 197q98 125 120.5 162.5t22.5 80.5q0 53 -38.5 85t-102.5 32q-77 0 -116.5 -43t-43.5 -135h-84q3 254 246 254q103 0 166 -53.5t63 -139.5 q0 -52 -23.5 -97.5t-101.5 -143.5q-22 -27 -78.5 -98t-103.5 -130t-57 -71h379v-76h-492z" />
<glyph unicode="&#xbe;" horiz-adv-x="1654" d="M86 768h80q3 -170 176 -170q85 0 132.5 44t47.5 122q0 76 -48 118t-136 42q-25 0 -45 -2v79l43 -2q70 0 111.5 38.5t41.5 101.5q0 60 -37.5 93.5t-105.5 33.5q-70 0 -107 -35.5t-46 -112.5h-82q6 109 67 166t170 57q104 0 169 -54t65 -142q0 -117 -109 -176 q141 -57 141 -201q0 -111 -73.5 -178.5t-194.5 -67.5q-127 0 -194.5 63.5t-65.5 182.5zM387 0l780 1331h101l-783 -1331h-98zM1014 199v61l352 545h78v-529h145v-77h-143v-205h-88v205h-344zM1110 276h250l2 396z" />
<glyph unicode="&#xbf;" horiz-adv-x="839" d="M119 -121q0 78 36 141t140 164q33 31 49 47.5t32.5 40t21.5 38t10 47t5.5 60.5t0.5 85v76h110v-127q1 -129 -21.5 -182.5t-121.5 -153.5q-80 -82 -109.5 -133t-29.5 -109q0 -78 49 -123t135 -45q100 0 152.5 49.5t64.5 155.5h102q-6 -150 -90.5 -231.5t-232.5 -81.5 q-140 0 -221.5 76t-81.5 206zM365 864q0 43 31 74t75 31q43 0 73.5 -31t30.5 -74q0 -44 -31 -75t-75 -31q-43 0 -73.5 31t-30.5 75z" />
<glyph unicode="&#xc0;" horiz-adv-x="1134" d="M49 0l473 1376h90l473 -1376h-122l-134 387h-524l-135 -387h-121zM225 1759h170l264 -264h-118zM338 489h457l-228 721z" />
<glyph unicode="&#xc1;" horiz-adv-x="1134" d="M49 0l473 1376h90l473 -1376h-122l-134 387h-524l-135 -387h-121zM338 489h457l-228 721zM475 1495l264 264h170l-315 -264h-119z" />
<glyph unicode="&#xc2;" horiz-adv-x="1134" d="M49 0l473 1376h90l473 -1376h-122l-134 387h-524l-135 -387h-121zM231 1497l261 262h151l260 -262h-108l-228 189l-227 -189h-109zM338 489h457l-228 721z" />
<glyph unicode="&#xc3;" horiz-adv-x="1134" d="M49 0l473 1376h90l473 -1376h-122l-134 387h-524l-135 -387h-121zM248 1548q23 100 66.5 146.5t113.5 46.5q71 0 156 -60q64 -43 88.5 -54t52.5 -11q83 0 98 131l78 -35q-8 -65 -29 -104q-23 -43 -64.5 -69t-86.5 -26q-38 0 -74.5 15.5t-101.5 58.5q-70 49 -115 49 q-40 0 -64.5 -29t-39.5 -94zM338 489h457l-228 721z" />
<glyph unicode="&#xc4;" horiz-adv-x="1134" d="M49 0l473 1376h90l473 -1376h-122l-134 387h-524l-135 -387h-121zM283 1626q0 44 31 74.5t75 30.5q41 0 72 -31t31 -74t-31 -73.5t-74 -30.5t-73.5 30.5t-30.5 73.5zM338 489h457l-228 721zM643 1626q0 44 31.5 74.5t75.5 30.5q41 0 71.5 -31t30.5 -74t-30.5 -73.5 t-73.5 -30.5t-74 30.5t-31 73.5z" />
<glyph unicode="&#xc5;" horiz-adv-x="1134" d="M49 0l473 1376h90l473 -1376h-122l-134 387h-524l-135 -387h-121zM338 489h457l-228 721zM383 1645q0 77 54 130.5t132 53.5q75 0 129 -54.5t54 -129.5q0 -77 -54 -131t-131 -54q-75 0 -129.5 54.5t-54.5 130.5zM465 1645q0 -43 30.5 -73t71.5 -30q43 0 73 30t30 73 q0 41 -30 71.5t-71 30.5q-44 0 -74 -29.5t-30 -72.5z" />
<glyph unicode="&#xc6;" horiz-adv-x="1701" d="M47 0l772 1366h783v-102h-594v-504h546v-103h-546v-555h594v-102h-715v391h-488l-217 -391h-135zM457 494h430v774z" />
<glyph unicode="&#xc7;" horiz-adv-x="1232" d="M117 682q0 321 149 514t396 193q186 0 303 -99.5t145 -279.5h-115q-66 274 -331 274q-195 0 -307.5 -161.5t-112.5 -440.5q0 -278 112 -439t306 -161q154 0 246 94.5t112 272.5h115q-17 -217 -141.5 -345t-317.5 -127l-51 -120q186 -18 186 -158q0 -78 -56 -124t-151 -46 q-63 0 -145 25v77q63 -18 104 -18q54 0 86.5 26.5t32.5 69.5q0 47 -38 68t-130 24l76 181q-92 19 -144.5 41t-101.5 63q-109 93 -168 246.5t-59 349.5z" />
<glyph unicode="&#xc8;" horiz-adv-x="1003" d="M180 0v1366h715v-102h-598v-506h557v-103h-557v-553h606v-102h-723zM229 1759h170l265 -264h-119z" />
<glyph unicode="&#xc9;" horiz-adv-x="1003" d="M180 0v1366h715v-102h-598v-506h557v-103h-557v-553h606v-102h-723zM412 1495l264 264h170l-316 -264h-118z" />
<glyph unicode="&#xca;" horiz-adv-x="1003" d="M180 0v1366h715v-102h-598v-506h557v-103h-557v-553h606v-102h-723zM205 1497l262 262h151l261 -262h-109l-227 189l-228 -189h-110z" />
<glyph unicode="&#xcb;" horiz-adv-x="1003" d="M180 0v1366h715v-102h-598v-506h557v-103h-557v-553h606v-102h-723zM258 1626q0 43 31.5 74t75.5 31q41 0 71.5 -31t30.5 -74t-31 -73.5t-74 -30.5t-73.5 30.5t-30.5 73.5zM616 1626q0 43 31.5 74t75.5 31q41 0 71.5 -31t30.5 -74t-30.5 -73.5t-73.5 -30.5t-74 30.5 t-31 73.5z" />
<glyph unicode="&#xcc;" horiz-adv-x="475" d="M-47 1759h164l209 -264h-113zM178 0v1366h121v-1366h-121z" />
<glyph unicode="&#xcd;" horiz-adv-x="475" d="M150 1495l208 264h164l-260 -264h-112zM176 0v1366h121v-1366h-121z" />
<glyph unicode="&#xce;" horiz-adv-x="475" d="M-51 1497l213 262h151l213 -262h-102l-186 189l-187 -189h-102zM176 0v1366h121v-1366h-121z" />
<glyph unicode="&#xcf;" horiz-adv-x="475" d="M-2 1626q0 43 30 73t74 30q41 0 71 -31t30 -72q0 -43 -30 -72.5t-73 -29.5t-72.5 29.5t-29.5 72.5zM176 0v1366h121v-1366h-121zM270 1626q0 43 30.5 73t74.5 30q41 0 70.5 -30.5t29.5 -72.5q0 -43 -29.5 -72.5t-72.5 -29.5q-42 0 -72.5 30t-30.5 72z" />
<glyph unicode="&#xd0;" horiz-adv-x="1269" d="M43 668v96h137v602h174q217 0 313 -15.5t183 -64.5q141 -80 222 -240.5t81 -361.5q0 -212 -87.5 -374t-242.5 -240q-85 -43 -177 -56.5t-300 -13.5h-166v668h-137zM297 102h92q181 0 251.5 12.5t147.5 57.5q116 71 177 201.5t61 308.5q0 192 -69 329.5t-197 200.5 q-70 33 -143 42.5t-257 9.5h-63v-500h367v-96h-367v-566z" />
<glyph unicode="&#xd1;" horiz-adv-x="1284" d="M180 0v1366h129l688 -1196v1196h109v-1366h-135l-680 1192v-1192h-111zM330 1548q23 100 66.5 146.5t115.5 46.5q68 0 156 -60q63 -42 87 -53.5t52 -11.5q83 0 98 131l78 -35q-8 -65 -29 -104q-22 -43 -63.5 -69t-87.5 -26q-36 0 -72.5 15.5t-103.5 58.5q-70 49 -115 49 q-40 0 -64.5 -29t-39.5 -94z" />
<glyph unicode="&#xd2;" horiz-adv-x="1304" d="M117 684q0 207 67 367.5t189 249t280 88.5q157 0 279 -88.5t190 -248.5t68 -366q0 -321 -148.5 -515t-394.5 -194q-155 0 -275.5 89.5t-187.5 250.5t-67 367zM244 684q0 -269 111.5 -435.5t291.5 -166.5q191 0 303.5 163.5t112.5 440.5q0 269 -113 433.5t-297 164.5 t-296.5 -165t-112.5 -435zM354 1759h170l264 -264h-118z" />
<glyph unicode="&#xd3;" horiz-adv-x="1304" d="M117 684q0 207 67 367.5t189 249t280 88.5q157 0 279 -88.5t190 -248.5t68 -366q0 -321 -148.5 -515t-394.5 -194q-155 0 -275.5 89.5t-187.5 250.5t-67 367zM244 684q0 -269 111.5 -435.5t291.5 -166.5q191 0 303.5 163.5t112.5 440.5q0 269 -113 433.5t-297 164.5 t-296.5 -165t-112.5 -435zM522 1495l264 264h170l-315 -264h-119z" />
<glyph unicode="&#xd4;" horiz-adv-x="1304" d="M117 684q0 207 67 367.5t189 249t280 88.5q157 0 279 -88.5t190 -248.5t68 -366q0 -321 -148.5 -515t-394.5 -194q-155 0 -275.5 89.5t-187.5 250.5t-67 367zM244 684q0 -269 111.5 -435.5t291.5 -166.5q191 0 303.5 163.5t112.5 440.5q0 269 -113 433.5t-297 164.5 t-296.5 -165t-112.5 -435zM317 1497l261 262h151l260 -262h-108l-228 189l-227 -189h-109z" />
<glyph unicode="&#xd5;" horiz-adv-x="1304" d="M117 684q0 207 67 367.5t189 249t280 88.5q157 0 279 -88.5t190 -248.5t68 -366q0 -321 -148.5 -515t-394.5 -194q-155 0 -275.5 89.5t-187.5 250.5t-67 367zM244 684q0 -269 111.5 -435.5t291.5 -166.5q191 0 303.5 163.5t112.5 440.5q0 269 -113 433.5t-297 164.5 t-296.5 -165t-112.5 -435zM340 1548q23 100 66.5 146.5t115.5 46.5q68 0 156 -60q63 -42 87 -53.5t52 -11.5q83 0 98 131l78 -35q-8 -68 -28 -104q-22 -43 -64 -69t-88 -26q-36 0 -72.5 15.5t-103.5 58.5q-70 49 -115 49q-40 0 -64.5 -29t-39.5 -94z" />
<glyph unicode="&#xd6;" horiz-adv-x="1304" d="M117 684q0 207 67 367.5t189 249t280 88.5q157 0 279 -88.5t190 -248.5t68 -366q0 -321 -148.5 -515t-394.5 -194q-155 0 -275.5 89.5t-187.5 250.5t-67 367zM244 684q0 -269 111.5 -435.5t291.5 -166.5q191 0 303.5 163.5t112.5 440.5q0 269 -113 433.5t-297 164.5 t-296.5 -165t-112.5 -435zM369 1626q0 44 31 74.5t75 30.5q41 0 72 -31t31 -74t-31 -73.5t-74 -30.5t-73.5 30.5t-30.5 73.5zM729 1626q0 44 31.5 74.5t75.5 30.5q41 0 71.5 -31t30.5 -74t-30.5 -73.5t-73.5 -30.5t-74 30.5t-31 73.5z" />
<glyph unicode="&#xd7;" horiz-adv-x="1064" d="M182 395l293 293l-293 293l60 59l293 -295l292 293l56 -57l-291 -291l293 -295l-60 -57l-293 293l-292 -293z" />
<glyph unicode="&#xd8;" horiz-adv-x="1304" d="M117 662q0 213 68.5 378.5t193 257t283.5 91.5q181 0 325 -129l72 106h100l-112 -170q143 -195 143 -494q0 -321 -152 -523t-393 -202q-190 0 -328 129l-71 -106h-101l115 170q-143 200 -143 492zM244 657q0 -216 86 -381l594 889q-110 119 -262 119 q-187 0 -302.5 -173.5t-115.5 -453.5zM381 203q109 -121 264 -121q187 0 302.5 174t115.5 455q0 221 -88 379z" />
<glyph unicode="&#xd9;" horiz-adv-x="1245" d="M160 453v100v813h116v-811q2 -185 10 -242t42 -104q40 -60 118 -93.5t177 -33.5q110 0 193 41t120 113q23 43 28 94.5t7 224.5v811h116v-813q0 -171 -4 -219.5t-22 -100.5q-43 -121 -158.5 -188.5t-279.5 -67.5q-147 0 -255 54.5t-161 154.5q-26 51 -36.5 110t-10.5 157z M319 1759h170l265 -264h-119z" />
<glyph unicode="&#xda;" horiz-adv-x="1245" d="M160 453v100v813h116v-811q2 -185 10 -242t42 -104q40 -60 118 -93.5t177 -33.5q110 0 193 41t120 113q23 43 28 94.5t7 224.5v811h116v-813q0 -171 -4 -219.5t-22 -100.5q-43 -121 -158.5 -188.5t-279.5 -67.5q-147 0 -255 54.5t-161 154.5q-26 51 -36.5 110t-10.5 157z M492 1495l264 264h170l-316 -264h-118z" />
<glyph unicode="&#xdb;" horiz-adv-x="1245" d="M160 453v100v813h116v-811q2 -185 10 -242t42 -104q40 -60 118 -93.5t177 -33.5q110 0 193 41t120 113q23 43 28 94.5t7 224.5v811h116v-813q0 -171 -4 -219.5t-22 -100.5q-43 -121 -158.5 -188.5t-279.5 -67.5q-147 0 -255 54.5t-161 154.5q-26 51 -36.5 110t-10.5 157z M287 1497l260 262h153l261 -262h-111l-227 189l-226 -189h-110z" />
<glyph unicode="&#xdc;" horiz-adv-x="1245" d="M160 453v100v813h116v-811q2 -185 10 -242t42 -104q40 -60 118 -93.5t177 -33.5q110 0 193 41t120 113q23 43 28 94.5t7 224.5v811h116v-813q0 -171 -4 -219.5t-22 -100.5q-43 -121 -158.5 -188.5t-279.5 -67.5q-147 0 -255 54.5t-161 154.5q-26 51 -36.5 110t-10.5 157z M338 1626q0 44 31 74.5t75 30.5q41 0 72 -31t31 -74t-31 -73.5t-74 -30.5t-73.5 30.5t-30.5 73.5zM698 1626q0 44 31.5 74.5t75.5 30.5q41 0 71.5 -31t30.5 -74t-30.5 -73.5t-73.5 -30.5t-74 30.5t-31 73.5z" />
<glyph unicode="&#xdd;" horiz-adv-x="1013" d="M33 1366h137l340 -670l336 670h137l-420 -780l2 -586h-114l2 586zM377 1495l264 264h170l-315 -264h-119z" />
<glyph unicode="&#xde;" horiz-adv-x="1050" d="M180 0v1366h117v-160h78q155 0 233 -7.5t140 -27.5q110 -37 173.5 -135.5t63.5 -230.5q0 -120 -51 -209.5t-143 -132.5q-66 -29 -143.5 -39t-244.5 -10h-106v-414h-117zM297 516h102q109 0 156.5 3.5t101.5 15.5q99 20 150 89t51 183q0 97 -41 166.5t-115 97.5 q-53 22 -112 27.5t-219 5.5h-74v-588z" />
<glyph unicode="&#xdf;" horiz-adv-x="1009" d="M147 0v874q0 164 9 231t37 120q38 72 115 112.5t177 40.5q149 0 242.5 -88.5t93.5 -230.5q0 -219 -246 -287q164 -28 249 -126t85 -259q0 -175 -98.5 -288t-249.5 -113q-71 0 -147 32v101q73 -37 147 -37q104 0 170 85t66 220q0 164 -107 250.5t-313 89.5v92q18 -2 43 -2 q138 0 214.5 62t76.5 174q0 104 -62 166.5t-166 62.5q-73 0 -125 -30t-75 -85q-19 -48 -24 -97t-5 -196v-874h-107z" />
<glyph unicode="&#xe0;" horiz-adv-x="948" d="M100 254q0 158 132.5 243t457.5 134v51q0 118 -49 167.5t-166 49.5q-202 0 -231 -172h-111q13 130 101.5 199t242.5 69q115 0 195.5 -44.5t105.5 -119.5q19 -61 19 -208v-355q0 -131 3.5 -173t20.5 -95h-106q-18 63 -25 137q-88 -162 -287 -162q-137 0 -220 76.5 t-83 202.5zM213 256q0 -82 55.5 -133t145.5 -51q74 0 134 32.5t95 90.5q47 73 47 241v111q-265 -52 -371 -117t-106 -174zM229 1407h170l197 -262h-96z" />
<glyph unicode="&#xe1;" horiz-adv-x="948" d="M100 254q0 158 132.5 243t457.5 134v51q0 118 -49 167.5t-166 49.5q-202 0 -231 -172h-111q13 130 101.5 199t242.5 69q115 0 195.5 -44.5t105.5 -119.5q19 -61 19 -208v-355q0 -131 3.5 -173t20.5 -95h-106q-18 63 -25 137q-88 -162 -287 -162q-137 0 -220 76.5 t-83 202.5zM213 256q0 -82 55.5 -133t145.5 -51q74 0 134 32.5t95 90.5q47 73 47 241v111q-265 -52 -371 -117t-106 -174zM371 1145l196 262h170l-270 -262h-96z" />
<glyph unicode="&#xe2;" horiz-adv-x="948" d="M100 254q0 158 132.5 243t457.5 134v51q0 118 -49 167.5t-166 49.5q-202 0 -231 -172h-111q13 130 101.5 199t242.5 69q115 0 195.5 -44.5t105.5 -119.5q19 -61 19 -208v-355q0 -131 3.5 -173t20.5 -95h-106q-18 63 -25 137q-88 -162 -287 -162q-137 0 -220 76.5 t-83 202.5zM182 1145l226 278h151l227 -278h-110l-193 198l-192 -198h-109zM213 256q0 -82 55.5 -133t145.5 -51q74 0 134 32.5t95 90.5q47 73 47 241v111q-265 -52 -371 -117t-106 -174z" />
<glyph unicode="&#xe3;" horiz-adv-x="948" d="M100 254q0 158 132.5 243t457.5 134v51q0 118 -49 167.5t-166 49.5q-202 0 -231 -172h-111q13 130 101.5 199t242.5 69q115 0 195.5 -44.5t105.5 -119.5q19 -61 19 -208v-355q0 -131 3.5 -173t20.5 -95h-106q-18 63 -25 137q-88 -162 -287 -162q-137 0 -220 76.5 t-83 202.5zM178 1180q35 211 170 211q62 0 139 -60q51 -38 77.5 -51.5t49.5 -13.5q34 0 57.5 34t30.5 97l80 -19q-10 -101 -55 -159t-111 -58q-62 0 -151 66q-47 35 -72 48t-47 13q-66 0 -92 -125zM213 256q0 -82 55.5 -133t145.5 -51q74 0 134 32.5t95 90.5q47 73 47 241 v111q-265 -52 -371 -117t-106 -174z" />
<glyph unicode="&#xe4;" horiz-adv-x="948" d="M100 254q0 158 132.5 243t457.5 134v51q0 118 -49 167.5t-166 49.5q-202 0 -231 -172h-111q13 130 101.5 199t242.5 69q115 0 195.5 -44.5t105.5 -119.5q19 -61 19 -208v-355q0 -131 3.5 -173t20.5 -95h-106q-18 63 -25 137q-88 -162 -287 -162q-137 0 -220 76.5 t-83 202.5zM209 1280q0 41 28.5 69.5t69.5 28.5q40 0 68 -28.5t28 -69.5q0 -40 -28 -68t-68 -28q-41 0 -69.5 28t-28.5 68zM213 256q0 -82 55.5 -133t145.5 -51q74 0 134 32.5t95 90.5q47 73 47 241v111q-265 -52 -371 -117t-106 -174zM559 1280q0 41 28.5 69.5t69.5 28.5 q40 0 68.5 -28.5t28.5 -69.5q0 -40 -28.5 -68t-68.5 -28q-41 0 -69.5 28t-28.5 68z" />
<glyph unicode="&#xe5;" horiz-adv-x="948" d="M100 254q0 158 132.5 243t457.5 134v51q0 118 -49 167.5t-166 49.5q-202 0 -231 -172h-111q13 130 101.5 199t242.5 69q115 0 195.5 -44.5t105.5 -119.5q19 -61 19 -208v-355q0 -131 3.5 -173t20.5 -95h-106q-18 63 -25 137q-88 -162 -287 -162q-137 0 -220 76.5 t-83 202.5zM213 256q0 -82 55.5 -133t145.5 -51q74 0 134 32.5t95 90.5q47 73 47 241v111q-265 -52 -371 -117t-106 -174zM297 1296q0 77 54 131t132 54q75 0 129 -55t54 -130q0 -76 -54 -130t-131 -54q-75 0 -129.5 54t-54.5 130zM379 1296q0 -43 29.5 -72.5t72.5 -29.5 t73 29.5t30 72.5q0 41 -30 72t-71 31q-44 0 -74 -30t-30 -73z" />
<glyph unicode="&#xe6;" horiz-adv-x="1546" d="M100 236q0 91 57.5 164.5t157.5 111.5q73 29 154.5 41t206.5 12v68q0 86 -6 126t-23 66q-49 74 -172 74q-194 0 -246 -180h-100q22 130 113.5 203t232.5 73q123 0 198 -46.5t97 -135.5q104 182 303 182q171 0 273 -131t102 -352q0 -21 -2 -35h-658q3 -178 60 -270 q39 -66 102 -100.5t140 -34.5q162 0 239 159l103 -18q-34 -111 -125 -174.5t-217 -63.5q-119 0 -210.5 56t-138.5 157q-63 -112 -142.5 -162.5t-195.5 -50.5q-134 0 -218.5 73t-84.5 188zM211 238q0 -75 55 -120.5t144 -45.5q72 0 132 32.5t95 92.5q39 68 39 196v84 q-227 2 -346 -59.5t-119 -179.5zM793 565h530q-3 157 -70.5 245.5t-183.5 88.5q-110 0 -184.5 -90t-91.5 -244z" />
<glyph unicode="&#xe7;" horiz-adv-x="956" d="M100 481q0 232 111 373t293 141q148 0 237.5 -89.5t104.5 -250.5h-107q-19 119 -80 181.5t-159 62.5q-131 0 -210 -114.5t-79 -303.5q0 -186 80.5 -297.5t214.5 -111.5q101 0 164 67.5t75 188.5h111q-15 -164 -99.5 -255t-230.5 -98l-41 -96q89 -10 130.5 -45t41.5 -98 q0 -71 -52.5 -114.5t-139.5 -43.5q-69 0 -143 29v69q71 -18 104 -18q51 0 81 24.5t30 67.5q0 44 -36 65t-124 27l69 138q-170 34 -258 160.5t-88 340.5z" />
<glyph unicode="&#xe8;" horiz-adv-x="974" d="M100 473q0 238 108.5 380t289.5 142q172 0 274 -132t102 -353v-37h-661q4 -196 79.5 -298.5t215.5 -102.5q85 0 139 36.5t98 122.5l105 -18q-89 -238 -342 -238q-189 0 -298.5 133.5t-109.5 364.5zM215 561h545q-9 160 -79 249t-187 89q-115 0 -187.5 -88t-91.5 -250z M250 1407h170l196 -262h-96z" />
<glyph unicode="&#xe9;" horiz-adv-x="974" d="M100 473q0 238 108.5 380t289.5 142q172 0 274 -132t102 -353v-37h-661q4 -196 79.5 -298.5t215.5 -102.5q85 0 139 36.5t98 122.5l105 -18q-89 -238 -342 -238q-189 0 -298.5 133.5t-109.5 364.5zM215 561h545q-9 160 -79 249t-187 89q-115 0 -187.5 -88t-91.5 -250z M393 1145l195 262h172l-271 -262h-96z" />
<glyph unicode="&#xea;" horiz-adv-x="974" d="M100 473q0 238 108.5 380t289.5 142q172 0 274 -132t102 -353v-37h-661q4 -196 79.5 -298.5t215.5 -102.5q85 0 139 36.5t98 122.5l105 -18q-89 -238 -342 -238q-189 0 -298.5 133.5t-109.5 364.5zM205 1145l227 278h152l227 -278h-111l-192 198l-193 -198h-110zM215 561 h545q-9 160 -79 249t-187 89q-115 0 -187.5 -88t-91.5 -250z" />
<glyph unicode="&#xeb;" horiz-adv-x="974" d="M100 473q0 238 108.5 380t289.5 142q172 0 274 -132t102 -353v-37h-661q4 -196 79.5 -298.5t215.5 -102.5q85 0 139 36.5t98 122.5l105 -18q-89 -238 -342 -238q-189 0 -298.5 133.5t-109.5 364.5zM215 561h545q-9 160 -79 249t-187 89q-115 0 -187.5 -88t-91.5 -250z M238 1280q0 41 28.5 69.5t69.5 28.5q40 0 68 -28.5t28 -69.5q0 -40 -28 -68t-68 -28q-41 0 -69.5 28t-28.5 68zM586 1280q0 41 28.5 69.5t69.5 28.5q40 0 68 -28.5t28 -69.5q0 -40 -28 -68t-68 -28q-41 0 -69.5 28t-28.5 68z" />
<glyph unicode="&#xec;" horiz-adv-x="423" d="M-25 1407h164l148 -262h-90zM154 0v969h116v-969h-116z" />
<glyph unicode="&#xed;" horiz-adv-x="423" d="M137 1145l148 262h164l-222 -262h-90zM154 0v969h116v-969h-116z" />
<glyph unicode="&#xee;" horiz-adv-x="423" d="M-43 1145l178 278h152l180 -278h-102l-154 198l-152 -198h-102zM154 0v969h116v-969h-116z" />
<glyph unicode="&#xef;" horiz-adv-x="423" d="M-14 1282q0 40 28.5 68t69.5 28q38 0 66 -28t28 -68t-28 -68t-68 -28t-68 28t-28 68zM154 0v969h116v-969h-116zM248 1282q0 40 28.5 68t69.5 28q38 0 66 -28t28 -68t-28 -68t-68 -28t-68 28t-28 68z" />
<glyph unicode="&#xf0;" horiz-adv-x="1009" d="M100 481q0 126 37.5 232t104.5 172q51 51 119.5 80.5t136.5 29.5q51 0 108 -22l-127 170l-151 -90l-47 75l153 86l-86 119l72 41l98 -112l154 90l43 -76l-146 -82q10 -14 81 -105.5t93 -119.5q91 -117 129.5 -225.5t38.5 -245.5q0 -235 -110.5 -379t-292.5 -144t-295 140 t-113 366zM211 483q0 -186 81.5 -298.5t215.5 -112.5q131 0 212 113t81 296q0 99 -27 187t-74 147q-69 84 -182 84q-142 0 -224.5 -112t-82.5 -304z" />
<glyph unicode="&#xf1;" horiz-adv-x="1005" d="M131 969h105q18 -58 18 -146q99 172 297 172q105 0 178.5 -43t101.5 -121q17 -46 21 -88.5t4 -187.5v-555h-106v563q0 114 -5 157.5t-22 78.5q-44 100 -180 100q-69 0 -130 -32t-98 -87q-55 -80 -55 -223v-557h-106v645q0 175 -3 216t-20 108zM180 1180q35 211 170 211 q62 0 139 -60q51 -38 77.5 -51.5t49.5 -13.5q34 0 58 34.5t31 96.5l79 -19q-10 -101 -55 -159t-111 -58q-62 0 -151 66q-47 35 -72 48t-47 13q-69 0 -92 -125z" />
<glyph unicode="&#xf2;" horiz-adv-x="1009" d="M100 492q0 223 113 363t293 140q181 0 293 -141.5t112 -370.5q0 -227 -112 -367.5t-293 -140.5q-184 0 -295 141.5t-111 375.5zM211 489q0 -190 80.5 -303.5t214.5 -113.5q132 0 213.5 113.5t81.5 297.5q0 186 -81.5 301t-213.5 115q-131 0 -213 -114.5t-82 -295.5z M246 1407h172l194 -262h-96z" />
<glyph unicode="&#xf3;" horiz-adv-x="1009" d="M100 492q0 223 113 363t293 140q181 0 293 -141.5t112 -370.5q0 -227 -112 -367.5t-293 -140.5q-184 0 -295 141.5t-111 375.5zM211 489q0 -190 80.5 -303.5t214.5 -113.5q132 0 213.5 113.5t81.5 297.5q0 186 -81.5 301t-213.5 115q-131 0 -213 -114.5t-82 -295.5z M403 1145l197 262h170l-270 -262h-97z" />
<glyph unicode="&#xf4;" horiz-adv-x="1009" d="M100 492q0 223 113 363t293 140q181 0 293 -141.5t112 -370.5q0 -227 -112 -367.5t-293 -140.5q-184 0 -295 141.5t-111 375.5zM203 1145l227 278h152l225 -278h-109l-192 198l-193 -198h-110zM211 489q0 -190 80.5 -303.5t214.5 -113.5q132 0 213.5 113.5t81.5 297.5 q0 186 -81.5 301t-213.5 115q-131 0 -213 -114.5t-82 -295.5z" />
<glyph unicode="&#xf5;" horiz-adv-x="1009" d="M100 492q0 223 113 363t293 140q181 0 293 -141.5t112 -370.5q0 -227 -112 -367.5t-293 -140.5q-184 0 -295 141.5t-111 375.5zM211 489q0 -190 80.5 -303.5t214.5 -113.5q132 0 213.5 113.5t81.5 297.5q0 186 -81.5 301t-213.5 115q-131 0 -213 -114.5t-82 -295.5z M219 1180q38 211 170 211q62 0 139 -60q53 -39 78.5 -52t48.5 -13q34 0 57.5 34t30.5 97l80 -19q-11 -101 -55 -159t-111 -58q-62 0 -151 66q-79 61 -119 61q-66 0 -92 -125z" />
<glyph unicode="&#xf6;" horiz-adv-x="1009" d="M100 492q0 223 113 363t293 140q181 0 293 -141.5t112 -370.5q0 -227 -112 -367.5t-293 -140.5q-184 0 -295 141.5t-111 375.5zM211 489q0 -190 80.5 -303.5t214.5 -113.5q132 0 213.5 113.5t81.5 297.5q0 186 -81.5 301t-213.5 115q-131 0 -213 -114.5t-82 -295.5z M233 1280q0 41 29 69.5t70 28.5q40 0 68 -28.5t28 -69.5q0 -40 -28 -68t-68 -28q-41 0 -70 28t-29 68zM582 1280q0 41 28.5 69.5t69.5 28.5q40 0 68 -28.5t28 -69.5q0 -40 -28 -68t-68 -28q-41 0 -69.5 28t-28.5 68z" />
<glyph unicode="&#xf7;" horiz-adv-x="1064" d="M111 647v82h841v-82h-841zM446 412q0 35 25.5 60.5t60.5 25.5q34 0 59 -25.5t25 -60.5q0 -34 -25.5 -59t-60.5 -25q-34 0 -59 25t-25 59zM446 952q0 37 24.5 61.5t61.5 24.5q34 0 59 -25.5t25 -60.5q0 -34 -25.5 -59t-60.5 -25q-34 0 -59 25t-25 59z" />
<glyph unicode="&#xf8;" horiz-adv-x="1009" d="M80 0l110 139q-90 143 -90 334q0 230 114 376t294 146q158 0 268 -110l64 82h90l-109 -140q90 -137 90 -331q0 -232 -114 -376.5t-297 -144.5q-154 0 -262 105l-62 -80h-96zM211 465q0 -132 49 -236l451 572q-82 98 -201 98q-134 0 -216.5 -119.5t-82.5 -314.5zM303 162 q75 -90 197 -90q135 0 218 118t83 310q0 136 -49 237z" />
<glyph unicode="&#xf9;" horiz-adv-x="978" d="M150 369v600h106v-604q0 -89 7 -133.5t26 -73.5q58 -86 178 -86q137 0 207 114q26 39 36.5 90.5t10.5 135.5v557h106v-676q0 -165 3 -204t20 -89h-109q-20 64 -20 137q-41 -86 -101.5 -124t-154.5 -38q-92 0 -165.5 39t-113.5 109q-22 39 -29 89t-7 157zM233 1407h170 l197 -262h-96z" />
<glyph unicode="&#xfa;" horiz-adv-x="978" d="M150 369v600h106v-604q0 -89 7 -133.5t26 -73.5q58 -86 178 -86q137 0 207 114q26 39 36.5 90.5t10.5 135.5v557h106v-676q0 -165 3 -204t20 -89h-109q-20 64 -20 137q-41 -86 -101.5 -124t-154.5 -38q-92 0 -165.5 39t-113.5 109q-22 39 -29 89t-7 157zM377 1145 l196 262h170l-270 -262h-96z" />
<glyph unicode="&#xfb;" horiz-adv-x="978" d="M150 369v600h106v-604q0 -89 7 -133.5t26 -73.5q58 -86 178 -86q137 0 207 114q26 39 36.5 90.5t10.5 135.5v557h106v-676q0 -165 3 -204t20 -89h-109q-20 64 -20 137q-41 -86 -101.5 -124t-154.5 -38q-92 0 -165.5 39t-113.5 109q-22 39 -29 89t-7 157zM188 1145 l228 278h151l226 -278h-109l-192 198l-195 -198h-109z" />
<glyph unicode="&#xfc;" horiz-adv-x="978" d="M150 369v600h106v-604q0 -89 7 -133.5t26 -73.5q58 -86 178 -86q137 0 207 114q26 39 36.5 90.5t10.5 135.5v557h106v-676q0 -165 3 -204t20 -89h-109q-20 64 -20 137q-41 -86 -101.5 -124t-154.5 -38q-92 0 -165.5 39t-113.5 109q-22 39 -29 89t-7 157zM217 1280 q0 41 28.5 69.5t69.5 28.5q40 0 68.5 -28.5t28.5 -69.5q0 -40 -28.5 -68t-68.5 -28q-41 0 -69.5 28t-28.5 68zM565 1280q0 41 29 69.5t70 28.5q40 0 68 -28.5t28 -69.5q0 -40 -28 -68t-68 -28q-41 0 -70 28t-29 68z" />
<glyph unicode="&#xfd;" horiz-adv-x="854" d="M33 969h114l279 -830l289 830h112l-315 -887q-65 -186 -92 -247.5t-64 -113.5q-94 -129 -268 -129h-35v97q69 -1 110.5 10t78 47t63.5 94t62 162zM322 1145l196 262h170l-270 -262h-96z" />
<glyph unicode="&#xfe;" horiz-adv-x="1011" d="M154 -403v1773h106v-553q55 98 119 139t158 41q170 0 273 -142t103 -376q0 -230 -99.5 -367t-266.5 -137q-183 0 -287 168v-546h-106zM258 485q0 -184 78 -298.5t203 -114.5q124 0 194 107t70 298q0 194 -72.5 309t-193.5 115q-126 0 -202.5 -113.5t-76.5 -302.5z" />
<glyph unicode="&#xff;" horiz-adv-x="854" d="M33 969h114l279 -830l289 830h112l-315 -887q-65 -186 -92 -247.5t-64 -113.5q-94 -129 -268 -129h-35v97q69 -1 110.5 10t78 47t63.5 94t62 162zM160 1280q0 41 28.5 69.5t69.5 28.5q40 0 68 -28.5t28 -69.5q0 -40 -28 -68t-68 -28q-41 0 -69.5 28t-28.5 68zM508 1280 q0 41 28.5 69.5t69.5 28.5q40 0 68 -28.5t28 -69.5q0 -40 -28 -68t-68 -28q-41 0 -69.5 28t-28.5 68z" />
<glyph unicode="&#x152;" horiz-adv-x="1880" d="M117 678q0 324 150 517.5t401 193.5q126 0 220.5 -53t178.5 -169v199h705v-102h-590v-506h551v-103h-549v-553h598v-102h-715v201q-78 -115 -174.5 -169.5t-224.5 -54.5q-250 0 -400.5 192t-150.5 509zM244 690q0 -281 112.5 -444.5t305.5 -163.5q185 0 294 162.5 t109 437.5q0 276 -111 439t-299 163q-186 0 -298.5 -163.5t-112.5 -430.5z" />
<glyph unicode="&#x153;" horiz-adv-x="1662" d="M100 483q0 229 113.5 370.5t296.5 141.5q116 0 197.5 -57t138.5 -180q52 115 140 176t202 61q167 0 272 -130t105 -337q0 -7 -4 -65h-654q6 -191 81.5 -291t213.5 -100q174 0 242 161l102 -18q-93 -240 -344 -240q-242 0 -358 232q-62 -120 -143 -176t-195 -56 q-182 0 -294 140.5t-112 367.5zM213 483q0 -184 80 -297.5t211 -113.5q128 0 205 113t77 300q0 185 -77 299.5t-201 114.5q-134 0 -214.5 -113.5t-80.5 -302.5zM907 551h533q-2 161 -71 254.5t-187 93.5q-114 0 -186 -91t-89 -257z" />
<glyph unicode="&#x178;" horiz-adv-x="1013" d="M33 1366h137l340 -670l336 670h137l-420 -780l2 -586h-114l2 586zM223 1626q0 44 31.5 74.5t75.5 30.5q41 0 71.5 -31t30.5 -74t-30.5 -73.5t-73.5 -30.5t-74 30.5t-31 73.5zM584 1626q0 44 31 74.5t75 30.5q41 0 72 -31t31 -74t-31 -73.5t-74 -30.5t-73.5 30.5 t-30.5 73.5z" />
<glyph unicode="&#x2c6;" d="M209 1145l227 278h152l225 -278h-108l-193 198l-195 -198h-108z" />
<glyph unicode="&#x2dc;" d="M211 1180q35 211 170 211q59 0 139 -60q52 -39 77.5 -52t49.5 -13q34 0 57.5 34t30.5 97l80 -19q-10 -101 -55 -159t-111 -58q-64 0 -151 66q-47 35 -72 48t-47 13q-69 0 -92 -125z" />
<glyph unicode="&#x2000;" horiz-adv-x="914" />
<glyph unicode="&#x2001;" horiz-adv-x="1829" />
<glyph unicode="&#x2002;" horiz-adv-x="914" />
<glyph unicode="&#x2003;" horiz-adv-x="1829" />
<glyph unicode="&#x2004;" horiz-adv-x="609" />
<glyph unicode="&#x2005;" horiz-adv-x="457" />
<glyph unicode="&#x2006;" horiz-adv-x="304" />
<glyph unicode="&#x2007;" horiz-adv-x="304" />
<glyph unicode="&#x2008;" horiz-adv-x="228" />
<glyph unicode="&#x2009;" horiz-adv-x="365" />
<glyph unicode="&#x200a;" horiz-adv-x="101" />
<glyph unicode="&#x2010;" horiz-adv-x="571" d="M0 471v88h571v-88h-571z" />
<glyph unicode="&#x2011;" horiz-adv-x="571" d="M0 471v88h571v-88h-571z" />
<glyph unicode="&#x2012;" horiz-adv-x="571" d="M0 471v88h571v-88h-571z" />
<glyph unicode="&#x2013;" d="M160 471v88h702v-88h-702z" />
<glyph unicode="&#x2014;" horiz-adv-x="1138" d="M0 471v88h1139v-88h-1139z" />
<glyph unicode="&#x2018;" horiz-adv-x="479" d="M127 1077q0 144 145 312h129q-143 -131 -159 -242q8 2 18 2q40 0 69 -30.5t29 -71.5q0 -46 -32.5 -77.5t-79.5 -31.5q-53 0 -86 38t-33 101z" />
<glyph unicode="&#x2019;" horiz-adv-x="479" d="M78 938q66 60 109.5 124.5t50.5 115.5h-21q-38 0 -67 30.5t-29 71.5q0 46 32.5 77.5t79.5 31.5q53 0 86 -38.5t33 -101.5q0 -147 -145 -311h-129z" />
<glyph unicode="&#x201a;" horiz-adv-x="479" d="M78 -244q145 135 160 240h-19q-40 0 -69 30.5t-29 71.5q0 45 32.5 77t79.5 32q53 0 86 -38t33 -99q0 -144 -145 -314h-129z" />
<glyph unicode="&#x201c;" horiz-adv-x="786" d="M127 1077q0 144 145 312h129q-143 -131 -159 -242q8 2 18 2q40 0 69 -30.5t29 -71.5q0 -46 -32.5 -77.5t-79.5 -31.5q-53 0 -86 38t-33 101zM434 1077q0 143 146 312h129q-144 -132 -160 -242q8 2 18 2q40 0 69.5 -30.5t29.5 -71.5q0 -46 -33 -77.5t-80 -31.5 q-53 0 -86 38t-33 101z" />
<glyph unicode="&#x201d;" horiz-adv-x="815" d="M78 938q66 60 109.5 124.5t50.5 115.5h-21q-38 0 -67 30.5t-29 71.5q0 46 32.5 77.5t79.5 31.5q53 0 86 -38.5t33 -101.5q0 -147 -145 -311h-129zM412 938q66 60 109 124.5t50 115.5h-18q-40 0 -69 30.5t-29 71.5q0 46 32.5 77.5t79.5 31.5q53 0 86 -38.5t33 -101.5 q0 -147 -145 -311h-129z" />
<glyph unicode="&#x201e;" horiz-adv-x="815" d="M78 -244q145 135 160 240h-19q-40 0 -69 30.5t-29 71.5q0 45 32.5 77t79.5 32q53 0 86 -38t33 -99q0 -144 -145 -314h-129zM412 -244q68 62 109.5 125.5t49.5 114.5h-18q-40 0 -69 30.5t-29 71.5q0 45 32.5 77t79.5 32q53 0 86 -38t33 -99q0 -144 -145 -314h-129z" />
<glyph unicode="&#x2022;" horiz-adv-x="1366" d="M401 692q0 120 83.5 202.5t205.5 82.5q114 0 196.5 -83.5t82.5 -199.5q0 -118 -83 -201t-200 -83t-201 82.5t-84 199.5z" />
<glyph unicode="&#x2026;" horiz-adv-x="1402" d="M158 82q0 44 31 75t75 31q43 0 74 -31t31 -75q0 -43 -31.5 -74t-75.5 -31q-43 0 -73.5 31t-30.5 74zM596 82q0 44 31 75t75 31q43 0 74 -31t31 -75q0 -43 -31.5 -74t-75.5 -31q-43 0 -73.5 31t-30.5 74zM1036 82q0 44 31.5 75t75.5 31q43 0 73.5 -31t30.5 -75 q0 -43 -31 -74t-75 -31q-43 0 -74 31t-31 74z" />
<glyph unicode="&#x202f;" horiz-adv-x="365" />
<glyph unicode="&#x2039;" horiz-adv-x="450" d="M76 477l172 490h78l-148 -490l148 -477h-78z" />
<glyph unicode="&#x203a;" horiz-adv-x="450" d="M125 0l147 489l-147 478h80l170 -478l-170 -489h-80z" />
<glyph unicode="&#x205f;" horiz-adv-x="457" />
<glyph unicode="&#x20ac;" horiz-adv-x="1099" d="M16 752l41 94h136q40 253 169 387.5t332 134.5q233 0 383 -170l-51 -115q-80 100 -157.5 143.5t-176.5 43.5q-152 0 -248 -107t-133 -317h607l-44 -94h-573q-2 -31 -2 -93v-36h516l-43 -95h-467q17 -218 116.5 -333t270.5 -115q149 0 260 88q38 29 63.5 61t59.5 93v-170 q-87 -88 -184.5 -129t-222.5 -41q-210 0 -336 141t-152 405h-157l38 95h117v47q0 39 4 82h-166z" />
<glyph unicode="&#x2122;" horiz-adv-x="1562" d="M23 1290v76h534v-76h-221v-743h-90v743h-223zM686 547v819h133l254 -707l252 707h133v-819h-90v696l-254 -696h-84l-254 696v-696h-90z" />
<glyph unicode="&#xe000;" horiz-adv-x="972" d="M0 0v973h973v-973h-973z" />
</font>
</defs>
</svg>
