<?xml version="1.0" standalone="no"?>
<!DOCTYPE svg PUBLIC "-//W3C//DTD SVG 1.1//EN" "http://www.w3.org/Graphics/SVG/1.1/DTD/svg11.dtd" >
<svg xmlns="http://www.w3.org/2000/svg">
<metadata></metadata>
<defs>
<font id="BoschSansRegularRegular" horiz-adv-x="1232" >
<font-face units-per-em="2048" ascent="1638" descent="-410" />
<missing-glyph horiz-adv-x="616" />
<glyph horiz-adv-x="0" />
<glyph horiz-adv-x="2048" />
<glyph unicode=" "  horiz-adv-x="616" />
<glyph unicode="&#x09;" horiz-adv-x="616" />
<glyph unicode="&#xa0;" horiz-adv-x="616" />
<glyph unicode="!" horiz-adv-x="729" d="M274 121q0 55 38 93t94 38q54 0 92.5 -38.5t38.5 -92.5t-38.5 -92.5t-92.5 -38.5q-56 0 -94 38t-38 93zM311 1006v458h189v-458l-49 -566h-91z" />
<glyph unicode="&#x22;" horiz-adv-x="817" d="M150 1464h184l-31 -542h-123zM483 1464h185l-31 -542h-123z" />
<glyph unicode="#" horiz-adv-x="1146" d="M98 590v147h219l27 262h-205v148h221l33 317h127l-33 -317h232l33 317h127l-33 -317h205v-148h-222l-26 -262h207v-147h-222l-32 -322h-127l33 322h-232l-33 -322h-127l33 322h-205zM444 737h232l26 262h-231z" />
<glyph unicode="$" d="M61 391l162 29q32 -135 112.5 -207.5t213.5 -85.5v569q-108 28 -171.5 52.5t-113.5 58.5q-143 103 -143 287q0 183 143 290q61 45 123 67t162 34v180h119v-182q154 -15 255.5 -96.5t161.5 -237.5l-151 -41q-44 111 -107 166.5t-159 68.5v-516q115 -27 179.5 -51.5 t119.5 -60.5q153 -107 153 -312q0 -201 -149 -317q-62 -46 -127.5 -68t-175.5 -34v-260h-119v260q-189 14 -317 120.5t-171 286.5zM281 1108q0 -106 55.5 -158.5t212.5 -95.5v494q-138 -15 -203 -73.5t-65 -166.5zM668 127q286 38 286 264q0 114 -60.5 172.5t-225.5 104.5 v-541z" />
<glyph unicode="%" horiz-adv-x="1812" d="M102 1069q0 185 92 296.5t244 111.5q146 0 237 -112t91 -292q0 -181 -91.5 -292t-240.5 -111q-148 0 -240 110.5t-92 288.5zM258 1069q0 -266 174 -266q91 0 134.5 65.5t43.5 202.5q0 272 -174 272q-91 0 -134.5 -67t-43.5 -207zM432 0l807 1464h141l-805 -1464h-143z M1047 387q0 185 91.5 296.5t243.5 111.5q146 0 237 -112t91 -292q0 -181 -91.5 -292t-240.5 -111q-148 0 -239.5 110.5t-91.5 288.5zM1202 387q0 -266 174 -266q91 0 134.5 65.5t43.5 202.5q0 273 -174 273q-91 0 -134.5 -67.5t-43.5 -207.5z" />
<glyph unicode="&#x26;" horiz-adv-x="1398" d="M113 389q0 152 79 259.5t265 205.5q-60 165 -60 283q0 152 86.5 244t231.5 92q120 0 200 -81t80 -202q0 -118 -82 -210t-264 -177q120 -244 301 -453q95 139 131 363h152q-24 -271 -178 -473q58 -57 99 -80t83 -23q20 0 55 13l35 -140q-61 -20 -110 -20 q-72 0 -136.5 30.5t-140.5 100.5q-171 -135 -373 -135q-206 0 -330 110t-124 293zM289 408q0 -125 79.5 -203t206.5 -78q137 0 267 104q-222 264 -336 504q-117 -67 -167 -142.5t-50 -184.5zM547 1135q0 -95 51 -217q14 7 23 10q11 7 28 14q197 95 197 248q0 67 -36.5 107 t-96.5 40q-78 0 -122 -53t-44 -149z" />
<glyph unicode="'" horiz-adv-x="483" d="M150 1464h184l-31 -542h-123z" />
<glyph unicode="(" horiz-adv-x="868" d="M244 641q0 279 77 502.5t250 445.5h152q-168 -260 -233.5 -467.5t-65.5 -478.5t65.5 -478.5t233.5 -467.5h-152q-175 224 -251 444t-76 500z" />
<glyph unicode=")" horiz-adv-x="868" d="M147 -303q168 260 233.5 467.5t65.5 478.5t-65.5 478.5t-233.5 467.5h152q175 -224 251.5 -444.5t76.5 -499.5q0 -278 -77.5 -501.5t-250.5 -446.5h-152z" />
<glyph unicode="*" horiz-adv-x="925" d="M104 1217l48 145l243 -115l-26 295h155l-26 -295l241 115l47 -145l-260 -68l189 -227l-121 -86l-150 249l-147 -249l-121 86l189 227z" />
<glyph unicode="+" horiz-adv-x="1146" d="M125 631v141h375v414h149v-414h375v-141h-375v-416h-149v416h-375z" />
<glyph unicode="," horiz-adv-x="616" d="M174 125q0 57 36 93t93 36q68 0 105.5 -51.5t37.5 -145.5q0 -166 -79 -254q-33 -38 -73.5 -56.5t-107.5 -29.5v97q120 37 129 180q-67 3 -104 37.5t-37 93.5z" />
<glyph unicode="-" horiz-adv-x="616" d="M90 588v162h436v-162h-436z" />
<glyph unicode="." horiz-adv-x="616" d="M178 121q0 55 38 93t93 38q54 0 92.5 -38.5t38.5 -92.5t-38.5 -92.5t-92.5 -38.5q-55 0 -93 38t-38 93z" />
<glyph unicode="/" horiz-adv-x="874" d="M37 -303l596 1892h155l-595 -1892h-156z" />
<glyph unicode="0" d="M96 739q0 217 65.5 386.5t184 263.5t270.5 94q153 0 271.5 -94.5t184 -265t65.5 -390.5q0 -221 -65.5 -392t-184 -265t-271.5 -94q-154 0 -272 94t-183 266t-65 397zM276 739q0 -287 91 -451.5t249 -164.5q157 0 248.5 164.5t91.5 445.5q0 280 -91.5 444t-248.5 164 q-155 0 -247.5 -163.5t-92.5 -438.5z" />
<glyph unicode="1" d="M201 0v141h352v1024q-47 -23 -134.5 -37t-182.5 -14v121q162 17 253 79.5t123 176.5h111v-1350h324v-141h-846z" />
<glyph unicode="2" d="M135 0v147q416 313 576.5 512t160.5 402q0 130 -70 205t-192 75q-120 0 -192.5 -67t-112.5 -213l-160 35q43 189 161.5 288t301.5 99q198 0 321.5 -116t123.5 -302q0 -225 -162.5 -434.5t-554.5 -489.5h731v-141h-932z" />
<glyph unicode="3" d="M80 383l160 35q37 -149 129.5 -222t244.5 -73q154 0 236 72t82 208q0 139 -87 215t-247 76h-147v146h139q142 0 220.5 66t78.5 186q0 115 -71.5 182t-194.5 67t-200.5 -60.5t-123.5 -193.5l-143 37q25 90 62 149.5t99 108.5q129 101 312 101q191 0 313.5 -109.5 t122.5 -279.5q0 -111 -56.5 -188.5t-177.5 -129.5q75 -23 121.5 -52.5t83.5 -76.5q76 -98 76 -239q0 -195 -136.5 -310.5t-365.5 -115.5q-234 0 -381 129q-63 54 -96.5 115.5t-52.5 156.5z" />
<glyph unicode="4" d="M49 311v158l717 1022h180v-1038h203v-142h-203v-311h-160v311h-737zM209 453h577v843z" />
<glyph unicode="5" d="M109 334l155 43q76 -254 338 -254q152 0 234 90.5t82 257.5q0 163 -86 258.5t-232 95.5q-94 0 -159.5 -34t-118.5 -109h-144l68 782h774v-147h-639l-41 -461q105 111 287 111q207 0 337 -137t130 -355q0 -224 -133.5 -358.5t-356.5 -134.5q-212 0 -344 108 q-59 48 -93.5 103t-57.5 141z" />
<glyph unicode="6" d="M117 676q0 380 142.5 593.5t395.5 213.5q301 0 414 -314l-160 -45q-47 118 -107 167.5t-155 49.5q-198 0 -291 -233q-32 -76 -46.5 -156.5t-20.5 -216.5q127 195 362 195q207 0 339 -131.5t132 -335.5q0 -218 -132 -349.5t-349 -131.5q-132 0 -240 57t-180 166 q-104 160 -104 471zM307 463q0 -149 92.5 -244.5t235.5 -95.5q139 0 223 92t84 244q0 151 -84 240t-225 89q-147 0 -236.5 -89t-89.5 -236z" />
<glyph unicode="7" d="M141 1323v141h955v-166q-243 -229 -396 -575t-178 -723h-176q34 395 186 736t404 587h-795z" />
<glyph unicode="8" d="M88 420q0 132 67.5 224.5t206.5 150.5q-200 107 -200 307q0 167 127.5 274t328.5 107q198 0 326.5 -107t128.5 -274q0 -202 -192 -309q266 -115 266 -371q0 -195 -147.5 -317.5t-381.5 -122.5q-233 0 -381.5 123t-148.5 315zM268 420q0 -135 95 -216t255 -81 q163 0 256 80.5t93 220.5q0 135 -91.5 214t-248.5 79q-166 0 -262.5 -79.5t-96.5 -217.5zM338 1100q0 -111 77.5 -176.5t209.5 -65.5q129 0 200.5 64t71.5 178q0 109 -75.5 175t-200.5 66q-131 0 -207 -64.5t-76 -176.5z" />
<glyph unicode="9" d="M117 1016q0 205 134 336t345 131q135 0 243.5 -57t172.5 -162q94 -155 94 -445q0 -412 -137.5 -624.5t-403.5 -212.5q-184 0 -305 98q-55 44 -86 96t-53 135l160 45q38 -125 102.5 -179t175.5 -54q124 0 203.5 66t122.5 206q23 69 32.5 147.5t14.5 215.5 q-127 -195 -363 -195q-198 0 -325 127.5t-127 325.5zM297 1020q0 -145 81 -230t218 -85q141 0 230 87t89 226q0 141 -89.5 232t-227.5 91q-136 0 -218.5 -87.5t-82.5 -233.5z" />
<glyph unicode=":" horiz-adv-x="616" d="M178 121q0 55 38 93t93 38q54 0 92.5 -38.5t38.5 -92.5t-38.5 -92.5t-92.5 -38.5q-55 0 -93 38t-38 93zM178 729q0 55 38 93t93 38q54 0 92.5 -38.5t38.5 -92.5t-38 -92.5t-93 -38.5t-93 38t-38 93z" />
<glyph unicode=";" horiz-adv-x="616" d="M176 125q0 57 36 93t93 36q68 0 106 -52t38 -145q0 -165 -80 -254q-33 -38 -73.5 -56.5t-107.5 -29.5v97q120 37 129 180q-67 3 -104 37.5t-37 93.5zM178 729q0 55 38 93t93 38q54 0 92.5 -38.5t38.5 -92.5t-38 -92.5t-93 -38.5t-93 38t-38 93z" />
<glyph unicode="&#x3c;" horiz-adv-x="1146" d="M160 588v143l807 406v-172l-633 -303l633 -312v-168z" />
<glyph unicode="=" horiz-adv-x="1146" d="M160 401v148h827v-148h-827zM160 770v148h827v-148h-827z" />
<glyph unicode="&#x3e;" horiz-adv-x="1146" d="M180 190v164l633 303l-633 312v159l807 -405v-127z" />
<glyph unicode="?" horiz-adv-x="1095" d="M125 1114q15 91 44.5 150t86.5 110q121 109 313 109q182 0 294 -96.5t112 -253.5q0 -146 -94 -244q-26 -29 -55.5 -52t-98.5 -69q-81 -54 -107 -100.5t-26 -139.5v-88h-150v111q0 114 41 183t156 151q89 61 123.5 114.5t34.5 128.5q0 95 -65 154t-171 59 q-234 0 -280 -247zM385 121q0 55 37.5 93t93.5 38q54 0 92.5 -38.5t38.5 -92.5t-38.5 -92.5t-92.5 -38.5q-56 0 -93.5 38t-37.5 93z" />
<glyph unicode="@" horiz-adv-x="1894" d="M123 479q0 237 113 434.5t309 311.5t432 114q225 0 407 -97t285 -269t103 -385q0 -232 -110.5 -376t-287.5 -144q-198 0 -233 188q-65 -108 -139 -156.5t-175 -48.5q-134 0 -211 93.5t-77 256.5q0 152 54 277t149.5 196.5t211.5 71.5q160 0 224 -141l24 119h156l-84 -490 q-8 -44 -8 -90q0 -75 29 -110t91 -35q112 0 181 107t69 280q0 280 -181 451t-476 171q-203 0 -364.5 -92.5t-252 -258.5t-90.5 -374q0 -309 173 -494.5t462 -185.5q125 0 219.5 29t216.5 105l74 -109q-131 -86 -245 -121t-269 -35q-336 0 -549 213q-110 110 -170.5 265.5 t-60.5 328.5zM705 401q0 -202 149 -202q141 0 211 135q26 54 42.5 127.5t16.5 140.5q0 95 -43 149t-118 54q-114 0 -186 -112.5t-72 -291.5z" />
<glyph unicode="A" horiz-adv-x="1288" d="M35 0l530 1464h164l524 -1464h-174l-127 365h-626l-125 -365h-166zM375 506h528l-264 762z" />
<glyph unicode="B" horiz-adv-x="1406" d="M197 0v1464h555q235 0 355 -98t120 -289q0 -110 -46.5 -181t-152.5 -124q146 -46 213.5 -131.5t67.5 -222.5q0 -197 -133 -307.5t-369 -110.5h-610zM367 141h467q149 0 229 71.5t80 203.5t-83.5 200t-244.5 68h-448v-543zM367 825h436q258 0 258 256q0 124 -72.5 183 t-224.5 59h-397v-498z" />
<glyph unicode="C" horiz-adv-x="1486" d="M147 729q0 339 182.5 548.5t477.5 209.5q251 0 399 -154q50 -52 82.5 -108.5t71.5 -159.5l-150 -53q-29 85 -56.5 135t-68.5 92q-107 107 -280 107q-221 0 -349 -164.5t-128 -450.5t127.5 -447t353.5 -161q197 0 307 131q37 43 60 89t49 130l151 -57 q-45 -123 -93.5 -195.5t-121.5 -130.5q-144 -108 -362 -108q-293 0 -472.5 205t-179.5 542z" />
<glyph unicode="D" horiz-adv-x="1517" d="M197 0v1464h475q329 0 513.5 -193.5t184.5 -539.5q0 -352 -182 -541.5t-520 -189.5h-471zM367 141h317q246 0 376 152.5t130 441.5q0 284 -131 436t-377 152h-315v-1182z" />
<glyph unicode="E" horiz-adv-x="1267" d="M197 0v1464h936v-141h-766v-516h634v-137h-634v-529h802v-141h-972z" />
<glyph unicode="F" horiz-adv-x="1200" d="M197 0v1464h917v-141h-747v-551h598v-137h-598v-635h-170z" />
<glyph unicode="G" horiz-adv-x="1591" d="M147 731q0 219 84.5 391.5t236 268.5t343.5 96q245 0 395 -150q51 -50 84.5 -104t73.5 -150l-152 -57q-33 88 -60.5 136.5t-66.5 84.5q-107 99 -270 99q-224 0 -355.5 -166t-131.5 -449q0 -280 128.5 -444t346.5 -164q190 0 316 134t126 337v20h-397v142h563v-756h-111 l-32 268q-91 -151 -202.5 -218.5t-268.5 -67.5q-188 0 -336.5 95t-231 266t-82.5 388z" />
<glyph unicode="H" horiz-adv-x="1474" d="M197 0v1464h170v-665h741v665h170v-1464h-170v651h-741v-651h-170z" />
<glyph unicode="I" horiz-adv-x="620" d="M225 0v1464h170v-1464h-170z" />
<glyph unicode="J" horiz-adv-x="1105" d="M61 410v106h170v-84q0 -313 254 -313q130 0 197.5 86.5t67.5 253.5v1005h170v-981q0 -247 -109.5 -374t-321.5 -127q-198 0 -313 115t-115 313z" />
<glyph unicode="K" horiz-adv-x="1312" d="M197 0v1464h170v-743l651 743h196l-538 -608l565 -856h-190l-484 735l-200 -227v-508h-170z" />
<glyph unicode="L" horiz-adv-x="1212" d="M197 0v1464h170v-1323h729v-141h-899z" />
<glyph unicode="M" horiz-adv-x="1814" d="M197 0v1464h266l448 -1255l443 1255h264v-1464h-170v1305l-461 -1305h-156l-475 1305v-1305h-159z" />
<glyph unicode="N" horiz-adv-x="1470" d="M197 0v1464h231l686 -1284v1284h160v-1464h-244l-674 1260v-1260h-159z" />
<glyph unicode="O" horiz-adv-x="1648" d="M147 739q0 210 88 380.5t243 267t347 96.5t346.5 -97t242 -268.5t87.5 -384.5q0 -214 -87.5 -386t-242 -268.5t-346.5 -96.5q-195 0 -350 97t-241.5 270t-86.5 390zM328 739q0 -278 136 -447t359 -169t360.5 168t137.5 442q0 271 -137.5 439.5t-358.5 168.5t-359 -167.5 t-138 -434.5z" />
<glyph unicode="P" horiz-adv-x="1341" d="M197 0v1464h520q141 0 233 -27.5t158 -88.5q119 -113 119 -312t-124 -307t-353 -108h-383v-621h-170zM367 758h362q92 0 150.5 18.5t99.5 59.5q74 74 74 208q0 142 -77 210.5t-237 68.5h-372v-565z" />
<glyph unicode="Q" horiz-adv-x="1648" d="M147 731q0 214 87.5 386t242.5 269t348 97q192 0 346.5 -97t242 -269t87.5 -386q0 -157 -49 -294t-141 -240l209 -191l-101 -110l-219 202q-171 -116 -377 -116q-192 0 -346.5 96.5t-242 268t-87.5 384.5zM328 731q0 -272 137 -440t358 -168q144 0 262 78l-194 180 l100 111l203 -187q127 164 127 426q0 273 -137 441.5t-359 168.5q-223 0 -360 -168t-137 -442z" />
<glyph unicode="R" horiz-adv-x="1374" d="M197 0v1464h532q132 0 220 -29t151 -94q104 -104 104 -274q0 -167 -100 -264q-41 -40 -87 -62t-124 -41q122 -37 181 -110t85 -221q22 -114 57.5 -219.5t63.5 -139.5v-10h-178q-40 69 -65 148.5t-48 211.5q-31 163 -107.5 228t-236.5 65h-278v-653h-170zM367 791h340 q323 0 323 274q0 132 -72 195t-223 63h-368v-532z" />
<glyph unicode="S" horiz-adv-x="1349" d="M119 391l162 29q85 -297 405 -297q161 0 254.5 74.5t93.5 203.5q0 110 -71 172q-43 37 -106.5 61t-219.5 62q-126 31 -200 60.5t-130 70.5q-123 91 -123 267q0 180 124.5 284.5t338.5 104.5q193 0 316 -81t192 -253l-151 -41q-55 127 -136 180t-219 53 q-140 0 -219.5 -62.5t-79.5 -172.5q0 -63 24 -105t77 -73q43 -25 91 -40.5t163 -41.5q137 -31 219 -63t141 -78q135 -110 135 -299q0 -194 -139.5 -309t-374.5 -115q-220 0 -367.5 106.5t-199.5 302.5z" />
<glyph unicode="T" horiz-adv-x="1191" d="M57 1323v141h1078v-141h-453v-1323h-170v1323h-455z" />
<glyph unicode="U" horiz-adv-x="1443" d="M190 530v934h170v-913q0 -227 85 -327.5t276 -100.5q196 0 284.5 108t88.5 347v886h159v-911q0 -278 -138 -424.5t-400 -146.5q-255 0 -390 141t-135 407z" />
<glyph unicode="V" horiz-adv-x="1214" d="M20 1464h177l413 -1218l418 1218h166l-522 -1464h-135z" />
<glyph unicode="W" horiz-adv-x="1925" d="M59 1464h179l297 -1167l366 1167h135l359 -1171l309 1171h162l-396 -1464h-139l-364 1180l-375 -1180h-137z" />
<glyph unicode="X" horiz-adv-x="1261" d="M53 0l484 752l-451 712h195l364 -575l363 575h178l-455 -712l477 -752h-194l-391 616l-392 -616h-178z" />
<glyph unicode="Y" horiz-adv-x="1134" d="M-20 1464h192l410 -706l397 706h176l-489 -852v-612h-170v614z" />
<glyph unicode="Z" horiz-adv-x="1226" d="M119 0v154l786 1169h-743v141h917v-170l-774 -1153h787v-141h-973z" />
<glyph unicode="[" horiz-adv-x="868" d="M250 -303v1892h459v-147h-289v-1598h289v-147h-459z" />
<glyph unicode="\" horiz-adv-x="874" d="M86 1589h156l596 -1892h-156z" />
<glyph unicode="]" horiz-adv-x="868" d="M160 -156h289v1598h-289v147h458v-1892h-458v147z" />
<glyph unicode="^" horiz-adv-x="1124" d="M180 836l318 628h141l317 -628h-168l-223 442l-221 -442h-164z" />
<glyph unicode="_" horiz-adv-x="901" d="M-41 -266h983v-137h-983v137z" />
<glyph unicode="`" horiz-adv-x="1024" d="M229 1542h224l118 -332h-116z" />
<glyph unicode="a" horiz-adv-x="1120" d="M113 276q0 118 76 201t219 121q74 20 148 28t214 13v68q0 124 -51 182.5t-160 58.5q-84 0 -153.5 -30.5t-153.5 -102.5l-100 111q97 88 191.5 126t215.5 38q185 0 283 -98.5t98 -284.5v-478q0 -57 26 -78.5t95 -23.5v-133q-23 -2 -60 -2q-171 0 -221 153 q-70 -85 -149.5 -124t-179.5 -39q-149 0 -243.5 82.5t-94.5 211.5zM283 285q0 -80 50.5 -123t145.5 -43q127 0 209 66t82 169v164q-259 -9 -373 -63.5t-114 -169.5z" />
<glyph unicode="b" horiz-adv-x="1292" d="M197 0v1542h170v-647q126 195 356 195q206 0 331.5 -150.5t125.5 -398.5q0 -254 -125 -406.5t-334 -152.5q-235 0 -354 190v-172h-170zM360 535q0 -196 87 -304t245 -108q312 0 312 407q0 197 -82 307.5t-228 110.5q-157 0 -245.5 -109.5t-88.5 -303.5z" />
<glyph unicode="c" horiz-adv-x="1107" d="M113 535q0 249 136 402t357 153q138 0 239.5 -57t176.5 -177l-135 -90q-66 103 -126.5 142.5t-152.5 39.5q-151 0 -235 -110t-84 -308q0 -195 84 -301t239 -106q103 0 171 42t132 146l132 -82q-150 -247 -435 -247q-221 0 -360 154t-139 399z" />
<glyph unicode="d" horiz-adv-x="1292" d="M113 541q0 249 125 399t331 150q231 0 357 -195v647h170v-1542h-170v172q-122 -190 -355 -190q-209 0 -333.5 152t-124.5 407zM289 530q0 -407 307 -407q161 0 248.5 107.5t87.5 304.5q0 192 -88 302.5t-242 110.5q-150 0 -231.5 -109t-81.5 -309z" />
<glyph unicode="e" horiz-adv-x="1165" d="M113 532q0 248 135 403t352 155q214 0 336.5 -142t122.5 -391v-55h-770q7 -123 34.5 -194t86.5 -118q79 -67 208 -67q100 0 164.5 40t122.5 140l137 -78q-70 -124 -174 -183.5t-250 -59.5q-226 0 -365.5 152t-139.5 398zM295 639h590q-10 103 -34.5 161t-72.5 95 q-65 53 -176 53q-127 0 -202.5 -76t-104.5 -233z" />
<glyph unicode="f" horiz-adv-x="716" d="M74 930v141h153v150q0 164 83.5 254t234.5 90q104 0 192 -49l-43 -132q-47 23 -75.5 31t-65.5 8q-73 0 -114.5 -49t-41.5 -135v-168h246v-141h-246v-930h-170v930h-153z" />
<glyph unicode="g" horiz-adv-x="1148" d="M96 -104q0 144 183 229q-105 57 -105 172q0 113 117 182q-131 107 -131 262t109 252t284 97q110 0 213 -46q52 7 161.5 22.5t145.5 20.5v-153h-160q70 -90 70 -205q0 -158 -108.5 -249t-296.5 -91q-109 0 -195 37q-55 -47 -55 -100t33.5 -73t123.5 -20h213q181 0 279 -75 t98 -213q0 -158 -136.5 -251t-369.5 -93q-217 0 -345 80t-128 215zM262 -88q0 -176 311 -176q165 0 250.5 51.5t85.5 149.5q0 149 -213 149h-231q-36 0 -68 4q-70 -35 -102.5 -78t-32.5 -100zM330 741q0 -100 66.5 -158.5t181.5 -58.5q114 0 174.5 55t60.5 158q0 99 -66 158 t-178 59t-175.5 -56.5t-63.5 -156.5z" />
<glyph unicode="h" d="M197 0v1542h170v-635q100 183 325 183q172 0 263.5 -109.5t91.5 -316.5v-664h-170v676q0 138 -55 202t-173 64q-129 0 -205.5 -78t-76.5 -209v-655h-170z" />
<glyph unicode="i" horiz-adv-x="571" d="M170 1384q0 46 33.5 79.5t79.5 33.5t79 -33.5t33 -79.5t-33 -79t-79 -33t-79.5 33t-33.5 79zM201 0v1071h170v-1071h-170z" />
<glyph unicode="j" horiz-adv-x="571" d="M-45 -356l39 129q48 -21 80 -21q127 0 127 135v1184h170v-1165q0 -144 -72 -219.5t-207 -75.5q-75 0 -137 33zM170 1384q0 46 33.5 79.5t79.5 33.5t79 -33.5t33 -79.5t-33 -79t-79 -33t-79.5 33t-33.5 79z" />
<glyph unicode="k" horiz-adv-x="1114" d="M197 0v1542h170v-985l436 514h201l-365 -420l418 -651h-193l-336 522l-161 -186v-336h-170z" />
<glyph unicode="l" horiz-adv-x="573" d="M201 0v1542h170v-1542h-170z" />
<glyph unicode="m" horiz-adv-x="1830" d="M197 0v1071h170v-164q100 183 301 183q109 0 182 -49t117 -152q118 201 340 201q161 0 249.5 -111.5t88.5 -314.5v-664h-170v676q0 138 -49 202t-154 64q-120 0 -193 -79t-73 -208v-655h-170v676q0 138 -49 202t-154 64q-120 0 -193 -79t-73 -208v-655h-170z" />
<glyph unicode="n" d="M197 0v1071h170v-164q100 183 325 183q172 0 263.5 -109.5t91.5 -316.5v-664h-170v676q0 138 -55 202t-173 64q-129 0 -205.5 -78t-76.5 -209v-655h-170z" />
<glyph unicode="o" horiz-adv-x="1236" d="M113 535q0 243 143 399t367 156q218 0 359.5 -156.5t141.5 -396.5q0 -243 -142.5 -399t-365.5 -156q-218 0 -360.5 157t-142.5 396zM289 532q0 -189 88 -299t239 -110q152 0 242 111.5t90 300.5q0 188 -88.5 300.5t-236.5 112.5q-156 0 -245 -110.5t-89 -305.5z" />
<glyph unicode="p" horiz-adv-x="1292" d="M197 -373v1444h170v-176q126 195 356 195q206 0 331.5 -150.5t125.5 -398.5q0 -254 -125 -406.5t-334 -152.5q-235 0 -354 190v-545h-170zM360 535q0 -196 87 -304t245 -108q312 0 312 407q0 197 -82 307.5t-228 110.5q-157 0 -245.5 -109.5t-88.5 -303.5z" />
<glyph unicode="q" horiz-adv-x="1292" d="M113 541q0 249 125 399t331 150q231 0 357 -195v176h170v-1444h-170v545q-122 -190 -355 -190q-209 0 -333.5 152.5t-124.5 406.5zM289 530q0 -407 307 -407q161 0 248.5 107.5t87.5 304.5q0 192 -88 302.5t-242 110.5q-150 0 -231.5 -109t-81.5 -309z" />
<glyph unicode="r" horiz-adv-x="827" d="M197 0v1071h170v-172q104 191 286 191q95 0 174 -43l-69 -144q-62 33 -125 33q-124 0 -195 -93t-71 -255v-588h-170z" />
<glyph unicode="s" horiz-adv-x="1042" d="M82 188l123 101q72 -95 139 -130.5t174 -35.5q118 0 181 43t63 121q0 79 -62 119q-29 21 -61 31t-154 40q-179 43 -257 117t-78 199q0 138 98 217.5t268 79.5q123 0 207 -35.5t162 -120.5l-111 -113q-66 72 -123 99.5t-137 27.5q-95 0 -147 -38t-52 -107t54 -107 q45 -31 192 -67q122 -29 179.5 -53.5t103.5 -65.5q84 -78 84 -209q0 -146 -109.5 -232.5t-294.5 -86.5q-144 0 -250.5 50t-191.5 156z" />
<glyph unicode="t" horiz-adv-x="792" d="M74 930v141h164v279l170 41v-320h270v-141h-270v-654q0 -78 29.5 -115.5t92.5 -37.5q78 0 146 51l65 -117q-54 -41 -104.5 -58t-116.5 -17q-131 0 -206.5 70.5t-75.5 191.5v686h-164z" />
<glyph unicode="u" horiz-adv-x="1214" d="M176 408v663h170v-676q0 -138 52.5 -202t166.5 -64q129 0 206 78t77 209v655h170v-1071h-170v164q-99 -182 -326 -182q-169 0 -257.5 109.5t-88.5 316.5z" />
<glyph unicode="v" horiz-adv-x="1009" d="M41 1071h184l287 -899l281 899h176l-361 -1071h-200z" />
<glyph unicode="w" horiz-adv-x="1695" d="M72 1071h184l236 -862l276 862h184l258 -862l240 862h174l-326 -1071h-188l-252 858l-278 -858h-187z" />
<glyph unicode="x" horiz-adv-x="1069" d="M51 0l383 551l-358 520h198l263 -389l260 389h184l-354 -508l391 -563h-201l-289 432l-295 -432h-182z" />
<glyph unicode="y" horiz-adv-x="1021" d="M41 1071h184l301 -815l277 815h178l-444 -1239q-78 -217 -277 -217q-119 0 -205 63l62 123q64 -45 135 -45q112 0 151 127l39 129z" />
<glyph unicode="z" horiz-adv-x="989" d="M82 0v143l608 787h-573v141h753v-174l-579 -750h616v-147h-825z" />
<glyph unicode="{" horiz-adv-x="870" d="M94 575v144q139 4 197.5 58t58.5 179v275q0 191 111 280q53 43 119 62t176 22v-141q-145 -15 -190.5 -60.5t-45.5 -174.5v-289q0 -112 -49 -180.5t-152 -102.5q103 -35 152 -104t49 -178v-295q0 -128 47 -175.5t189 -62.5v-141q-127 4 -202 31.5t-128 87.5 q-76 88 -76 247v281q0 125 -58.5 179t-197.5 58z" />
<glyph unicode="|" horiz-adv-x="581" d="M215 -303v1892h152v-1892h-152z" />
<glyph unicode="}" horiz-adv-x="870" d="M115 -168q144 15 189.5 61t45.5 175v288q0 112 49 180.5t152 102.5q-103 35 -152 104.5t-49 178.5v295q0 128 -46.5 175t-188.5 62v141q127 -4 201.5 -31t127.5 -87q76 -88 76 -248v-281q0 -125 58.5 -179t197.5 -58v-144q-139 -4 -197.5 -58t-58.5 -179v-275 q0 -192 -110 -280q-53 -43 -119 -62t-176 -22v141z" />
<glyph unicode="~" horiz-adv-x="1146" d="M178 561q23 141 80 209t154 68q44 0 86 -17.5t112 -64.5q54 -35 81.5 -47.5t51.5 -12.5q40 0 63.5 35t35.5 113l127 -13q-23 -142 -80 -209t-154 -67q-44 0 -86.5 17.5t-111.5 64.5q-53 34 -81 46.5t-53 12.5q-40 0 -63 -34.5t-35 -112.5z" />
<glyph unicode="&#xa2;" d="M152 535q0 251 139 405q59 65 125 97.5t170 47.5v203h119v-203q223 -23 356 -211l-125 -96q-59 80 -110.5 117t-120.5 47v-817q79 12 136 55t111 131l131 -82q-129 -221 -378 -245v-260h-119v262q-102 17 -169.5 52t-127.5 101q-137 152 -137 396zM328 532 q0 -212 100 -321q34 -35 67 -53t91 -31v815q-78 -19 -126 -56t-83 -106q-49 -98 -49 -248z" />
<glyph unicode="&#xa3;" d="M49 184q0 85 60 140t151 55q72 0 182 -55q-3 78 -25 142t-91 191h-220v129h158q-51 131 -51 263q0 196 119.5 315t316.5 119q182 0 305 -105q63 -52 99 -116t61 -166l-160 -35q-41 148 -113 214t-192 66t-188 -76.5t-68 -211.5q0 -117 58 -267h383v-129h-328 q50 -122 69 -198.5t19 -157.5q0 -33 -6 -70q90 -60 141 -81t102 -21q77 0 116 43t52 143l150 -20q-26 -165 -96.5 -239t-202.5 -74q-78 0 -150 29.5t-165 101.5q-101 -131 -259 -131q-101 0 -164 55.5t-63 146.5zM184 182q0 -38 26.5 -59t74.5 -21q49 0 81.5 22.5t55.5 72.5 q-2 2 -6 4l-2 2q-32 24 -71 39.5t-69 15.5q-41 0 -65.5 -21t-24.5 -55z" />
<glyph unicode="&#xa5;" d="M90 1464h191l337 -665l355 665h170l-330 -612h297v-129h-367l-41 -78v-108h408v-129h-408v-408h-170v408h-407v129h407v108l-43 78h-364v129h295z" />
<glyph unicode="&#xa8;" horiz-adv-x="1024" d="M217 1384q0 43 33 76t76 33t75.5 -33t32.5 -76t-32.5 -75.5t-75.5 -32.5t-76 32.5t-33 75.5zM590 1384q0 43 32.5 76t75.5 33t76 -33t33 -76t-33 -75.5t-76 -32.5t-75.5 32.5t-32.5 75.5z" />
<glyph unicode="&#xa9;" horiz-adv-x="1777" d="M137 731q0 156 59 295.5t160 239.5t242 158.5t299 58.5q153 0 291 -58.5t237 -158.5t157 -238.5t58 -292.5q0 -156 -58.5 -296t-158.5 -240t-240 -158.5t-296 -58.5q-155 0 -294 58.5t-239 158t-158.5 238.5t-58.5 294zM250 731q0 -180 84 -329.5t230.5 -235.5t322.5 -86 q133 0 252 51t204 138t135 208.5t50 257.5q0 180 -83.5 329t-228.5 234.5t-319 85.5q-183 0 -331 -85t-232 -234.5t-84 -333.5zM473 731q0 202 116.5 329.5t301.5 127.5q136 0 221 -59t139 -191l-141 -55q-35 94 -85 134t-132 40q-116 0 -180 -85t-64 -239q0 -152 65 -235.5 t185 -83.5q84 0 135.5 42t83.5 138l146 -55q-53 -131 -143 -193.5t-228 -62.5q-189 0 -304.5 123t-115.5 325z" />
<glyph unicode="&#xab;" horiz-adv-x="1073" d="M145 494l267 405h168l-256 -405l256 -406h-168zM510 494l266 405h168l-256 -405l256 -406h-168z" />
<glyph unicode="&#xad;" horiz-adv-x="616" d="M90 588v162h436v-162h-436z" />
<glyph unicode="&#xae;" horiz-adv-x="1144" d="M96 1008q0 201 139 338t343 137q198 0 334.5 -137.5t136.5 -335.5q0 -201 -138 -338t-340 -137q-201 0 -338 136.5t-137 336.5zM199 1008q0 -167 105.5 -277t266.5 -110q163 0 269 110t106 279q0 167 -104 277t-264 110q-167 0 -273 -108.5t-106 -280.5zM393 780v469h213 q76 0 120 -35.5t44 -97.5q0 -93 -90 -117q37 -12 52.5 -33t27.5 -79q10 -33 18 -64q4 -17 19 -39v-4h-105q-21 27 -35 103q-9 45 -27.5 63.5t-54.5 18.5h-79v-185h-103zM496 1038h94q78 0 78 70q0 63 -70 63h-102v-133z" />
<glyph unicode="&#xb4;" horiz-adv-x="1024" d="M453 1210l118 332h224l-226 -332h-116z" />
<glyph unicode="&#xb8;" horiz-adv-x="1024" d="M375 -354l80 67q44 -53 112 -53q40 0 62 19t22 53q0 67 -71 67q-41 0 -60 -22l-78 49l131 174h97l-92 -125q31 10 53 10q63 0 104 -44t41 -111q0 -78 -55 -123t-150 -45q-60 0 -106 20t-90 64z" />
<glyph unicode="&#xbb;" horiz-adv-x="1073" d="M129 88l256 406l-256 405h168l266 -405l-266 -406h-168zM494 88l256 406l-256 405h168l266 -405l-266 -406h-168z" />
<glyph unicode="&#x2c6;" horiz-adv-x="1024" d="M236 1210l200 332h154l198 -332h-116l-162 187l-162 -187h-112z" />
<glyph unicode="&#x2da;" horiz-adv-x="1024" d="M295 1386q0 89 63.5 151t155.5 62q88 0 151.5 -62.5t63.5 -150.5t-63 -150t-154 -62t-154 61.5t-63 150.5zM397 1386q0 -49 32.5 -81.5t82.5 -32.5t82.5 32.5t32.5 81.5q0 50 -32.5 82.5t-82.5 32.5t-82.5 -32.5t-32.5 -82.5z" />
<glyph unicode="&#x2dc;" horiz-adv-x="1024" d="M197 1284q19 104 69.5 162.5t122.5 58.5q57 0 154 -55q68 -37 98 -37q63 0 78 96l108 -12q-20 -106 -70.5 -163.5t-123.5 -57.5q-51 0 -152 53q-69 39 -96 39q-65 0 -80 -96z" />
<glyph unicode="&#x401;" horiz-adv-x="1267" d="M197 0v1464h936v-141h-766v-516h634v-137h-634v-529h802v-141h-972zM387 1720q0 43 33 76t76 33t75.5 -33t32.5 -76t-32.5 -75.5t-75.5 -32.5t-76 32.5t-33 75.5zM760 1720q0 43 32.5 76t75.5 33t76 -33t33 -76t-33 -75.5t-76 -32.5t-75.5 32.5t-32.5 75.5z" />
<glyph unicode="&#x402;" horiz-adv-x="1624" d="M0 1323v141h1180v-141h-580v-549q72 95 171 139.5t239 44.5q236 0 341 -140t105 -456v-59q0 -250 -44 -393t-143 -210.5t-274 -74.5l-10 142q93 6 140 25t79 63q76 106 76 438v63q0 247 -69.5 351t-233.5 104q-152 0 -244.5 -66t-132.5 -204v-541h-170v1323h-430z" />
<glyph unicode="&#x403;" horiz-adv-x="1085" d="M197 0v1464h847v-141h-677v-1323h-170zM545 1604l119 331h223l-225 -331h-117z" />
<glyph unicode="&#x404;" horiz-adv-x="1419" d="M147 729q0 341 180.5 549.5t475.5 208.5q250 0 401 -139q47 -43 79.5 -91.5t66.5 -126.5l-148 -55q-57 140 -152 205.5t-241 65.5q-211 0 -340.5 -144.5t-142.5 -394.5h704v-137h-706q15 -261 142.5 -404t344.5 -143q297 0 401 274l150 -59q-79 -181 -219 -268.5 t-350 -87.5q-292 0 -469 204.5t-177 542.5z" />
<glyph unicode="&#x405;" horiz-adv-x="1349" d="M119 391l162 29q85 -297 403 -297q161 0 255.5 74t94.5 200q0 120 -78 183t-288 110q-141 31 -212 56t-128 65q-152 101 -152 291q0 173 128.5 277t342.5 104q191 0 314.5 -81t193.5 -253l-151 -41q-60 127 -142.5 180t-220.5 53q-151 0 -228 -58t-77 -171q0 -58 15 -96 t56.5 -69.5t108.5 -54t180 -46.5q127 -28 202.5 -54.5t133.5 -64.5q168 -112 168 -324q0 -192 -139.5 -306.5t-374.5 -114.5q-238 0 -387 122q-70 55 -111 121t-69 166z" />
<glyph unicode="&#x406;" horiz-adv-x="595" d="M213 0v1464h170v-1464h-170z" />
<glyph unicode="&#x407;" horiz-adv-x="620" d="M23 1720q0 43 32.5 76t75.5 33t76 -33t33 -76t-33 -75.5t-76 -32.5t-75.5 32.5t-32.5 75.5zM225 0v1464h170v-1464h-170zM395 1720q0 43 33 76t76 33t75.5 -33t32.5 -76t-32.5 -75.5t-75.5 -32.5t-76 32.5t-33 75.5z" />
<glyph unicode="&#x408;" horiz-adv-x="1148" d="M104 410v106h170v-84q0 -313 252 -313q132 0 199.5 86.5t67.5 253.5v1005h170v-981q0 -247 -109.5 -374t-321.5 -127q-198 0 -313 115t-115 313z" />
<glyph unicode="&#x409;" horiz-adv-x="2093" d="M4 0q70 108 105 191.5t63 207.5q31 141 50.5 361.5t19.5 427.5v276h936v-616h311q140 0 230.5 -21.5t154.5 -70.5q151 -117 151 -332q0 -119 -50.5 -212.5t-143.5 -145.5q-114 -66 -342 -66h-481v1323h-600v-170q0 -159 -16 -362.5t-38 -325.5q-23 -135 -56.5 -235.5 t-98.5 -229.5h-195zM1178 141h346q336 0 336 283t-336 283h-346v-566z" />
<glyph unicode="&#x40a;" horiz-adv-x="2123" d="M197 0v1464h170v-616h671v616h170v-616h312q140 0 230.5 -21.5t154.5 -70.5q151 -117 151 -332q0 -119 -50.5 -212.5t-143.5 -145.5q-114 -66 -342 -66h-482v700h-671v-700h-170zM1208 141h346q336 0 336 283t-336 283h-346v-566z" />
<glyph unicode="&#x40b;" horiz-adv-x="1624" d="M0 1323v141h1180v-141h-580v-549q72 95 171.5 139.5t240.5 44.5q221 0 334.5 -120t113.5 -355v-483h-170v397q0 231 -69 322.5t-242 91.5q-155 0 -248 -66t-131 -204v-541h-170v1323h-430z" />
<glyph unicode="&#x40c;" horiz-adv-x="1314" d="M197 0v1464h170v-661h63q95 0 146 16.5t83 57.5q32 38 54 82t98 219q70 167 147.5 228.5t217.5 61.5q42 0 77 -4v-145q-27 4 -61 4q-47 0 -75 -6t-53.5 -20t-47.5 -50.5t-44 -84t-57 -134.5q-59 -141 -102 -190.5t-149 -94.5q105 -26 174.5 -83t154.5 -187l293 -473h-207 l-248 401q-101 166 -174.5 222.5t-187.5 56.5h-102v-680h-170zM594 1604l119 331h223l-225 -331h-117z" />
<glyph unicode="&#x40e;" horiz-adv-x="1146" d="M16 1464h185l413 -880l304 880h180l-404 -1116q-53 -148 -76 -195.5t-59 -86.5q-86 -89 -240 -89q-71 0 -141 23l47 135q44 -16 90 -16q104 0 146 63q16 21 28.5 51t40.5 109l11 29zM264 1868h133q6 -162 176 -162q171 0 177 162h133q-1 -142 -81 -217.5t-229 -75.5 t-228 75t-81 218z" />
<glyph unicode="&#x40f;" horiz-adv-x="1409" d="M197 0v1464h170v-1323h675v1323h170v-1464h-409l-31 -348h-135l-31 348h-409z" />
<glyph unicode="&#x410;" horiz-adv-x="1288" d="M35 0l530 1464h164l524 -1464h-174l-127 365h-626l-125 -365h-166zM375 506h528l-264 762z" />
<glyph unicode="&#x411;" horiz-adv-x="1306" d="M197 0v1464h899v-141h-729v-436h333q140 0 230.5 -23.5t154.5 -75.5q152 -124 152 -344q0 -124 -50 -221.5t-143 -154.5q-116 -68 -344 -68h-503zM367 141h368q336 0 336 301q0 303 -336 303h-368v-604z" />
<glyph unicode="&#x412;" horiz-adv-x="1406" d="M197 0v1464h555q232 0 353.5 -98t121.5 -287q0 -112 -46.5 -183t-152.5 -124q146 -46 213.5 -132t67.5 -224q0 -195 -133.5 -305.5t-368.5 -110.5h-610zM367 141h467q149 0 229 71.5t80 203.5t-83.5 200t-244.5 68h-448v-543zM367 825h436q258 0 258 256q0 124 -72.5 183 t-224.5 59h-397v-498z" />
<glyph unicode="&#x413;" horiz-adv-x="1085" d="M197 0v1464h847v-141h-677v-1323h-170z" />
<glyph unicode="&#x414;" horiz-adv-x="1433" d="M-41 141h143q53 88 80 172.5t47 223.5q54 350 54 725v202h934v-1323h155v-489h-139l-29 348h-1077l-29 -348h-139v489zM283 141h764v1182h-601v-96q0 -145 -15.5 -345.5t-37.5 -344.5q-38 -231 -110 -396z" />
<glyph unicode="&#x415;" horiz-adv-x="1267" d="M197 0v1464h936v-141h-766v-516h634v-137h-634v-529h802v-141h-972z" />
<glyph unicode="&#x416;" horiz-adv-x="1824" d="M20 0l275 473q84 133 146.5 188.5t160.5 81.5q-55 24 -85.5 44t-61 62.5t-53.5 98t-60 160.5q-50 131 -94.5 173t-134.5 42q-35 0 -60 -4v145q35 4 72 4q133 0 211 -63q40 -32 71 -85t78 -169q35 -90 55.5 -139t47 -94t44 -63t50 -32t63 -16.5t84.5 -3.5v661h166v-661 q54 1 84.5 3.5t63 16.5t50 32t44 63t47 94t55.5 139q47 115 78.5 168t71.5 86q78 63 211 63q37 0 72 -4v-145q-27 4 -62 4q-43 0 -69 -6t-49.5 -20t-44 -50.5t-41 -84t-52.5 -134.5q-54 -142 -96 -193.5t-135 -91.5q98 -26 160.5 -81.5t146.5 -188.5l274 -473h-207l-231 401 q-61 98 -98 149t-80 83.5t-84 40.5t-109 6v-680h-166v680q-46 1 -77 -2t-62 -14.5t-53.5 -29t-52 -51.5t-57 -75t-68.5 -107l-232 -401h-207z" />
<glyph unicode="&#x417;" horiz-adv-x="1359" d="M57 383l160 35q82 -295 436 -295q183 0 281 72t98 208q0 140 -102.5 215.5t-292.5 75.5h-209v146h201q170 0 265 66t95 184q0 117 -89 184t-243 67q-147 0 -237 -60t-144 -194l-143 37q54 175 191.5 267t343.5 92q224 0 360.5 -108t136.5 -283q0 -109 -56.5 -186.5 t-176.5 -129.5q280 -85 280 -364q0 -198 -152 -314t-411 -116q-303 0 -473 170q-48 50 -75 102t-44 129z" />
<glyph unicode="&#x418;" horiz-adv-x="1458" d="M197 0v1464h159v-1075l746 936v139h160v-1464h-160v1092l-746 -936v-156h-159z" />
<glyph unicode="&#x419;" horiz-adv-x="1458" d="M197 0v1464h159v-1075l746 936v139h160v-1464h-160v1092l-746 -936v-156h-159zM428 1868h133q6 -162 176 -162t176 162h134q-1 -142 -81 -217.5t-229 -75.5t-228 75t-81 218z" />
<glyph unicode="&#x41a;" horiz-adv-x="1314" d="M197 0v1464h170v-661h63q95 0 146 16.5t83 57.5q32 38 54 82t98 219q70 167 147.5 228.5t217.5 61.5q42 0 77 -4v-145q-27 4 -61 4q-47 0 -75 -6t-53.5 -20t-47.5 -50.5t-44 -84t-57 -134.5q-59 -141 -102 -190.5t-149 -94.5q105 -26 174.5 -83t154.5 -187l293 -473h-207 l-248 401q-101 166 -174.5 222.5t-187.5 56.5h-102v-680h-170z" />
<glyph unicode="&#x41b;" horiz-adv-x="1374" d="M4 0q70 108 105 191.5t63 207.5q31 141 50.5 361.5t19.5 427.5v276h936v-1464h-170v1323h-600v-170q0 -159 -16 -362.5t-38 -325.5q-23 -135 -56.5 -235.5t-98.5 -229.5h-195z" />
<glyph unicode="&#x41c;" horiz-adv-x="1814" d="M197 0v1464h266l448 -1255l443 1255h264v-1464h-170v1305l-461 -1305h-156l-475 1305v-1305h-159z" />
<glyph unicode="&#x41d;" horiz-adv-x="1474" d="M197 0v1464h170v-665h741v665h170v-1464h-170v651h-741v-651h-170z" />
<glyph unicode="&#x41e;" horiz-adv-x="1648" d="M147 739q0 210 88 380.5t243 267t347 96.5t346.5 -97t242 -268.5t87.5 -384.5q0 -214 -87.5 -386t-242 -268.5t-346.5 -96.5q-195 0 -350 97t-241.5 270t-86.5 390zM328 739q0 -278 136 -447t359 -169t360.5 168t137.5 442q0 271 -137.5 439.5t-358.5 168.5t-359 -167.5 t-138 -434.5z" />
<glyph unicode="&#x41f;" horiz-adv-x="1454" d="M197 0v1464h1060v-1464h-170v1317h-720v-1317h-170z" />
<glyph unicode="&#x420;" horiz-adv-x="1341" d="M197 0v1464h520q141 0 233 -27.5t158 -88.5q119 -113 119 -312t-124 -307t-353 -108h-383v-621h-170zM367 758h362q165 0 244.5 70t79.5 216q0 142 -77 210.5t-237 68.5h-372v-565z" />
<glyph unicode="&#x421;" horiz-adv-x="1486" d="M147 729q0 338 182.5 548t475.5 210q250 0 401 -154q50 -52 82.5 -108.5t71.5 -159.5l-150 -53q-29 85 -56.5 135t-68.5 92q-107 107 -280 107q-221 0 -349 -164.5t-128 -450.5t127.5 -447t353.5 -161q197 0 307 131q37 43 60 89t49 130l151 -57q-45 -123 -93.5 -195.5 t-121.5 -130.5q-144 -108 -362 -108q-293 0 -472.5 205t-179.5 542z" />
<glyph unicode="&#x422;" horiz-adv-x="1191" d="M57 1323v141h1078v-141h-453v-1323h-170v1323h-455z" />
<glyph unicode="&#x423;" horiz-adv-x="1146" d="M16 1464h185l391 -942l326 942h180l-404 -1116q-53 -148 -76 -195.5t-59 -86.5q-86 -89 -240 -89q-71 0 -141 23l47 135q44 -16 90 -16q82 0 123.5 38t79.5 150z" />
<glyph unicode="&#x424;" horiz-adv-x="1771" d="M147 733q0 154 67.5 277.5t193.5 199.5q79 48 171.5 73t223.5 32v211h166v-211q131 -7 223.5 -32t171.5 -73q126 -76 193 -199.5t67 -277.5q0 -155 -67 -279t-193 -200q-78 -47 -171 -72t-224 -32v-211h-166v211q-131 7 -224 32t-171 72q-126 77 -193.5 200.5 t-67.5 278.5zM328 733q0 -215 114.5 -324.5t360.5 -129.5v907q-246 -20 -360.5 -129.5t-114.5 -323.5zM969 279q246 20 360.5 129.5t114.5 324.5q0 214 -114.5 323.5t-360.5 129.5v-907z" />
<glyph unicode="&#x425;" horiz-adv-x="1261" d="M53 0l484 752l-451 712h195l364 -575l363 575h178l-455 -712l477 -752h-194l-391 616l-392 -616h-178z" />
<glyph unicode="&#x426;" horiz-adv-x="1429" d="M197 0v1464h170v-1323h675v1323h170v-1323h156v-489h-139l-29 348h-1003z" />
<glyph unicode="&#x427;" horiz-adv-x="1370" d="M170 838v626h170v-639q0 -137 73 -201.5t228 -64.5q166 0 264.5 78t98.5 209v618h170v-1464h-170v578q-123 -166 -402 -166q-211 0 -321.5 109.5t-110.5 316.5z" />
<glyph unicode="&#x428;" horiz-adv-x="2078" d="M197 0v1464h170v-1323h587v1323h170v-1323h588v1323h170v-1464h-1685z" />
<glyph unicode="&#x429;" horiz-adv-x="2099" d="M197 0v1464h170v-1323h587v1323h170v-1323h588v1323h170v-1323h156v-489h-140l-28 348h-1673z" />
<glyph unicode="&#x42a;" horiz-adv-x="1476" d="M12 1323v141h549v-561h311q140 0 230.5 -23t154.5 -75q152 -127 152 -352q0 -127 -50 -226.5t-142 -156.5q-114 -70 -345 -70h-481v1323h-379zM561 141h346q336 0 336 312q0 309 -336 309h-346v-621z" />
<glyph unicode="&#x42b;" horiz-adv-x="1800" d="M197 0v1464h170v-561h311q140 0 230.5 -23t154.5 -75q151 -126 151 -352q0 -127 -50 -226.5t-142 -156.5q-114 -70 -344 -70h-481zM367 141h346q336 0 336 312q0 309 -336 309h-346v-621zM1434 0v1464h170v-1464h-170z" />
<glyph unicode="&#x42c;" horiz-adv-x="1282" d="M197 0v1464h170v-561h311q140 0 230.5 -23t154.5 -75q151 -126 151 -352q0 -127 -50 -226.5t-142 -156.5q-114 -70 -344 -70h-481zM367 141h346q336 0 336 312q0 309 -336 309h-346v-621z" />
<glyph unicode="&#x42d;" horiz-adv-x="1402" d="M57 338l150 57q60 -140 158 -206t245 -66q211 0 332.5 141.5t136.5 405.5h-714v137h714q-20 264 -134.5 401.5t-313.5 137.5q-288 0 -414 -271l-147 55q89 183 226.5 270t336.5 87q287 0 454.5 -205t167.5 -555q0 -343 -172 -544t-465 -201q-202 0 -337 85.5t-224 270.5z " />
<glyph unicode="&#x42e;" horiz-adv-x="2177" d="M197 0v1464h170v-665h352q26 309 206.5 496.5t450.5 187.5q186 0 335.5 -97t234 -268.5t84.5 -384.5q0 -214 -83.5 -386t-231.5 -268.5t-333 -96.5q-264 0 -448 186.5t-213 482.5h-354v-651h-170zM897 731q0 -272 133.5 -440t349.5 -168q215 0 342 161.5t127 436.5 q0 278 -130.5 449t-344.5 171t-345.5 -168t-131.5 -442z" />
<glyph unicode="&#x42f;" horiz-adv-x="1415" d="M94 0v10q76 112 129 387q26 122 85 187.5t173 99.5q-94 22 -150.5 56t-97.5 94q-63 86 -63 225q0 208 141 321q59 46 137.5 65t208.5 19h562v-1464h-170v637h-291q-102 0 -165 -16.5t-108 -53.5q-44 -40 -64.5 -88.5t-49.5 -183.5q-43 -202 -107 -295h-170zM336 1059 q0 -285 323 -285h390v549h-412q-88 0 -142.5 -16.5t-91.5 -53.5q-67 -67 -67 -194z" />
<glyph unicode="&#x430;" horiz-adv-x="1120" d="M113 279q0 117 76 199t219 120q74 20 148 28t214 13v68q0 124 -51 182.5t-160 58.5q-84 0 -153.5 -30.5t-153.5 -102.5l-100 111q95 87 190.5 125.5t216.5 38.5q185 0 283 -98.5t98 -284.5v-478q0 -57 26 -78.5t95 -23.5v-133q-23 -2 -60 -2q-171 0 -221 153 q-70 -86 -148.5 -124.5t-180.5 -38.5q-149 0 -243.5 83t-94.5 214zM283 283q0 -78 51 -121t145 -43q127 0 209 66t82 169v164q-260 -9 -373.5 -63.5t-113.5 -171.5z" />
<glyph unicode="&#x431;" horiz-adv-x="1212" d="M135 743q0 470 111 629q41 60 90 94.5t117 51.5q105 24 219 24h340l-29 -147h-258q-170 0 -253.5 -31t-121.5 -109q-32 -61 -47 -149t-16 -229q85 115 173.5 164t213.5 49q217 0 332 -179q94 -142 94 -364q0 -255 -129.5 -410t-343.5 -155q-146 0 -255.5 66t-166.5 188 q-39 82 -54.5 194.5t-15.5 312.5zM309 535q0 -188 86.5 -300t231.5 -112q138 0 217.5 108t79.5 297q0 198 -78.5 309t-218.5 111q-143 0 -230.5 -113t-87.5 -300z" />
<glyph unicode="&#x432;" horiz-adv-x="1187" d="M197 0v1071h465q187 0 277.5 -72t90.5 -221q0 -75 -25.5 -124.5t-82.5 -86.5q88 -35 128 -96t40 -158q0 -154 -99.5 -233.5t-290.5 -79.5h-503zM362 137h359q94 0 148.5 47t54.5 129q0 80 -57.5 125t-159.5 45h-345v-346zM362 621h336q78 0 122 42.5t44 118.5 q0 152 -194 152h-308v-313z" />
<glyph unicode="&#x433;" horiz-adv-x="899" d="M197 0v1071h661v-141h-491v-930h-170z" />
<glyph unicode="&#x434;" horiz-adv-x="1181" d="M-29 141h101q182 271 182 832v98h723v-930h125v-448h-139l-21 307h-809l-22 -307h-140v448zM248 141h559v789h-401v-37q0 -101 -18 -250t-40 -240q-38 -138 -100 -262z" />
<glyph unicode="&#x435;" horiz-adv-x="1165" d="M113 532q0 248 135.5 403t353.5 155q212 0 334.5 -142.5t122.5 -390.5v-55h-770q7 -123 34.5 -194t86.5 -118q79 -67 208 -67q100 0 164.5 40t122.5 140l137 -78q-70 -124 -173 -183.5t-248 -59.5q-228 0 -368 151.5t-140 398.5zM295 639h590q-7 76 -20 120t-38 81 q-68 108 -225 108q-126 0 -202 -76t-105 -233z" />
<glyph unicode="&#x436;" horiz-adv-x="1548" d="M41 0l195 332q62 98 113.5 148t111.5 69q-56 27 -83 52.5t-51.5 73.5t-70.5 165q-23 59 -45.5 74.5t-85.5 15.5h-45v141h47q49 0 77.5 -2t57.5 -11.5t45 -22.5t37 -42t37 -62t41 -91q26 -59 40 -89t32.5 -60t29.5 -40.5t32.5 -20t40.5 -11t54 -1.5h41v453h166v-453h41 q34 0 53.5 1.5t40 11t32.5 20.5t29.5 40t32 60t39.5 89q25 57 41.5 90.5t37 62.5t37 42t45.5 22.5t57.5 11.5t76.5 2h47v-141h-45h-31t-24 -3t-19.5 -4.5t-15.5 -12.5t-14.5 -17.5t-14.5 -29t-17 -37.5t-21 -52q-41 -108 -74.5 -149.5t-104.5 -75.5q61 -17 113.5 -67.5 t112.5 -149.5l194 -332h-194l-191 332q-54 94 -100 129t-115 35h-49v-496h-166v496h-49q-69 0 -115 -35t-100 -129l-190 -332h-197z" />
<glyph unicode="&#x437;" horiz-adv-x="1079" d="M57 285l160 34q32 -100 107.5 -148t201.5 -48q122 0 193.5 49t71.5 133q0 85 -74.5 134.5t-200.5 49.5h-174v142h168q116 0 186 42.5t70 112.5q0 71 -65.5 116.5t-168.5 45.5q-106 0 -170 -35.5t-102 -115.5l-143 51q43 123 145.5 182.5t272.5 59.5q186 0 291.5 -80.5 t105.5 -221.5q0 -76 -32 -126t-107 -93q89 -37 131.5 -100t42.5 -160q0 -155 -116.5 -241t-326.5 -86q-252 0 -379 127q-35 35 -55 74t-33 102z" />
<glyph unicode="&#x438;" horiz-adv-x="1247" d="M197 0v1071h170v-731l514 610v121h170v-1071h-170v743l-514 -610v-133h-170z" />
<glyph unicode="&#x439;" horiz-adv-x="1247" d="M197 0v1071h170v-731l514 610v121h170v-1071h-170v743l-514 -610v-133h-170zM336 1538h133q3 -79 42.5 -120.5t113.5 -41.5q149 0 155 162h133q-2 -143 -75.5 -218t-212.5 -75t-213 75t-76 218z" />
<glyph unicode="&#x43a;" horiz-adv-x="1132" d="M197 0v1071h170v-457h77q36 0 57 1.5t43.5 11t35.5 21.5t31.5 40t34 60t40.5 88q26 59 43 92.5t38.5 63.5t39 43t47.5 22.5t60 11.5t81 2h47v-141h-45h-43.5t-31 -7t-24 -12t-20.5 -28t-23.5 -42t-29.5 -67q-44 -108 -80.5 -150.5t-111.5 -74.5q64 -19 119.5 -68.5 t121.5 -148.5l207 -332h-194l-195 315q-55 91 -108.5 127.5t-130.5 36.5h-86v-479h-170z" />
<glyph unicode="&#x43b;" horiz-adv-x="1196" d="M57 0q114 174 159.5 363.5t45.5 486.5v221h737v-1071h-170v930h-403v-160q0 -493 -176 -770h-193z" />
<glyph unicode="&#x43c;" horiz-adv-x="1521" d="M197 0v1071h241l328 -848l321 848h238v-1071h-160v887l-338 -887h-127l-348 891v-891h-155z" />
<glyph unicode="&#x43d;" horiz-adv-x="1241" d="M197 0v1071h170v-457h507v457h170v-1071h-170v473h-507v-473h-170z" />
<glyph unicode="&#x43e;" horiz-adv-x="1236" d="M113 541q0 236 143.5 392.5t361.5 156.5q221 0 363.5 -155.5t142.5 -397.5q0 -243 -142.5 -399t-363.5 -156t-363 157t-142 402zM289 535q0 -189 88 -300.5t237 -111.5q155 0 244.5 111t89.5 303q0 188 -89.5 299.5t-240.5 111.5q-152 0 -240.5 -111t-88.5 -302z" />
<glyph unicode="&#x43f;" d="M197 0v1071h839v-1071h-170v930h-499v-930h-170z" />
<glyph unicode="&#x440;" horiz-adv-x="1275" d="M197 -373v1444h170v-176q123 195 348 195q203 0 325.5 -150t122.5 -399q0 -253 -123 -406t-327 -153q-230 0 -346 190v-545h-170zM360 535q0 -196 85 -304t239 -108q303 0 303 401q0 203 -78.5 313.5t-224.5 110.5q-151 0 -237.5 -110t-86.5 -303z" />
<glyph unicode="&#x441;" horiz-adv-x="1107" d="M113 535q0 249 136 402t357 153q138 0 239.5 -57t176.5 -177l-135 -90q-66 103 -126.5 142.5t-152.5 39.5q-151 0 -235 -110t-84 -308q0 -195 84 -301t239 -106q103 0 171 42t132 146l132 -82q-150 -247 -435 -247q-221 0 -360 154t-139 399z" />
<glyph unicode="&#x442;" horiz-adv-x="858" d="M12 930v141h834v-141h-332v-930h-170v930h-332z" />
<glyph unicode="&#x443;" horiz-adv-x="1013" d="M41 1071h184l301 -815l277 815h178l-444 -1239q-78 -217 -277 -217q-119 0 -205 63l62 123q64 -45 135 -45q112 0 151 127l39 129z" />
<glyph unicode="&#x444;" horiz-adv-x="1730" d="M113 541q0 248 108.5 398.5t288.5 150.5t276 -175v627h158v-627q96 175 277 175q180 0 288.5 -150.5t108.5 -398.5q0 -252 -108.5 -405.5t-286.5 -153.5q-186 0 -279 178v-533h-158v533q-93 -178 -278 -178q-178 0 -286.5 153.5t-108.5 405.5zM289 528 q0 -198 61.5 -301.5t179.5 -103.5q128 0 195.5 105.5t67.5 306.5q0 193 -67.5 303t-186.5 110t-184.5 -110.5t-65.5 -309.5zM938 532q0 -198 67 -303.5t193 -105.5q119 0 181.5 103.5t62.5 299.5q0 201 -65.5 311.5t-184.5 110.5q-120 0 -187 -110.5t-67 -305.5z" />
<glyph unicode="&#x445;" horiz-adv-x="1069" d="M51 0l383 551l-358 520h198l263 -389l260 389h184l-354 -508l391 -563h-201l-289 432l-295 -432h-182z" />
<glyph unicode="&#x446;" horiz-adv-x="1214" d="M197 0v1071h170v-930h473v930h170v-930h125v-448h-140l-20 307h-778z" />
<glyph unicode="&#x447;" horiz-adv-x="1167" d="M147 633v438h170v-444q0 -64 14.5 -99.5t49.5 -58.5q60 -37 162 -37q112 0 185 52t73 132v455h170v-1071h-170v387q-107 -96 -285 -96q-198 0 -289 94q-44 43 -62 98.5t-18 149.5z" />
<glyph unicode="&#x448;" horiz-adv-x="1746" d="M197 0v1071h170v-930h421v930h170v-930h422v930h170v-1071h-1353z" />
<glyph unicode="&#x449;" horiz-adv-x="1755" d="M197 0v1071h170v-930h421v930h170v-930h422v930h170v-930h125v-448h-139l-20 307h-1319z" />
<glyph unicode="&#x44a;" horiz-adv-x="1204" d="M12 930v141h443v-375h266q109 0 179.5 -16.5t119.5 -54.5q115 -92 115 -277q0 -103 -38 -179.5t-110 -117.5q-84 -51 -266 -51h-432v930h-277zM455 137h293q107 0 164 54.5t57 156.5t-57 156.5t-164 54.5h-293v-422z" />
<glyph unicode="&#x44b;" horiz-adv-x="1564" d="M197 0v1071h165v-375h267q109 0 179.5 -16.5t119.5 -54.5q114 -91 114 -277q0 -103 -37.5 -179.5t-109.5 -117.5q-84 -51 -266 -51h-432zM362 137h293q107 0 164.5 55t57.5 156t-57.5 156t-164.5 55h-293v-422zM1198 0v1071h170v-1071h-170z" />
<glyph unicode="&#x44c;" horiz-adv-x="1112" d="M197 0v1071h165v-375h267q109 0 179.5 -16.5t119.5 -54.5q114 -91 114 -277q0 -103 -37.5 -179.5t-109.5 -117.5q-84 -51 -266 -51h-432zM362 137h293q107 0 164.5 55t57.5 156t-57.5 156t-164.5 55h-293v-422z" />
<glyph unicode="&#x44d;" horiz-adv-x="1099" d="M57 205l127 86q67 -92 138.5 -130t173.5 -38q143 0 222 87.5t91 260.5h-498v137h496q-15 167 -92.5 253.5t-210.5 86.5q-95 0 -157 -34.5t-134 -127.5l-129 86q76 114 175.5 166t238.5 52q211 0 342 -134q71 -75 109 -184t38 -237q0 -250 -137 -401.5t-363 -151.5 q-145 0 -248.5 53.5t-181.5 169.5z" />
<glyph unicode="&#x44e;" horiz-adv-x="1710" d="M197 0v1071h170v-469h247q23 221 157.5 354.5t332.5 133.5q215 0 354 -156t139 -397q0 -242 -139 -398.5t-354 -156.5q-195 0 -329.5 131t-160.5 348h-247v-461h-170zM786 535q0 -188 85 -300t227 -112q148 0 233.5 111t85.5 303q0 188 -85.5 299.5t-229.5 111.5 q-146 0 -231 -111t-85 -302z" />
<glyph unicode="&#x44f;" horiz-adv-x="1181" d="M96 0v39q54 67 94 262q15 71 48 115.5t90 72.5q-92 38 -134 105.5t-42 175.5q0 166 108 242q42 32 104 45.5t164 13.5h457v-1071h-166v438h-233q-119 0 -172 -45q-30 -26 -43.5 -58t-32.5 -122q-36 -153 -80 -213h-162zM317 770q0 -92 56 -143.5t157 -51.5h289v359h-307 q-195 0 -195 -164z" />
<glyph unicode="&#x451;" horiz-adv-x="1165" d="M113 532q0 248 135.5 403t353.5 155q212 0 334.5 -142.5t122.5 -390.5v-55h-770q7 -123 34.5 -194t86.5 -118q79 -67 208 -67q100 0 164.5 40t122.5 140l137 -78q-70 -124 -173 -183.5t-248 -59.5q-228 0 -368 151.5t-140 398.5zM295 639h590q-7 76 -20 120t-38 81 q-68 108 -225 108q-126 0 -202 -76t-105 -233zM307 1384q0 43 33 76t76 33t75.5 -33t32.5 -76t-32.5 -75.5t-75.5 -32.5t-76 32.5t-33 75.5zM680 1384q0 43 32.5 76t75.5 33t76 -33t33 -76t-33 -75.5t-76 -32.5t-75.5 32.5t-32.5 75.5z" />
<glyph unicode="&#x452;" horiz-adv-x="1251" d="M49 1227v141h156v174h170v-174h264v-141h-264v-320q100 183 332 183q175 0 267.5 -109.5t92.5 -316.5v-396q0 -245 -33 -366t-121 -193q-56 -49 -124.5 -70t-178.5 -26l-10 129q93 6 139 24.5t80 63.5q43 54 60.5 150t17.5 280v416q0 138 -56 202t-177 64 q-131 0 -210 -78.5t-79 -208.5v-655h-170v1227h-156z" />
<glyph unicode="&#x453;" horiz-adv-x="899" d="M197 0v1071h661v-141h-491v-930h-170zM430 1210l119 332h223l-225 -332h-117z" />
<glyph unicode="&#x454;" horiz-adv-x="1107" d="M113 535q0 252 136 403.5t363 151.5q137 0 236 -51.5t174 -161.5l-135 -91q-66 92 -124.5 127t-144.5 35q-144 0 -226 -86t-99 -254h495v-137h-497q27 -348 332 -348q97 0 162 38t130 130l132 -82q-148 -227 -424 -227q-227 0 -368.5 153t-141.5 400z" />
<glyph unicode="&#x455;" horiz-adv-x="1042" d="M82 188l123 101q72 -95 139 -130.5t174 -35.5q118 0 181 43t63 121q0 79 -62 119q-30 21 -57.5 30t-157.5 41q-143 38 -200 74q-135 85 -135 242q0 138 97.5 217.5t266.5 79.5q124 0 208.5 -35.5t162.5 -120.5l-111 -113q-66 72 -123 99.5t-137 27.5q-95 0 -147 -38 t-52 -107t54 -107q26 -18 59.5 -29t132.5 -38q107 -27 156.5 -44.5t83.5 -41.5q127 -86 127 -242q0 -146 -110 -232.5t-296 -86.5q-142 0 -248.5 50t-191.5 156z" />
<glyph unicode="&#x456;" horiz-adv-x="571" d="M170 1384q0 46 33.5 79.5t79.5 33.5t79 -33.5t33 -79.5t-33 -79t-79 -33t-79.5 33t-33.5 79zM201 0v1071h170v-1071h-170z" />
<glyph unicode="&#x457;" horiz-adv-x="571" d="M-10 1384q0 43 32.5 76t75.5 33t76 -33t33 -76t-33 -75.5t-76 -32.5t-75.5 32.5t-32.5 75.5zM201 0v1071h170v-1071h-170zM362 1384q0 43 33 76t76 33t76 -33t33 -76t-33 -75.5t-76 -32.5t-76 32.5t-33 75.5z" />
<glyph unicode="&#x458;" horiz-adv-x="571" d="M-45 -356l39 129q48 -21 80 -21q127 0 127 135v1184h170v-1165q0 -144 -72 -219.5t-207 -75.5q-75 0 -137 33zM170 1384q0 46 33.5 79.5t79.5 33.5t79 -33.5t33 -79.5t-33 -79t-79 -33t-79.5 33t-33.5 79z" />
<glyph unicode="&#x459;" horiz-adv-x="1744" d="M57 0q111 172 158 367t47 483v221h737v-387h263q110 0 180 -17t117 -55q116 -88 116 -270q0 -209 -147 -293q-85 -49 -266 -49h-433v930h-401v-160q0 -238 -45.5 -439t-130.5 -331h-195zM999 137h289q107 0 164 52.5t57 152.5q0 99 -57 152t-164 53h-289v-410z" />
<glyph unicode="&#x45a;" horiz-adv-x="1773" d="M197 0v1071h170v-420h491v420h166v-387h266q110 0 180 -17t117 -55q117 -88 117 -270q0 -208 -148 -293q-85 -49 -266 -49h-432v510h-491v-510h-170zM1024 137h293q107 0 164 52.5t57 152.5q0 99 -57 152t-164 53h-293v-410z" />
<glyph unicode="&#x45b;" horiz-adv-x="1241" d="M49 1227v141h156v174h170v-174h264v-141h-264v-320q100 183 325 183q172 0 263.5 -109.5t91.5 -316.5v-664h-170v676q0 138 -55 202t-173 64q-129 0 -205.5 -78t-76.5 -209v-655h-170v1227h-156z" />
<glyph unicode="&#x45c;" horiz-adv-x="1132" d="M197 0v1071h170v-457h77q36 0 57 1.5t43.5 11t35.5 21.5t31.5 40t34 60t40.5 88q26 59 43 92.5t38.5 63.5t39 43t47.5 22.5t60 11.5t81 2h47v-141h-45h-43.5t-31 -7t-24 -12t-20.5 -28t-23.5 -42t-29.5 -67q-44 -108 -80.5 -150.5t-111.5 -74.5q64 -19 119.5 -68.5 t121.5 -148.5l207 -332h-194l-195 315q-55 91 -108.5 127.5t-130.5 36.5h-86v-479h-170zM518 1210l119 332h223l-225 -332h-117z" />
<glyph unicode="&#x45e;" horiz-adv-x="1013" d="M41 1071h184l301 -815l277 815h178l-444 -1239q-78 -217 -277 -217q-119 0 -205 63l62 123q64 -45 135 -45q112 0 151 127l39 129zM219 1538h133q3 -79 42.5 -120.5t113.5 -41.5t113.5 41.5t42.5 120.5h133q-2 -143 -76 -218t-213 -75t-213 75t-76 218z" />
<glyph unicode="&#x45f;" horiz-adv-x="1206" d="M197 0v1071h170v-930h473v930h170v-1071h-318l-20 -307h-137l-21 307h-317z" />
<glyph unicode="&#x490;" horiz-adv-x="1085" d="M197 0v1464h692l31 238h124v-379h-677v-1323h-170z" />
<glyph unicode="&#x491;" horiz-adv-x="899" d="M197 0v1071h508l20 213h133v-354h-496v-930h-165z" />
<glyph unicode="&#x4c0;" horiz-adv-x="595" d="M213 0v1464h170v-1464h-170z" />
<glyph unicode="&#x2000;" horiz-adv-x="967" />
<glyph unicode="&#x2001;" horiz-adv-x="1935" />
<glyph unicode="&#x2002;" horiz-adv-x="967" />
<glyph unicode="&#x2003;" horiz-adv-x="1935" />
<glyph unicode="&#x2004;" horiz-adv-x="645" />
<glyph unicode="&#x2005;" horiz-adv-x="483" />
<glyph unicode="&#x2006;" horiz-adv-x="322" />
<glyph unicode="&#x2007;" horiz-adv-x="322" />
<glyph unicode="&#x2008;" horiz-adv-x="241" />
<glyph unicode="&#x2009;" horiz-adv-x="387" />
<glyph unicode="&#x200a;" horiz-adv-x="107" />
<glyph unicode="&#x2010;" horiz-adv-x="616" d="M90 588v162h436v-162h-436z" />
<glyph unicode="&#x2011;" horiz-adv-x="616" d="M90 588v162h436v-162h-436z" />
<glyph unicode="&#x2012;" horiz-adv-x="616" d="M90 588v162h436v-162h-436z" />
<glyph unicode="&#x2013;" d="M98 594v147h1037v-147h-1037z" />
<glyph unicode="&#x2014;" d="M-82 594v147h1397v-147h-1397z" />
<glyph unicode="&#x2018;" horiz-adv-x="604" d="M164 1223q0 165 80 254q33 38 73 56.5t107 29.5v-97q-120 -37 -129 -180q67 -3 104 -37.5t37 -93.5q0 -57 -36 -93t-93 -36q-68 0 -105.5 51.5t-37.5 145.5z" />
<glyph unicode="&#x2019;" horiz-adv-x="604" d="M168 1434q0 57 36 93t93 36q68 0 105.5 -51.5t37.5 -145.5q0 -165 -80 -254q-33 -38 -73 -56.5t-107 -29.5v96q120 37 129 181q-67 3 -104 37.5t-37 93.5z" />
<glyph unicode="&#x201a;" horiz-adv-x="604" d="M168 96q0 57 36 93t93 36q68 0 105.5 -51.5t37.5 -144.5q0 -165 -80 -254q-33 -38 -73 -56.5t-107 -29.5v96q120 37 129 180q-67 3 -104 37.5t-37 93.5z" />
<glyph unicode="&#x201c;" horiz-adv-x="983" d="M164 1223q0 165 80 254q33 38 73 56.5t107 29.5v-97q-120 -37 -129 -180q67 -3 104 -37.5t37 -93.5q0 -57 -36 -93t-93 -36q-68 0 -105.5 51.5t-37.5 145.5zM543 1223q0 165 80 254q33 38 73 56.5t107 29.5v-97q-120 -37 -129 -180q67 -3 104 -37.5t37 -93.5 q0 -57 -36 -93t-93 -36q-68 0 -105.5 51.5t-37.5 145.5z" />
<glyph unicode="&#x201d;" horiz-adv-x="983" d="M168 1434q0 57 36 93t93 36q68 0 105.5 -51.5t37.5 -145.5q0 -165 -80 -254q-33 -38 -73 -56.5t-107 -29.5v96q120 37 129 181q-67 3 -104 37.5t-37 93.5zM547 1434q0 57 36 93t93 36q68 0 105.5 -51.5t37.5 -145.5q0 -165 -80 -254q-33 -38 -73 -56.5t-107 -29.5v96 q120 37 129 181q-67 3 -104 37.5t-37 93.5z" />
<glyph unicode="&#x201e;" horiz-adv-x="983" d="M168 96q0 57 36 93t93 36q68 0 105.5 -51.5t37.5 -144.5q0 -165 -80 -254q-33 -38 -73 -56.5t-107 -29.5v96q120 37 129 180q-67 3 -104 37.5t-37 93.5zM547 96q0 57 36 93t93 36q68 0 105.5 -51.5t37.5 -144.5q0 -165 -80 -254q-33 -38 -73 -56.5t-107 -29.5v96 q120 37 129 180q-67 3 -104 37.5t-37 93.5z" />
<glyph unicode="&#x2026;" horiz-adv-x="1849" d="M178 121q0 55 38 93t93 38q54 0 92.5 -38.5t38.5 -92.5t-38.5 -92.5t-92.5 -38.5q-55 0 -93 38t-38 93zM795 121q0 55 37.5 93t93.5 38q54 0 92.5 -38.5t38.5 -92.5t-38.5 -92.5t-92.5 -38.5q-56 0 -93.5 38t-37.5 93zM1411 121q0 55 37.5 93t93.5 38q54 0 92.5 -38.5 t38.5 -92.5t-38.5 -92.5t-92.5 -38.5q-56 0 -93.5 38t-37.5 93z" />
<glyph unicode="&#x202f;" horiz-adv-x="387" />
<glyph unicode="&#x2039;" horiz-adv-x="708" d="M145 494l267 405h168l-256 -405l256 -406h-168z" />
<glyph unicode="&#x203a;" horiz-adv-x="708" d="M129 88l256 406l-256 405h168l266 -405l-266 -406h-168z" />
<glyph unicode="&#x205f;" horiz-adv-x="483" />
<glyph unicode="&#x20ac;" d="M4 516v129h160q-4 40 -4 82l2 86h-158v129h174q31 147 74.5 237t120.5 167q144 141 360 141t336 -141q42 -48 70.5 -103t60.5 -149l-149 -41q-57 163 -128.5 228t-195.5 65q-204 0 -307 -183q-26 -45 -41.5 -93t-30.5 -128h455v-129h-467q-2 -25 -2 -82q0 -66 2 -86h467 v-129h-453q41 -204 132.5 -298.5t248.5 -94.5q132 0 210 70.5t132 238.5l150 -51q-34 -102 -69 -163t-89 -112q-130 -124 -334 -124q-241 0 -391 172q-63 72 -98 150t-64 212h-174z" />
<glyph unicode="&#x2122;" horiz-adv-x="1515" d="M94 1374v90h514v-90h-194v-569h-119v569h-201zM725 805v659h156l182 -512l180 512h164v-659h-119v514l-184 -514h-90l-187 514v-514h-102z" />
<glyph unicode="&#xe000;" horiz-adv-x="1075" d="M0 0v1075h1075v-1075h-1075z" />
</font>
</defs>
</svg>
