<?xml version="1.0" standalone="no"?>
<!DOCTYPE svg PUBLIC "-//W3C//DTD SVG 1.1//EN" "http://www.w3.org/Graphics/SVG/1.1/DTD/svg11.dtd" >
<svg xmlns="http://www.w3.org/2000/svg">
<metadata></metadata>
<defs>
<font id="texgyreheroscnbold_italic" horiz-adv-x="933" >
<font-face units-per-em="2048" ascent="1624" descent="-424" />
<missing-glyph horiz-adv-x="466" />
<glyph unicode="IJ" horiz-adv-x="1415" d="M55 0l258 1470h252l-258 -1470h-252zM526 274q0 90 33 281h236q-25 -162 -25 -215q0 -67 27.5 -98t87.5 -31q76 0 115 47.5t61 167.5l182 1044h252l-182 -1044q-80 -463 -461 -463q-166 0 -246 76.5t-80 234.5z" />
<glyph unicode="ij" horiz-adv-x="935" d="M55 0l191 1090h233l-190 -1090h-234zM276 1266l41 235h234l-41 -235h-234zM334 -438l41 229h41q37 0 57 23t29 77l209 1199h235l-209 -1205q-32 -183 -106.5 -253t-237.5 -70h-59zM743 1266l41 235h234l-41 -235h-234z" />
<glyph unicode="fk" horiz-adv-x="1492" d="M84 0l154 885h-129l36 205h129l15 88q26 160 108 235.5t224 75.5q44 0 106 -4l-41 -232h-65q-55 0 -71.5 -19.5t-31.5 -100.5l-8 -43h154l-37 -205h-154l-154 -885h-235zM614 0l256 1470h236l-139 -794l366 414h289l-389 -422l209 -668h-283l-131 467l-119 -123l-59 -344 h-236z" />
<glyph unicode="ff" horiz-adv-x="1081" d="M84 0l154 885h-129l36 205h129l15 88q26 160 108 235.5t224 75.5q44 0 106 -4l-41 -232h-65q-55 0 -71.5 -19.5t-31.5 -100.5l-8 -43h295l14 88q26 160 108 235.5t224 75.5q44 0 106 -4l-40 -232h-66q-55 0 -71 -19.5t-31 -100.5l-9 -43h154l-37 -205h-153l-154 -885 h-236l154 885h-295l-154 -885h-235z" />
<glyph unicode="fi" horiz-adv-x="1026" d="M84 0l154 885h-129l36 205h129l15 88q26 160 108 235.5t224 75.5q44 0 106 -4l-41 -232h-65q-55 0 -71.5 -19.5t-31.5 -100.5l-8 -43h154l-37 -205h-154l-154 -885h-235zM616 0l191 1090h233l-190 -1090h-234zM838 1266l41 235h233l-41 -235h-233z" />
<glyph unicode="fl" horiz-adv-x="1026" d="M84 0l154 885h-129l36 205h129l15 88q26 160 108 235.5t224 75.5q44 0 106 -4l-41 -232h-65q-55 0 -71.5 -19.5t-31.5 -100.5l-8 -43h154l-37 -205h-154l-154 -885h-235zM614 0l256 1470h236l-256 -1470h-236z" />
<glyph unicode="ffi" horiz-adv-x="1556" d="M84 0l154 885h-129l36 205h129l15 88q26 160 108 235.5t224 75.5q44 0 106 -4l-41 -232h-65q-55 0 -71.5 -19.5t-31.5 -100.5l-8 -43h295l14 88q26 160 108 235.5t224 75.5q44 0 106 -4l-40 -232h-66q-55 0 -71 -19.5t-31 -100.5l-9 -43h154l-37 -205h-153l-154 -885 h-236l154 885h-295l-154 -885h-235zM1147 0l190 1090h234l-191 -1090h-233zM1368 1266l41 235h233l-40 -235h-234z" />
<glyph unicode="ffl" horiz-adv-x="1556" d="M84 0l154 885h-129l36 205h129l15 88q26 160 108 235.5t224 75.5q44 0 106 -4l-41 -232h-65q-55 0 -71.5 -19.5t-31.5 -100.5l-8 -43h295l14 88q26 160 108 235.5t224 75.5q44 0 106 -4l-40 -232h-66q-55 0 -71 -19.5t-31 -100.5l-9 -43h154l-37 -205h-153l-154 -885 h-236l154 885h-295l-154 -885h-235zM1145 0l256 1470h235l-256 -1470h-235z" />
<glyph unicode=" "  horiz-adv-x="466" />
<glyph unicode="&#x09;" horiz-adv-x="466" />
<glyph unicode="&#xa0;" horiz-adv-x="466" />
<glyph unicode="!" horiz-adv-x="559" d="M96 0l51 289h244l-49 -289h-246zM227 408l54 688l65 374h258l-65 -374l-187 -688h-125z" />
<glyph unicode="&#x22;" horiz-adv-x="796" d="M262 915l96 555h166l-98 -555h-164zM563 915l99 555h163l-96 -555h-166z" />
<glyph unicode="#" d="M39 408l53 184h162l72 246h-164l53 184h164l117 408h157l-116 -408h161l119 408h158l-119 -408h164l-53 -184h-162l-72 -246h164l-53 -184h-164l-117 -408h-157l116 408h-162l-118 -408h-158l119 408h-164zM412 592h163l72 246h-164z" />
<glyph unicode="$" d="M51 270q0 54 17 170h219q-6 -58 -6 -104q0 -66 26.5 -100.5t91.5 -53.5l76 430q-163 57 -226 128.5t-63 197.5q0 105 43.5 214t114.5 181q58 60 119.5 86.5t157.5 34.5l24 133h76l-23 -133q154 -26 219.5 -103.5t65.5 -215.5q0 -45 -6 -109h-215q4 66 4 82q0 67 -24 97 t-80 32l-68 -383q127 -56 190.5 -102t89 -101.5t25.5 -144.5q0 -135 -53.5 -251t-160 -195t-247.5 -95l-35 -201h-75l34 201q-172 24 -241.5 96t-69.5 209zM410 1030q0 -60 25 -92.5t87 -54.5l62 354q-79 -9 -126.5 -65.5t-47.5 -141.5zM477 182q83 10 135 77t52 163 q0 57 -28 93.5t-91 62.5z" />
<glyph unicode="%" horiz-adv-x="1492" d="M168 911q0 157 40.5 279.5t118.5 193t181 70.5q207 0 207 -235q0 -240 -91.5 -389.5t-246.5 -149.5q-103 0 -156 58.5t-53 172.5zM279 -39l929 1493h123l-928 -1493h-124zM332 905q0 -84 65 -84q55 0 80 49q26 46 50 162t24 199q0 82 -66 82q-55 0 -79 -47 q-28 -53 -51 -165.5t-23 -195.5zM905 207q0 241 92.5 392t247.5 151q207 0 207 -236q0 -240 -91.5 -389.5t-246.5 -149.5q-103 0 -156 59t-53 173zM1069 201q0 -84 66 -84q54 0 79 49q26 46 50 161t24 199q0 82 -67 82q-36 0 -66 -38.5t-48 -99.5t-28 -131t-10 -138z" />
<glyph unicode="&#x26;" horiz-adv-x="1212" d="M88 295q0 310 313 512l29 18q-63 120 -63 234q0 169 112 290t269 121q112 0 180.5 -72.5t68.5 -191.5q0 -252 -268 -426l127 -258q66 101 102 242h209q-36 -145 -82 -238.5t-133 -203.5l162 -322h-283l-61 125q-92 -89 -175 -126.5t-187 -37.5q-146 0 -233 91t-87 243z M332 362q0 -72 38 -115.5t101 -43.5q51 0 100 24t111 78l-164 338q-86 -68 -126 -113.5t-50 -78.5t-10 -89zM586 1110q0 -56 59 -160q79 57 112.5 106t33.5 109q0 41 -22 64.5t-60 23.5q-51 0 -87 -42t-36 -101z" />
<glyph unicode="'" horiz-adv-x="399" d="M215 915l96 555h166l-96 -555h-166z" />
<glyph unicode="(" horiz-adv-x="559" d="M66 258q0 317 112.5 609t376.5 636h172q-232 -361 -331 -684.5t-99 -658.5q0 -148 20 -272.5t74 -311.5h-174q-83 201 -117 354t-34 328z" />
<glyph unicode=")" horiz-adv-x="559" d="M-104 -424q229 352 329.5 678t100.5 664q0 146 -20.5 270.5t-74.5 314.5h175q84 -206 117.5 -358t33.5 -328q0 -314 -115 -611t-374 -630h-172z" />
<glyph unicode="*" horiz-adv-x="653" d="M184 1147l66 149l158 -69l43 243h141l-41 -243l180 69l14 -149l-186 -66l80 -198l-121 -90l-82 186l-147 -186l-90 90l149 198z" />
<glyph unicode="+" horiz-adv-x="980" d="M158 424v176h286v287h177v-287h284v-176h-284v-285h-177v285h-286z" />
<glyph unicode="," horiz-adv-x="466" d="M-14 -344l18 108q78 29 117.5 81t64.5 155h-141l53 299h252l-45 -258q-58 -324 -319 -385z" />
<glyph unicode="-" horiz-adv-x="559" d="M61 440l48 267h466l-47 -267h-467z" />
<glyph unicode="." horiz-adv-x="466" d="M45 0l53 299h252l-53 -299h-252z" />
<glyph unicode="/" horiz-adv-x="466" d="M-123 -39l649 1548h197l-649 -1548h-197z" />
<glyph unicode="0" d="M84 365q0 241 70.5 514.5t164.5 396.5q135 178 340 178q316 0 316 -399q0 -253 -68.5 -519.5t-165.5 -394.5q-135 -180 -340 -180q-84 0 -146.5 30.5t-99 86t-54 127t-17.5 160.5zM319 365q0 -175 121 -175q97 0 154 111q50 98 98.5 347.5t48.5 406.5q0 170 -120 170 q-95 0 -148 -99.5t-100 -349.5q-54 -285 -54 -411z" />
<glyph unicode="1" d="M229 1001l35 201h33q271 0 338 252h192l-254 -1454h-235l176 1001h-285z" />
<glyph unicode="2" d="M-18 0q31 152 83.5 252.5t146 193t280.5 234.5q134 102 190.5 189t56.5 186q0 74 -36.5 115.5t-100.5 41.5q-88 0 -137 -62t-78 -210h-227q107 514 481 514q155 0 246.5 -94.5t91.5 -255.5q0 -115 -41 -224t-115 -196q-43 -49 -78 -78t-206 -157q-112 -85 -150 -119.5 t-65 -75.5h518l-45 -254h-815z" />
<glyph unicode="3" d="M49 293q0 68 14 153h230q-10 -54 -10 -90q0 -78 35.5 -122t101.5 -44q91 0 157 86.5t66 206.5q0 83 -53 117.5t-182 36.5l36 205h37q116 0 177 65t61 178q0 68 -31.5 104t-91.5 36q-158 0 -201 -238h-217q45 229 166 348t301 119q147 0 231.5 -82.5t84.5 -226.5 q0 -260 -205 -375q133 -68 133 -244q0 -148 -67.5 -278.5t-184 -208.5t-250.5 -78q-157 0 -247.5 89t-90.5 243z" />
<glyph unicode="4" d="M41 322l43 247l592 885h266l-158 -909h131l-38 -223h-132l-57 -322h-233l55 322h-469zM252 545h297l115 633z" />
<glyph unicode="5" d="M47 293q0 37 6 96h236q-2 -18 -2 -43q0 -73 34.5 -114.5t96.5 -41.5q96 0 164.5 104t68.5 249q0 88 -36 134t-105 46q-101 0 -170 -105l-209 13l221 799h656l-43 -242h-484l-98 -316q61 43 111 61.5t110 18.5q135 0 216 -95t81 -253q0 -162 -65.5 -308.5t-188 -240.5 t-272.5 -94q-147 0 -237.5 91.5t-90.5 240.5z" />
<glyph unicode="6" d="M82 373q0 191 49 417t121 365q73 144 183 221.5t239 77.5q303 0 303 -317v-52h-234l2 25q0 54 -29.5 84.5t-82.5 30.5q-94 0 -156 -95t-115 -317q55 69 112.5 98t135.5 29q137 0 216 -92t79 -252q0 -117 -38.5 -232t-103.5 -204t-158.5 -144t-196.5 -55 q-157 0 -241.5 107t-84.5 305zM301 383q0 -88 39 -140.5t104 -52.5q90 0 156 105t66 248q0 77 -37.5 122.5t-100.5 45.5q-96 0 -161.5 -95t-65.5 -233z" />
<glyph unicode="7" d="M147 0q148 639 631 1176h-594l49 254h842l-39 -222q-249 -273 -407 -569t-240 -639h-242z" />
<glyph unicode="8" d="M55 305q0 323 254 467q-56 42 -79 88.5t-23 116.5q0 198 131.5 337.5t318.5 139.5q145 0 230.5 -82.5t85.5 -220.5q0 -120 -50 -214.5t-145 -154.5q71 -54 99 -107t28 -136q0 -89 -25 -175.5t-71.5 -158.5t-108 -127t-139.5 -86t-162 -31q-163 0 -253.5 90.5t-90.5 253.5 zM303 354q0 -77 36.5 -120.5t100.5 -43.5q88 0 151.5 86t63.5 205q0 78 -36.5 122t-100.5 44q-91 0 -153 -84.5t-62 -208.5zM434 1006q0 -63 34 -102.5t89 -39.5q76 0 129 66t53 160q0 63 -30.5 99t-85.5 36q-78 0 -133.5 -63.5t-55.5 -155.5z" />
<glyph unicode="9" d="M70 276q0 37 2 60h233q0 -76 25.5 -111t83.5 -35q91 0 158 94.5t114 321.5q-54 -69 -112 -99t-140 -30q-134 0 -212.5 92t-78.5 250q0 125 37.5 240.5t102.5 203t160 139.5t204 52q157 0 240.5 -108t83.5 -310q0 -231 -69.5 -486.5t-166.5 -383.5q-156 -205 -364 -205 q-135 0 -218 87t-83 228zM385 868q0 -78 34.5 -119.5t98.5 -41.5q99 0 164.5 95.5t65.5 239.5q0 85 -36.5 131t-103.5 46q-98 0 -160.5 -98t-62.5 -253z" />
<glyph unicode=":" horiz-adv-x="559" d="M92 0l51 299h254l-53 -299h-252zM223 750l53 299h252l-51 -299h-254z" />
<glyph unicode=";" horiz-adv-x="559" d="M33 -344l18 108q78 29 117.5 81t64.5 155h-141l53 299h252l-45 -258q-33 -172 -123.5 -273t-195.5 -112zM223 750l53 299h252l-51 -299h-254z" />
<glyph unicode="&#x3c;" horiz-adv-x="980" d="M209 453v118l579 652v-267l-395 -444l395 -444v-267z" />
<glyph unicode="=" horiz-adv-x="980" d="M158 240v176h747v-176h-747zM158 608v176h747v-176h-747z" />
<glyph unicode="&#x3e;" horiz-adv-x="980" d="M209 68l395 444l-395 444v267l579 -652v-118l-579 -652v267z" />
<glyph unicode="?" horiz-adv-x="1026" d="M215 1010q51 238 179 358.5t311 120.5q160 0 260 -87.5t100 -244.5q0 -149 -60.5 -253.5t-218.5 -227.5q-72 -56 -99 -102.5t-46 -147.5h-221q28 164 73.5 242.5t168.5 173.5q78 60 111.5 121t33.5 139q0 69 -35.5 107t-101.5 38q-75 0 -132 -57.5t-79 -147.5l-6 -32 h-238zM338 0l51 289h244l-49 -289h-246z" />
<glyph unicode="@" horiz-adv-x="1638" d="M250 573q0 179 67 351t176 300t257 206.5t301 78.5q212 0 350.5 -144t138.5 -364q0 -130 -49.5 -262.5t-127 -232t-177.5 -162.5t-195 -63q-31 0 -52 23t-21 58q0 9 4 33q-111 -114 -203 -114q-91 0 -152 79.5t-61 196.5q0 98 39.5 203.5t102 189.5t147 138.5t168.5 54.5 q68 0 110 -31.5t68 -101.5l41 108h147l-188 -522q-29 -83 -29 -104q0 -25 21 -25q63 0 124.5 70.5t100.5 184t39 230.5q0 181 -101.5 287.5t-273.5 106.5q-159 0 -298.5 -104t-222.5 -280.5t-83 -377.5q0 -209 110.5 -334t296.5 -125q102 0 193.5 39.5t189.5 126.5h150 q-143 -179 -279.5 -254.5t-292.5 -75.5q-236 0 -386 171t-150 441zM694 614q0 -60 28 -94.5t77 -34.5q59 0 118.5 49t97.5 126.5t38 154.5q0 57 -30 93t-77 36q-59 0 -118 -49t-96.5 -126.5t-37.5 -154.5z" />
<glyph unicode="A" horiz-adv-x="1212" d="M-29 0l688 1470h291l168 -1470h-274l-25 303h-444l-137 -303h-267zM485 557h308l-48 588z" />
<glyph unicode="B" horiz-adv-x="1212" d="M66 0l256 1470h587q149 0 230.5 -76.5t81.5 -217.5q0 -266 -207 -383q73 -43 104 -99.5t31 -148.5q0 -106 -38 -208.5t-107 -178.5q-82 -91 -173 -124.5t-256 -33.5h-509zM352 254h310q107 0 170 74t63 182q0 64 -41 100.5t-113 36.5h-321zM463 895h297q95 0 153 56.5 t58 150.5q0 59 -39.5 87t-122.5 28h-289z" />
<glyph unicode="C" horiz-adv-x="1212" d="M119 494q0 277 93 509.5t258 369t366 136.5q192 0 310 -122.5t118 -323.5q0 -41 -2 -74h-254q-6 130 -57 192t-156 62q-118 0 -213.5 -96t-148 -255t-52.5 -347q0 -152 59 -235t168 -83q105 0 182 65.5t134 211.5h252q-198 -543 -617 -543q-208 0 -324 139t-116 394z" />
<glyph unicode="D" horiz-adv-x="1212" d="M66 0l256 1470h534q188 0 287.5 -122t99.5 -353q0 -189 -49 -369t-133.5 -318.5t-208.5 -223t-264 -84.5h-522zM356 254h246q109 0 197.5 102t135 259.5t46.5 330.5q0 138 -52 204.5t-161 66.5h-244z" />
<glyph unicode="E" horiz-adv-x="1120" d="M66 0l256 1470h886l-45 -260h-641l-53 -309h588l-45 -260h-588l-66 -381h668l-45 -260h-915z" />
<glyph unicode="F" horiz-adv-x="1026" d="M66 0l256 1470h858l-45 -260h-607l-57 -331h530l-45 -261h-530l-109 -618h-251z" />
<glyph unicode="G" horiz-adv-x="1306" d="M121 510q0 196 56 378t153 319t237 219.5t299 82.5q201 0 323 -119t122 -315q0 -34 -2 -61h-252v12q0 95 -66 162t-160 67q-125 0 -229 -96.5t-162.5 -258.5t-58.5 -351q0 -157 70 -242.5t198 -85.5q115 0 203.5 76.5t155.5 247.5h-281l43 248h506l-139 -793h-168l6 184 q-109 -124 -200.5 -173.5t-213.5 -49.5q-203 0 -321.5 148t-118.5 401z" />
<glyph unicode="H" horiz-adv-x="1212" d="M57 0l256 1470h252l-96 -557h471l96 557h252l-256 -1470h-252l115 659h-471l-115 -659h-252z" />
<glyph unicode="I" horiz-adv-x="466" d="M45 0l258 1470h252l-258 -1470h-252z" />
<glyph unicode="J" d="M39 274q0 90 33 281h235q-24 -156 -24 -215q0 -68 27 -98.5t87 -30.5q76 0 115 47.5t61 167.5l183 1044h252l-183 -1044q-80 -463 -460 -463q-166 0 -246 76.5t-80 234.5z" />
<glyph unicode="K" horiz-adv-x="1212" d="M84 0l256 1470h252l-105 -598l566 598h325l-598 -602l371 -868h-326l-260 645l-143 -147l-86 -498h-252z" />
<glyph unicode="L" horiz-adv-x="1026" d="M66 0l256 1470h251l-208 -1204h600l-47 -266h-852z" />
<glyph unicode="M" horiz-adv-x="1398" d="M55 0l256 1470h383v-1167l420 1167h365l-256 -1470h-236l217 1247l-444 -1247h-252v1247l-217 -1247h-236z" />
<glyph unicode="N" horiz-adv-x="1212" d="M55 0l256 1470h264l304 -1032l178 1032h235l-256 -1470h-252l-311 1055l-182 -1055h-236z" />
<glyph unicode="O" horiz-adv-x="1306" d="M119 502q0 167 36 321t103 278t157 216t204 142t239 50q98 0 181.5 -34t146.5 -99.5t99 -169t36 -235.5q0 -212 -56 -399t-153.5 -321t-234.5 -212t-293 -78q-215 0 -340 145.5t-125 395.5zM377 555q0 -157 68 -245.5t188 -88.5q119 0 218.5 91.5t156.5 251t57 351.5 q0 155 -68 244.5t-186 89.5q-124 0 -225 -97.5t-155 -255.5t-54 -341z" />
<glyph unicode="P" horiz-adv-x="1120" d="M66 0l256 1470h550q145 0 225.5 -90.5t80.5 -251.5q0 -153 -61.5 -290t-173 -222.5t-245.5 -85.5h-288l-93 -530h-251zM455 784h233q111 0 172.5 80t61.5 211q0 73 -46.5 107.5t-146.5 34.5h-199z" />
<glyph unicode="Q" horiz-adv-x="1306" d="M119 500q0 212 56.5 399t154 321t235 211.5t293.5 77.5q208 0 335.5 -141t127.5 -399q0 -210 -59.5 -405.5t-178.5 -352.5l105 -152l-162 -165l-115 165q-89 -52 -166 -75t-163 -23q-207 0 -335 140t-128 399zM377 555q0 -157 67 -245.5t187 -88.5q66 0 143 39l-98 139 l160 166l102 -145q125 220 125 491q0 160 -67 249t-187 89q-121 0 -221 -94t-155.5 -253t-55.5 -347z" />
<glyph unicode="R" horiz-adv-x="1212" d="M66 0l256 1470h610q149 0 231 -85t82 -240q0 -143 -67.5 -264.5t-186.5 -175.5q60 -37 83.5 -77.5t23.5 -107.5q0 -53 -6 -101t-33 -198q-12 -71 -12 -117q0 -25 7 -39t27 -26l-6 -39h-280l-2 55q-1 37 23.5 205.5t23.5 190.5q0 69 -37.5 96.5t-130.5 27.5h-260 l-101 -575h-245zM457 823h295q119 0 176 69t57 183q0 69 -37.5 105.5t-109.5 36.5h-314z" />
<glyph unicode="S" horiz-adv-x="1120" d="M74 332q0 39 10 121h242q-4 -46 -4 -56q0 -88 58 -135t165 -47q127 0 203.5 60.5t76.5 160.5q0 54 -40.5 87t-147.5 65l-123 37q-101 30 -163.5 60t-96.5 70t-45.5 83t-11.5 110q0 156 67 283.5t192.5 202.5t284.5 75q193 0 297.5 -102t104.5 -268q0 -48 -8 -105h-240v43 q0 86 -53 132t-152 46q-110 0 -179 -59t-69 -154q0 -46 23.5 -71.5t81.5 -44.5l278 -88q135 -43 194.5 -113.5t59.5 -187.5q0 -247 -163 -411.5t-418 -164.5q-199 0 -311.5 100.5t-112.5 270.5z" />
<glyph unicode="T" horiz-adv-x="1026" d="M172 1210l45 260h981l-45 -260h-365l-210 -1210h-252l211 1210h-365z" />
<glyph unicode="U" horiz-adv-x="1212" d="M135 346q0 76 12 150l170 974h256l-165 -954q-9 -46 -9 -90q0 -101 46.5 -153t136.5 -52q114 0 184.5 71.5t95.5 209.5l170 968h256l-166 -956q-47 -269 -196 -411t-385 -142q-195 0 -300.5 100t-105.5 285z" />
<glyph unicode="V" horiz-adv-x="1120" d="M227 1470h334v-1122l459 1122h262l-666 -1470h-239z" />
<glyph unicode="W" horiz-adv-x="1585" d="M221 0v1470h273v-800v-287l358 1087h260v-1087l387 1087h256l-596 -1470h-227v1157l-391 -1157h-320z" />
<glyph unicode="X" horiz-adv-x="1120" d="M-39 0l520 752l-241 718h301l131 -475l303 475h291l-492 -706l260 -764h-307l-141 502l-330 -502h-295z" />
<glyph unicode="Y" horiz-adv-x="1120" d="M219 1470h297l139 -639l351 639h286l-565 -919l-94 -551h-254l98 555z" />
<glyph unicode="Z" horiz-adv-x="1026" d="M-20 0l45 260l790 950h-608l45 260h924l-43 -241l-801 -969h637l-47 -260h-942z" />
<glyph unicode="[" horiz-adv-x="559" d="M-27 -401l328 1880h414l-35 -197h-207l-260 -1487h209l-35 -196h-414z" />
<glyph unicode="\" horiz-adv-x="466" d="M145 1509h197l113 -1548h-197z" />
<glyph unicode="]" horiz-adv-x="559" d="M-90 -401l35 196h207l258 1487h-207l35 197h411l-327 -1880h-412z" />
<glyph unicode="^" horiz-adv-x="980" d="M158 662l436 768h168l168 -768h-185l-108 538l-297 -538h-182z" />
<glyph unicode="_" d="M-106 -256l18 102h934l-19 -102h-933z" />
<glyph unicode="`" horiz-adv-x="559" d="M154 1532h258l106 -299h-170z" />
<glyph unicode="a" d="M31 207q0 167 89.5 285.5t237.5 144.5l220 39q100 18 100 117q0 96 -127 96q-74 0 -114.5 -34.5t-65.5 -117.5h-226q60 208 164 294.5t291 86.5q152 0 235 -64.5t83 -183.5q0 -27 -7 -67l-102 -590q-10 -65 -10 -100q0 -53 32 -70l-8 -43h-254q-2 33 -2 59q0 31 4 70 q-85 -87 -155 -122.5t-156 -35.5q-107 0 -168 63t-61 173zM272 272q0 -44 25 -70t68 -26q86 0 158 63t87 152l25 139q-27 -21 -62 -33t-108 -26q-101 -22 -147 -69t-46 -130z" />
<glyph unicode="b" horiz-adv-x="1026" d="M41 0l256 1470h235l-92 -528q70 95 137.5 135.5t153.5 40.5q135 0 213 -103t78 -282q0 -194 -63 -368.5t-178 -284t-253 -109.5q-91 0 -146.5 41.5t-84.5 130.5l-27 -143h-229zM348 416q0 -98 42.5 -153.5t117.5 -55.5q73 0 134.5 65t95.5 169.5t34 220.5 q0 101 -39.5 154.5t-114.5 53.5q-80 0 -143.5 -68t-95 -170.5t-31.5 -215.5z" />
<glyph unicode="c" d="M72 348q0 208 66 382.5t191 281t283 106.5q151 0 241.5 -89.5t90.5 -240.5q0 -22 -4 -88h-238q-2 93 -30 135t-90 42q-78 0 -139.5 -68.5t-93.5 -179.5t-32 -242q0 -86 35.5 -133t100.5 -47q66 0 119 52t75 138h240q-63 -206 -188 -316t-296 -110q-161 0 -246 97t-85 280 z" />
<glyph unicode="d" horiz-adv-x="1026" d="M76 369q0 205 65 377.5t177 272t245 99.5q86 0 139.5 -41t90.5 -135l92 528h235l-256 -1470h-231l26 143q-61 -89 -132 -130.5t-162 -41.5q-137 0 -213 104.5t-76 293.5zM322 428q0 -107 37.5 -164t109.5 -57q117 0 195.5 129t78.5 321q0 213 -153 213 q-79 0 -141.5 -65.5t-94.5 -166t-32 -210.5z" />
<glyph unicode="e" d="M57 367q0 211 70 383t193.5 270t275.5 98q164 0 251 -102.5t87 -296.5q0 -72 -19 -201l-8 -51h-612q-6 -47 -6 -80q0 -89 43 -137.5t121 -48.5q120 0 176 118h241q-82 -182 -196 -265t-264 -83q-172 0 -262.5 101.5t-90.5 294.5zM334 653h364l2 54v11q0 73 -39 117 q-42 48 -108 48q-78 0 -131 -55t-88 -175z" />
<glyph unicode="f" horiz-adv-x="559" d="M84 0l154 885h-129l36 205h129l15 88q26 160 108 235.5t224 75.5q44 0 106 -4l-41 -232h-65q-55 0 -71.5 -19.5t-31.5 -100.5l-8 -43h154l-37 -205h-154l-154 -885h-235z" />
<glyph unicode="g" horiz-adv-x="1026" d="M2 -172q0 35 2 55h256q0 -61 31.5 -85.5t105.5 -24.5q101 0 158 59.5t80 190.5l24 141q-63 -95 -123 -132.5t-149 -37.5q-143 0 -223 101t-80 282q0 202 65.5 372.5t178 269.5t245.5 99q94 0 148 -46.5t80 -149.5l30 168h226l-180 -1033q-24 -138 -70 -236t-114 -155.5 t-150.5 -83.5t-188.5 -26q-166 0 -259 71.5t-93 200.5zM330 434q0 -95 38 -146.5t107 -51.5q77 0 138 60t92.5 154.5t31.5 202.5q0 101 -41 159t-112 58q-103 0 -178.5 -129t-75.5 -307z" />
<glyph unicode="h" horiz-adv-x="1026" d="M47 0l256 1470h236l-93 -530q103 178 297 178q117 0 184.5 -73t67.5 -199q0 -48 -8 -92l-131 -754h-235l114 662q10 62 10 92q0 59 -32 91t-90 32q-87 0 -149.5 -67.5t-82.5 -184.5l-108 -625h-236z" />
<glyph unicode="i" horiz-adv-x="466" d="M55 0l191 1090h233l-190 -1090h-234zM276 1266l41 235h234l-41 -235h-234z" />
<glyph unicode="j" horiz-adv-x="466" d="M-133 -438l41 229h41q37 0 57 23t29 77l209 1199h235l-209 -1205q-32 -183 -106.5 -253t-237.5 -70h-59zM276 1266l41 235h234l-41 -235h-234z" />
<glyph unicode="k" d="M55 0l256 1470h236l-139 -794l366 414h289l-389 -422l209 -668h-283l-131 467l-119 -123l-59 -344h-236z" />
<glyph unicode="l" horiz-adv-x="466" d="M55 0l256 1470h236l-256 -1470h-236z" />
<glyph unicode="m" horiz-adv-x="1492" d="M45 0l191 1090h225l-29 -166q66 105 134 149.5t161 44.5q86 0 131.5 -37t83.5 -137q71 95 133 134.5t144 39.5q113 0 180 -74t67 -198q0 -48 -8 -92l-131 -754h-235l114 662q8 58 8 83q0 132 -102 132q-75 0 -125 -58t-69 -166l-115 -653h-236l115 655q12 65 12 109 q0 113 -114 113q-147 0 -185 -213l-114 -664h-236z" />
<glyph unicode="n" horiz-adv-x="1026" d="M47 0l191 1090h225l-29 -166q71 104 141 149t164 45q120 0 188 -72t68 -200q0 -48 -8 -92l-131 -754h-235l114 662q10 62 10 92q0 59 -32 91t-90 32q-87 0 -149.5 -67.5t-82.5 -184.5l-108 -625h-236z" />
<glyph unicode="o" horiz-adv-x="1026" d="M76 389q0 152 44.5 287.5t120 232t181.5 153t225 56.5q172 0 271.5 -112t99.5 -306q0 -200 -75 -367.5t-207 -264.5t-290 -97q-172 0 -271 112t-99 306zM319 428q0 -215 170 -215q85 0 150.5 64.5t99 166.5t33.5 220q0 213 -170 213q-85 0 -151 -66t-99 -167t-33 -216z " />
<glyph unicode="p" horiz-adv-x="1026" d="M-31 -424l264 1514h226l-29 -164q73 106 141 149t160 43q135 0 213 -102.5t78 -282.5q0 -195 -63 -369.5t-178.5 -283.5t-254.5 -109q-90 0 -141 40t-82 134l-98 -569h-236zM350 414q0 -98 41.5 -152.5t116.5 -54.5q73 0 135 66t95.5 169.5t33.5 216.5q0 103 -39.5 157 t-114.5 54q-63 0 -115.5 -42t-85 -109.5t-50 -146.5t-17.5 -158z" />
<glyph unicode="q" horiz-adv-x="1026" d="M74 367q0 140 39 276t105 241t161 169.5t199 64.5q89 0 139 -44t84 -152l28 168h226l-264 -1514h-236l100 565q-62 -91 -128 -130.5t-158 -39.5q-140 0 -217.5 104.5t-77.5 291.5zM317 403q0 -92 40.5 -141t115.5 -49q113 0 189.5 127.5t76.5 316.5q0 98 -41.5 155.5 t-113.5 57.5q-78 0 -141 -70.5t-94.5 -176t-31.5 -220.5z" />
<glyph unicode="r" horiz-adv-x="653" d="M45 0l191 1090h225l-35 -195q82 129 142.5 176t146.5 47q3 0 8.5 -0.5t16 -1.5t20.5 -2l-51 -291q-23 4 -60 4q-114 0 -180.5 -64t-89.5 -196l-98 -567h-236z" />
<glyph unicode="s" d="M45 264q0 22 4 84h242q-2 -16 -2 -41q0 -57 43 -88t121 -31t128 35.5t50 91.5q0 72 -176 107q-310 58 -310 264q0 192 127.5 312t315.5 120q332 0 332 -291q0 -40 -2 -69h-232v37q0 106 -137 106q-72 0 -116 -32.5t-44 -86.5q0 -69 174 -104q161 -32 238.5 -97.5 t77.5 -170.5q0 -188 -130.5 -313.5t-338.5 -125.5q-170 0 -267.5 78t-97.5 215z" />
<glyph unicode="t" horiz-adv-x="559" d="M106 139q0 41 9 84l114 662h-120l34 205h123l51 294h236l-51 -294h145l-35 -205h-147l-103 -592q-6 -27 -6 -47q0 -22 20 -31.5t66 -9.5q2 0 52 4l-39 -217l-142 -4q-107 0 -157 36.5t-50 114.5z" />
<glyph unicode="u" horiz-adv-x="1026" d="M102 246q0 68 11 127l127 717h235l-119 -676q-6 -34 -6 -70q0 -131 121 -131q86 0 146.5 66t80.5 182l111 629h235l-190 -1090h-225l28 160q-69 -100 -142 -144.5t-169 -44.5q-117 0 -180.5 71.5t-63.5 203.5z" />
<glyph unicode="v" d="M150 1090h307v-811l334 811h249l-512 -1090h-247z" />
<glyph unicode="w" horiz-adv-x="1306" d="M145 0v1090h254v-793l265 793h237v-793l277 793h241l-446 -1090h-242v805l-282 -805h-304z" />
<glyph unicode="x" d="M-37 0l402 555l-201 535h287l96 -318l203 318h276l-387 -535l207 -555h-291l-96 328l-211 -328h-285z" />
<glyph unicode="y" d="M8 -434l41 229q28 -4 49 -4q74 0 109 32.5t69 131.5l-131 1135h263l51 -811l325 811h250l-495 -1072q-54 -117 -85.5 -181.5t-67 -123t-57.5 -82.5t-57.5 -43t-67 -22.5t-85.5 -3.5z" />
<glyph unicode="z" horiz-adv-x="839" d="M-29 0l39 223l570 637h-426l39 230h725l-41 -236l-560 -618h469l-43 -236h-772z" />
<glyph unicode="{" horiz-adv-x="653" d="M96 444l33 189q73 3 122.5 45t61.5 110l72 410q22 120 103 200.5t182 80.5h139l-31 -181h-76q-51 0 -78.5 -31.5t-39.5 -103.5l-70 -401q-20 -91 -87 -152.5t-153 -70.5q84 -17 125 -67t41 -124q0 -9 -4 -33l-69 -401q-7 -40 -7 -57q0 -78 76 -78h76l-31 -180h-139 q-85 0 -138.5 60t-53.5 155q0 30 6 65l71 410q4 24 4 33q0 54 -34.5 86t-100.5 36z" />
<glyph unicode="|" horiz-adv-x="471" d="M188 -401v1880h177v-1880h-177z" />
<glyph unicode="}" horiz-adv-x="653" d="M-90 -401l31 180h75q49 0 77 32t40 103l70 401q22 91 87.5 153t151.5 71q-163 33 -163 190q0 23 2 33l69 401q6 30 6 58q0 77 -75 77h-76l33 181h137q85 0 138.5 -60t53.5 -155q0 -32 -6 -66l-72 -410q-2 -12 -2 -32q0 -55 34.5 -86.5t99.5 -36.5l-33 -189 q-73 -3 -123 -45t-62 -110l-71 -410q-22 -120 -102.5 -200t-180.5 -80h-139z" />
<glyph unicode="~" horiz-adv-x="980" d="M131 496q69 105 127 148.5t127 43.5q35 0 151 -52t158 -52q39 0 66 15.5t61 57.5l86 -110q-70 -105 -126.5 -149t-125.5 -44q-37 0 -153 52.5t-158 52.5q-40 0 -66.5 -16t-60.5 -60z" />
<glyph unicode="&#xa1;" horiz-adv-x="559" d="M23 -381l65 375l186 688h125l-53 -688l-65 -375h-258zM236 801l49 289h245l-51 -289h-243z" />
<glyph unicode="&#xa2;" d="M72 344q0 158 39.5 299t109.5 246.5t173 167t224 61.5q36 0 76 -6l70 174h88l-82 -201q94 -50 134 -124t40 -175q0 -20 -4 -86h-238q0 100 -32 140l-254 -625q13 -8 37 -8q66 0 119 52t75 138h240q-63 -207 -187.5 -316.5t-296.5 -109.5q-47 0 -84 9l-90 -222h-86l99 246 q-95 56 -132.5 140t-37.5 200zM317 393q0 -74 31 -129l250 613h-20q-76 0 -137 -69.5t-92.5 -179.5t-31.5 -235z" />
<glyph unicode="&#xa3;" d="M23 176q104 63 173.5 159t69.5 208q0 60 -12 114h-154l21 123h98q-29 140 -29 195q0 133 65 247t175 181t238 67q155 0 245.5 -90t90.5 -245q0 -37 -11 -138h-221q2 31 2 76q0 168 -139 168q-85 0 -146 -66.5t-61 -160.5q0 -40 37 -234h240l-21 -123h-201 q-4 -150 -57 -245t-195 -211q80 34 125.5 46.5t89.5 12.5q35 0 110.5 -25.5t88.5 -25.5q70 0 182 74l29 -224q-143 -92 -266 -92q-80 0 -199 53q-66 29 -115 29q-33 0 -65.5 -12t-132.5 -60z" />
<glyph unicode="&#xa4;" d="M123 545q0 104 57 200l-26 27l122 125l29 -29q89 58 199 58q112 0 201 -58l26 29l125 -125l-27 -27q56 -94 56 -200q0 -107 -56 -201l27 -27l-125 -124l-26 28q-88 -57 -201 -57q-111 0 -199 57l-29 -28l-122 124l26 27q-57 96 -57 201zM299 545q0 -85 60 -145t145 -60 q86 0 145.5 60t59.5 145t-59.5 145t-145.5 60q-85 0 -145 -60t-60 -145z" />
<glyph unicode="&#xa5;" d="M39 430l20 123h342l-41 154h-272l21 122h219l-156 601h252l137 -603l338 603h238l-357 -601h226l-23 -122h-276l-91 -154h340l-20 -123h-342l-76 -430h-213l74 430h-340z" />
<glyph unicode="&#xa6;" horiz-adv-x="471" d="M188 350h177v-751h-177v751zM188 727v752h177v-752h-177z" />
<glyph unicode="&#xa7;" d="M41 -72q0 26 6 78h221q-2 -14 -2 -39q0 -60 31 -93.5t88 -33.5q61 0 106.5 51.5t45.5 120.5q0 32 -17.5 57t-60.5 56l-230 160q-73 51 -104 105t-31 132q0 120 49.5 205t163.5 158q-53 77 -53 170q0 114 56.5 214.5t151.5 160t204 59.5q129 0 203.5 -73t74.5 -199 q0 -41 -6 -103h-213q2 16 2 43q0 54 -27.5 84.5t-76.5 30.5q-60 0 -103 -42t-43 -100q0 -48 47 -81l244 -166q78 -54 115 -115t37 -139q0 -104 -58.5 -201t-156.5 -154q63 -85 63 -194q0 -188 -129.5 -322.5t-310.5 -134.5q-132 0 -209.5 82t-77.5 223zM307 639 q0 -57 60 -100l233 -172q96 66 96 153q0 61 -73 113l-220 151q-41 -20 -68.5 -61t-27.5 -84z" />
<glyph unicode="&#xa8;" horiz-adv-x="559" d="M172 1266l41 235h197l-41 -235h-197zM510 1266l41 235h197l-41 -235h-197z" />
<glyph unicode="&#xa9;" horiz-adv-x="1236" d="M82 674q0 186 71 348t205 263t301 101q126 0 235.5 -59t183.5 -157.5t116.5 -227.5t42.5 -268t-42.5 -268t-116.5 -227.5t-183.5 -158t-235.5 -59.5q-167 0 -301 101t-205 263.5t-71 348.5zM197 674q0 -156 55 -291.5t162.5 -221t244.5 -85.5q104 0 192 50t146.5 133 t91.5 191t33 224t-33 224t-91.5 191t-146.5 133t-192 50q-137 0 -244.5 -85.5t-162.5 -221t-55 -291.5zM338 553q-2 141 48.5 259.5t142.5 187.5t204 69q109 0 178 -63.5t70 -167.5q0 -29 -2 -56h-166q-3 65 -27 95t-77 30q-90 0 -145.5 -94.5t-53.5 -228.5q2 -68 31 -106 t82 -38t89 32.5t64 105.5h168q-107 -297 -352 -297q-118 0 -185.5 70.5t-68.5 201.5z" />
<glyph unicode="&#xaa;" horiz-adv-x="620" d="M92 565l29 164h504l-29 -164h-504zM147 967q0 98 59.5 170.5t153.5 87.5l142 22q33 4 48 19t15 43q0 55 -82 55q-50 0 -75.5 -18.5t-40.5 -65.5h-148q37 123 104.5 176t188.5 53q99 0 153 -39.5t54 -111.5q0 -15 -4 -39l-62 -354q-6 -34 -6 -56q0 -36 25 -45l-4 -26h-166 q-2 16 -2 34q0 20 2 43q-54 -52 -99 -73t-102 -21q-71 0 -112.5 39.5t-41.5 106.5zM309 1004q0 -26 16 -42t44 -16q56 0 101 37.5t54 91.5l15 82q-24 -16 -68 -28.5t-77 -20.5t-59 -34t-26 -70z" />
<glyph unicode="&#xab;" d="M166 451l43 245l332 295l-43 -237l-199 -181l137 -180l-41 -237zM522 451l43 245l332 295l-41 -237l-199 -181l136 -180l-41 -237z" />
<glyph unicode="&#xac;" horiz-adv-x="980" d="M158 608v176h747v-456h-176v280h-571z" />
<glyph unicode="&#xad;" horiz-adv-x="559" d="M61 440l48 267h466l-47 -267h-467z" />
<glyph unicode="&#xae;" horiz-adv-x="1236" d="M82 674q0 186 71 348t205 263t301 101q126 0 235.5 -59t183.5 -157.5t116.5 -227.5t42.5 -268t-42.5 -268t-116.5 -227.5t-183.5 -158t-235.5 -59.5q-167 0 -301 101t-205 263.5t-71 348.5zM197 674q0 -156 55 -291.5t162.5 -221t244.5 -85.5q104 0 192 50t146.5 133 t91.5 191t33 224t-33 224t-91.5 191t-146.5 133t-192 50q-137 0 -244.5 -85.5t-162.5 -221t-55 -291.5zM330 299l129 752h344q88 0 136 -45t50 -127q0 -69 -30.5 -128t-86.5 -92q41 -30 41 -88q2 -33 -18 -149q-4 -20 -4 -53q0 -17 20 -25l-8 -45h-178l-2 39 q-1 20 10.5 102.5t11.5 91.5q-1 28 -19 39t-60 11h-125l-49 -283h-162zM569 733h144q54 0 80 29t24 76q0 57 -67 57h-154z" />
<glyph unicode="&#xaf;" horiz-adv-x="559" d="M156 1307l26 151h580l-27 -151h-579z" />
<glyph unicode="&#xb0;" horiz-adv-x="671" d="M231 1104q0 136 91.5 245t205.5 109q85 0 140 -65.5t55 -165.5q0 -137 -91 -246t-206 -109q-85 0 -140 66t-55 166zM328 1126q0 -60 33 -99.5t85 -39.5q69 0 125 66t56 149q0 61 -34 101t-85 40q-69 0 -124.5 -66.5t-55.5 -150.5z" />
<glyph unicode="&#xb1;" horiz-adv-x="980" d="M158 0v176h747v-176h-747zM158 600v176h286v287h177v-287h284v-176h-284v-266h-177v266h-286z" />
<glyph unicode="&#xb2;" horiz-adv-x="559" d="M55 580q29 132 92 212t226 195q159 113 159 227q0 45 -24 74t-62 29q-54 0 -87 -41.5t-50 -132.5h-147q33 169 112.5 252.5t198.5 83.5q99 0 159 -65t60 -173q0 -144 -94 -256q-8 -10 -13.5 -16.5t-15 -15t-14 -12.5t-20.5 -15.5t-24.5 -17t-36 -24.5t-46.5 -32 q-93 -67 -127 -104h313l-30 -168h-529z" />
<glyph unicode="&#xb3;" horiz-adv-x="559" d="M92 776q0 42 6 94h150q-4 -36 -4 -45q0 -57 24 -86.5t68 -29.5q58 0 95.5 51t37.5 131q0 50 -32.5 70t-114.5 20l22 131h25q145 0 145 137q0 76 -76 76q-103 0 -127 -127h-143q31 138 107.5 209.5t193.5 71.5q97 0 153 -50.5t56 -138.5q0 -160 -131 -225q90 -40 90 -152 q0 -148 -96.5 -253t-231.5 -105q-101 0 -159 59t-58 162z" />
<glyph unicode="&#xb4;" horiz-adv-x="559" d="M348 1233l211 299h258l-299 -299h-170z" />
<glyph unicode="&#xb5;" horiz-adv-x="1026" d="M-25 -424l265 1514h235l-119 -676q-6 -34 -6 -70q0 -131 121 -131q85 0 147 66.5t82 181.5l109 629h235l-190 -1090h-225l28 160q-66 -98 -127.5 -143.5t-128.5 -45.5q-40 0 -65 12.5t-47 41.5l-78 -449h-236z" />
<glyph unicode="&#xb6;" d="M102 983q0 208 121.5 329.5t360.5 121.5h510l-320 -1825h-188l288 1651h-169l-289 -1651h-189l193 1102q-166 7 -242 75.5t-76 196.5z" />
<glyph unicode="&#xb7;" horiz-adv-x="466" d="M147 512q0 52 37.5 89.5t89.5 37.5t89.5 -37.5t37.5 -89.5t-37.5 -89.5t-89.5 -37.5t-89.5 37.5t-37.5 89.5z" />
<glyph unicode="&#xb8;" horiz-adv-x="559" d="M-123 -416l53 99q88 -33 123 -33q39 0 69 29t30 67q0 26 -16.5 41.5t-41.5 15.5q-19 0 -69 -16l-29 41l123 176h112l-65 -108h18q56 0 94.5 -35t38.5 -88q0 -99 -78 -169.5t-184 -70.5q-42 0 -78 10.5t-100 40.5z" />
<glyph unicode="&#xb9;" horiz-adv-x="559" d="M186 1176l23 127h22q174 0 215 151h144l-154 -874h-168l103 596h-185z" />
<glyph unicode="&#xba;" horiz-adv-x="612" d="M92 565l29 164h504l-29 -164h-504zM145 1087q0 173 107 297.5t258 124.5q114 0 179 -71t65 -197q0 -173 -107 -296.5t-258 -123.5q-114 0 -179 71t-65 195zM311 1108q0 -65 28 -102t77 -37q69 0 120.5 75.5t51.5 178.5q0 64 -28.5 101.5t-76.5 37.5q-69 0 -120.5 -75.5 t-51.5 -178.5z" />
<glyph unicode="&#xbb;" d="M113 156l41 237l200 180l-137 181l41 237l229 -295l-43 -245zM471 156l41 237l199 180l-136 181l41 237l230 -295l-43 -245z" />
<glyph unicode="&#xbc;" horiz-adv-x="1400" d="M158 -51l981 1505h131l-979 -1505h-133zM186 1176l23 127h22q174 0 215 151h144l-152 -874h-170l103 596h-185zM707 184l26 152l377 532h182l-94 -542h84l-25 -142h-83l-33 -184h-160l33 184h-307zM850 322h194l70 380z" />
<glyph unicode="&#xbd;" horiz-adv-x="1400" d="M158 -51l981 1505h131l-979 -1505h-133zM186 1176l23 127h22q174 0 215 151h144l-152 -874h-170l103 596h-185zM743 0q27 132 90.5 212t227.5 196q160 113 160 227q0 45 -24 73.5t-62 28.5q-54 0 -87.5 -42t-50.5 -132h-147q64 336 311 336q100 0 159.5 -65t59.5 -172 q0 -68 -25 -136t-69 -120q-28 -32 -50 -49t-120 -85q-93 -65 -127 -104h314l-31 -168h-529z" />
<glyph unicode="&#xbe;" horiz-adv-x="1400" d="M106 774q0 31 7 96h151q-6 -30 -6 -49q0 -54 24 -83t68 -29q58 0 94.5 51t36.5 131q0 50 -32 70t-113 20l22 131h25q145 0 145 137q0 76 -75 76q-103 0 -127 -127h-144q31 138 107.5 209.5t193.5 71.5q97 0 153 -50.5t56 -138.5q0 -160 -131 -225q88 -40 88 -152 q0 -148 -95.5 -253t-229.5 -105q-100 0 -159 59t-59 160zM231 -51l981 1505h131l-978 -1505h-134zM762 184l26 152l377 532h183l-95 -542h84l-24 -142h-84l-33 -184h-160l33 184h-307zM905 326h189l67 368z" />
<glyph unicode="&#xbf;" horiz-adv-x="1026" d="M29 -68q0 150 60 254.5t218 227.5q72 56 99.5 102.5t46.5 147.5h221q-28 -164 -73.5 -242.5t-168.5 -173.5q-78 -60 -111.5 -121t-33.5 -139q0 -69 35.5 -107.5t101.5 -38.5q75 0 132 57.5t79 147.5l6 33h238q-51 -238 -179 -358.5t-311 -120.5q-160 0 -260 87t-100 244z M461 801l49 289h246l-51 -289h-244z" />
<glyph unicode="&#xc0;" horiz-adv-x="1212" d="M-29 0l688 1470h291l168 -1470h-274l-25 303h-444l-137 -303h-267zM485 557h308l-48 588zM545 1872h258l112 -258h-170z" />
<glyph unicode="&#xc1;" horiz-adv-x="1212" d="M-29 0l688 1470h291l168 -1470h-274l-25 303h-444l-137 -303h-267zM485 557h308l-48 588zM743 1614l205 258h258l-293 -258h-170z" />
<glyph unicode="&#xc2;" horiz-adv-x="1212" d="M-29 0l688 1470h291l168 -1470h-274l-25 303h-444l-137 -303h-267zM485 557h308l-48 588zM512 1614l256 258h211l166 -258h-191l-104 127l-148 -127h-190z" />
<glyph unicode="&#xc3;" horiz-adv-x="1212" d="M-29 0l688 1470h291l168 -1470h-274l-25 303h-444l-137 -303h-267zM485 557h308l-48 588zM522 1614q46 131 105 191.5t141 60.5q14 0 107.5 -37t105.5 -37q61 0 94 82h109q-82 -246 -226 -246q-19 0 -116.5 37t-118.5 37q-58 0 -94 -88h-107z" />
<glyph unicode="&#xc4;" horiz-adv-x="1212" d="M-29 0l688 1470h291l168 -1470h-274l-25 303h-444l-137 -303h-267zM485 557h308l-48 588zM565 1626l41 236h197l-41 -236h-197zM903 1626l41 236h197l-41 -236h-197z" />
<glyph unicode="&#xc5;" horiz-adv-x="1212" d="M-29 0l688 1470h291l168 -1470h-274l-25 303h-444l-137 -303h-267zM485 557h308l-48 588zM647 1786q12 71 85.5 124.5t158.5 53.5t139.5 -54.5t42.5 -127.5q-12 -72 -86 -126t-160 -54t-139 54.5t-41 129.5zM754 1784q-6 -37 20 -62.5t70 -25.5t80.5 25.5t42.5 60.5 q6 37 -21.5 62.5t-71.5 25.5q-43 0 -78.5 -25.5t-41.5 -60.5z" />
<glyph unicode="&#xc6;" horiz-adv-x="1679" d="M-53 0l696 1470h1143l-45 -260h-625l-53 -309h561l-45 -260h-561l-66 -381h635l-45 -260h-883l56 313h-363l-141 -313h-264zM461 555h295l114 655h-108z" />
<glyph unicode="&#xc7;" horiz-adv-x="1212" d="M119 494q0 277 93 509.5t258 369t366 136.5q192 0 310 -122.5t118 -323.5q0 -41 -2 -74h-254q-6 130 -57 192t-156 62q-118 0 -213.5 -96t-148 -255t-52.5 -347q0 -152 59 -235t168 -83q105 0 182 65.5t134 211.5h252q-184 -506 -560 -541l-41 -67h19q56 0 94.5 -35 t38.5 -88q0 -99 -78 -169.5t-184 -70.5q-42 0 -78 10.5t-100 40.5l53 99q88 -33 123 -33q38 0 68 29t30 67q0 26 -16 41.5t-41 15.5q-20 0 -70 -16l-28 41l94 135q-181 20 -281 157.5t-100 373.5z" />
<glyph unicode="&#xc8;" horiz-adv-x="1120" d="M66 0l256 1470h886l-45 -260h-641l-53 -309h588l-45 -260h-588l-66 -381h668l-45 -260h-915zM504 1872h258l112 -258h-169z" />
<glyph unicode="&#xc9;" horiz-adv-x="1120" d="M66 0l256 1470h886l-45 -260h-641l-53 -309h588l-45 -260h-588l-66 -381h668l-45 -260h-915zM702 1614l205 258h258l-293 -258h-170z" />
<glyph unicode="&#xca;" horiz-adv-x="1120" d="M66 0l256 1470h886l-45 -260h-641l-53 -309h588l-45 -260h-588l-66 -381h668l-45 -260h-915zM471 1614l256 258h211l166 -258h-191l-104 127l-147 -127h-191z" />
<glyph unicode="&#xcb;" horiz-adv-x="1120" d="M66 0l256 1470h886l-45 -260h-641l-53 -309h588l-45 -260h-588l-66 -381h668l-45 -260h-915zM524 1626l41 236h197l-41 -236h-197zM862 1626l41 236h197l-41 -236h-197z" />
<glyph unicode="&#xcc;" horiz-adv-x="466" d="M45 0l258 1470h252l-258 -1470h-252zM209 1872h258l113 -258h-170z" />
<glyph unicode="&#xcd;" horiz-adv-x="466" d="M45 0l258 1470h252l-258 -1470h-252zM326 1614l204 258h258l-292 -258h-170z" />
<glyph unicode="&#xce;" horiz-adv-x="466" d="M45 0l258 1470h252l-258 -1470h-252zM135 1614l256 258h211l166 -258h-190l-105 127l-147 -127h-191z" />
<glyph unicode="&#xcf;" horiz-adv-x="466" d="M45 0l258 1470h252l-258 -1470h-252zM188 1626l41 236h197l-41 -236h-197zM526 1626l41 236h197l-41 -236h-197z" />
<glyph unicode="&#xd0;" horiz-adv-x="1212" d="M43 647l45 254h135l101 569h532q188 0 287.5 -121.5t99.5 -355.5q0 -187 -49 -366.5t-133.5 -318.5t-208 -223.5t-262.5 -84.5h-524l112 647h-135zM358 254h244q108 0 196.5 101.5t135.5 259.5t47 331q0 138 -52 204.5t-161 66.5h-242l-55 -316h279l-45 -254h-279z" />
<glyph unicode="&#xd1;" horiz-adv-x="1212" d="M55 0l256 1470h264l304 -1032l178 1032h235l-256 -1470h-252l-311 1055l-182 -1055h-236zM518 1614q46 131 105 191.5t141 60.5q14 0 107.5 -37t105.5 -37q61 0 94 82h109q-82 -246 -226 -246q-19 0 -116.5 37t-118.5 37q-58 0 -94 -88h-107z" />
<glyph unicode="&#xd2;" horiz-adv-x="1306" d="M119 502q0 167 36 321t103 278t157 216t204 142t239 50q98 0 181.5 -34t146.5 -99.5t99 -169t36 -235.5q0 -212 -56 -399t-153.5 -321t-234.5 -212t-293 -78q-215 0 -340 145.5t-125 395.5zM377 555q0 -157 68 -245.5t188 -88.5q119 0 218.5 91.5t156.5 251t57 351.5 q0 155 -68 244.5t-186 89.5q-124 0 -225 -97.5t-155 -255.5t-54 -341zM590 1872h258l113 -258h-170z" />
<glyph unicode="&#xd3;" horiz-adv-x="1306" d="M119 502q0 167 36 321t103 278t157 216t204 142t239 50q98 0 181.5 -34t146.5 -99.5t99 -169t36 -235.5q0 -212 -56 -399t-153.5 -321t-234.5 -212t-293 -78q-215 0 -340 145.5t-125 395.5zM377 555q0 -157 68 -245.5t188 -88.5q119 0 218.5 91.5t156.5 251t57 351.5 q0 155 -68 244.5t-186 89.5q-124 0 -225 -97.5t-155 -255.5t-54 -341zM791 1614l204 258h258l-292 -258h-170z" />
<glyph unicode="&#xd4;" horiz-adv-x="1306" d="M119 502q0 167 36 321t103 278t157 216t204 142t239 50q98 0 181.5 -34t146.5 -99.5t99 -169t36 -235.5q0 -212 -56 -399t-153.5 -321t-234.5 -212t-293 -78q-215 0 -340 145.5t-125 395.5zM377 555q0 -157 68 -245.5t188 -88.5q119 0 218.5 91.5t156.5 251t57 351.5 q0 155 -68 244.5t-186 89.5q-124 0 -225 -97.5t-155 -255.5t-54 -341zM559 1614l256 258h211l166 -258h-191l-104 127l-147 -127h-191z" />
<glyph unicode="&#xd5;" horiz-adv-x="1306" d="M119 502q0 167 36 321t103 278t157 216t204 142t239 50q98 0 181.5 -34t146.5 -99.5t99 -169t36 -235.5q0 -212 -56 -399t-153.5 -321t-234.5 -212t-293 -78q-215 0 -340 145.5t-125 395.5zM377 555q0 -157 68 -245.5t188 -88.5q119 0 218.5 91.5t156.5 251t57 351.5 q0 155 -68 244.5t-186 89.5q-124 0 -225 -97.5t-155 -255.5t-54 -341zM567 1614q46 131 105 191.5t141 60.5q14 0 107.5 -37t105.5 -37q61 0 94 82h109q-83 -246 -225 -246q-19 0 -117 37t-119 37q-58 0 -94 -88h-107z" />
<glyph unicode="&#xd6;" horiz-adv-x="1306" d="M119 502q0 167 36 321t103 278t157 216t204 142t239 50q98 0 181.5 -34t146.5 -99.5t99 -169t36 -235.5q0 -212 -56 -399t-153.5 -321t-234.5 -212t-293 -78q-215 0 -340 145.5t-125 395.5zM377 555q0 -157 68 -245.5t188 -88.5q119 0 218.5 91.5t156.5 251t57 351.5 q0 155 -68 244.5t-186 89.5q-124 0 -225 -97.5t-155 -255.5t-54 -341zM610 1626l41 236h197l-41 -236h-197zM948 1626l41 236h197l-41 -236h-197z" />
<glyph unicode="&#xd7;" horiz-adv-x="980" d="M205 311l203 203l-203 201l125 125l202 -203l201 203l125 -125l-201 -201l201 -203l-125 -125l-201 203l-202 -203z" />
<glyph unicode="&#xd8;" horiz-adv-x="1306" d="M-2 23l176 190q-31 77 -43 140.5t-12 150.5q0 208 57 394t154 320t233 212.5t289 78.5q107 0 192.5 -36.5t169.5 -129.5l168 183l58 -78l-174 -188q32 -79 43.5 -140.5t11.5 -150.5q0 -208 -57 -394.5t-154 -321t-234 -213.5t-290 -79q-108 0 -195 37t-166 131l-170 -184 zM377 561q0 -54 10 -115l629 682q-41 64 -90 92.5t-117 28.5q-98 0 -181.5 -62.5t-137 -162.5t-83.5 -221t-30 -242zM422 344q40 -64 89.5 -93.5t117.5 -29.5q100 0 184.5 63t137.5 164t82.5 221t29.5 240q0 58 -12 117z" />
<glyph unicode="&#xd9;" horiz-adv-x="1212" d="M135 346q0 76 12 150l170 974h256l-165 -954q-9 -46 -9 -90q0 -101 46.5 -153t136.5 -52q114 0 184.5 71.5t95.5 209.5l170 968h256l-166 -956q-47 -269 -196 -411t-385 -142q-195 0 -300.5 100t-105.5 285zM543 1872h258l112 -258h-170z" />
<glyph unicode="&#xda;" horiz-adv-x="1212" d="M135 346q0 76 12 150l170 974h256l-165 -954q-9 -46 -9 -90q0 -101 46.5 -153t136.5 -52q114 0 184.5 71.5t95.5 209.5l170 968h256l-166 -956q-47 -269 -196 -411t-385 -142q-195 0 -300.5 100t-105.5 285zM741 1614l205 258h258l-293 -258h-170z" />
<glyph unicode="&#xdb;" horiz-adv-x="1212" d="M135 346q0 76 12 150l170 974h256l-165 -954q-9 -46 -9 -90q0 -101 46.5 -153t136.5 -52q114 0 184.5 71.5t95.5 209.5l170 968h256l-166 -956q-47 -269 -196 -411t-385 -142q-195 0 -300.5 100t-105.5 285zM510 1614l256 258h211l166 -258h-191l-104 127l-148 -127h-190 z" />
<glyph unicode="&#xdc;" horiz-adv-x="1212" d="M135 346q0 76 12 150l170 974h256l-165 -954q-9 -46 -9 -90q0 -101 46.5 -153t136.5 -52q114 0 184.5 71.5t95.5 209.5l170 968h256l-166 -956q-47 -269 -196 -411t-385 -142q-195 0 -300.5 100t-105.5 285zM563 1626l41 236h197l-41 -236h-197zM901 1626l41 236h197 l-41 -236h-197z" />
<glyph unicode="&#xdd;" horiz-adv-x="1120" d="M219 1470h297l139 -639l351 639h286l-565 -919l-94 -551h-254l98 555zM700 1614l205 258h258l-293 -258h-170z" />
<glyph unicode="&#xde;" horiz-adv-x="1120" d="M66 0l256 1470h251l-34 -200h299q145 0 225 -91t80 -255q0 -114 -36.5 -222.5t-99 -191.5t-152.5 -133.5t-191 -50.5h-289l-58 -326h-251zM418 580h235q111 0 172.5 79.5t61.5 210.5q0 75 -47.5 110.5t-145.5 35.5h-198z" />
<glyph unicode="&#xdf;" horiz-adv-x="1026" d="M55 0l193 1104q31 180 156.5 286.5t306.5 106.5q160 0 245.5 -77t85.5 -222q0 -249 -176 -356q76 -53 107 -110.5t31 -147.5q0 -161 -64.5 -301.5t-181 -226t-258.5 -85.5q-30 0 -94 13l38 225h7q8 -2 43 -2q125 0 196.5 90t71.5 235q0 89 -48 129t-171 50l35 198 q128 6 175.5 63t47.5 167q0 61 -36 95t-101 34q-72 0 -122 -49t-63 -134l-188 -1085h-236z" />
<glyph unicode="&#xe0;" d="M31 207q0 167 89.5 285.5t237.5 144.5l220 39q100 18 100 117q0 96 -127 96q-74 0 -114.5 -34.5t-65.5 -117.5h-226q60 208 164 294.5t291 86.5q152 0 235 -64.5t83 -183.5q0 -27 -7 -67l-102 -590q-10 -65 -10 -100q0 -53 32 -70l-8 -43h-254q-2 33 -2 59q0 31 4 70 q-85 -87 -155 -122.5t-156 -35.5q-107 0 -168 63t-61 173zM272 272q0 -44 25 -70t68 -26q86 0 158 63t87 152l25 139q-27 -21 -62 -33t-108 -26q-101 -22 -147 -69t-46 -130zM340 1532h258l107 -299h-170z" />
<glyph unicode="&#xe1;" d="M31 207q0 167 89.5 285.5t237.5 144.5l220 39q100 18 100 117q0 96 -127 96q-74 0 -114.5 -34.5t-65.5 -117.5h-226q60 208 164 294.5t291 86.5q152 0 235 -64.5t83 -183.5q0 -27 -7 -67l-102 -590q-10 -65 -10 -100q0 -53 32 -70l-8 -43h-254q-2 33 -2 59q0 31 4 70 q-85 -87 -155 -122.5t-156 -35.5q-107 0 -168 63t-61 173zM272 272q0 -44 25 -70t68 -26q86 0 158 63t87 152l25 139q-27 -21 -62 -33t-108 -26q-101 -22 -147 -69t-46 -130zM535 1233l210 299h259l-299 -299h-170z" />
<glyph unicode="&#xe2;" d="M31 207q0 167 89.5 285.5t237.5 144.5l220 39q100 18 100 117q0 96 -127 96q-74 0 -114.5 -34.5t-65.5 -117.5h-226q60 208 164 294.5t291 86.5q152 0 235 -64.5t83 -183.5q0 -27 -7 -67l-102 -590q-10 -65 -10 -100q0 -53 32 -70l-8 -43h-254q-2 33 -2 59q0 31 4 70 q-85 -87 -155 -122.5t-156 -35.5q-107 0 -168 63t-61 173zM272 272q0 -44 25 -70t68 -26q86 0 158 63t87 152l25 139q-27 -21 -62 -33t-108 -26q-101 -22 -147 -69t-46 -130zM324 1233l243 299h211l140 -299h-191l-78 168l-135 -168h-190z" />
<glyph unicode="&#xe3;" d="M31 207q0 167 89.5 285.5t237.5 144.5l220 39q100 18 100 117q0 96 -127 96q-74 0 -114.5 -34.5t-65.5 -117.5h-226q60 208 164 294.5t291 86.5q152 0 235 -64.5t83 -183.5q0 -27 -7 -67l-102 -590q-10 -65 -10 -100q0 -53 32 -70l-8 -43h-254q-2 33 -2 59q0 31 4 70 q-85 -87 -155 -122.5t-156 -35.5q-107 0 -168 63t-61 173zM272 272q0 -44 25 -70t68 -26q86 0 158 63t87 152l25 139q-27 -21 -62 -33t-108 -26q-101 -22 -147 -69t-46 -130zM313 1253q46 131 105 191.5t141 60.5q14 0 107.5 -36.5t105.5 -36.5q32 0 54.5 19t39.5 62h109 q-82 -245 -225 -245q-19 0 -117 36.5t-119 36.5q-58 0 -94 -88h-107z" />
<glyph unicode="&#xe4;" d="M31 207q0 167 89.5 285.5t237.5 144.5l220 39q100 18 100 117q0 96 -127 96q-74 0 -114.5 -34.5t-65.5 -117.5h-226q60 208 164 294.5t291 86.5q152 0 235 -64.5t83 -183.5q0 -27 -7 -67l-102 -590q-10 -65 -10 -100q0 -53 32 -70l-8 -43h-254q-2 33 -2 59q0 31 4 70 q-85 -87 -155 -122.5t-156 -35.5q-107 0 -168 63t-61 173zM272 272q0 -44 25 -70t68 -26q86 0 158 63t87 152l25 139q-27 -21 -62 -33t-108 -26q-101 -22 -147 -69t-46 -130zM358 1266l41 235h197l-41 -235h-197zM696 1266l41 235h197l-41 -235h-197z" />
<glyph unicode="&#xe5;" d="M31 207q0 167 89.5 285.5t237.5 144.5l220 39q100 18 100 117q0 96 -127 96q-74 0 -114.5 -34.5t-65.5 -117.5h-226q60 208 164 294.5t291 86.5q152 0 235 -64.5t83 -183.5q0 -27 -7 -67l-102 -590q-10 -65 -10 -100q0 -53 32 -70l-8 -43h-254q-2 33 -2 59q0 31 4 70 q-85 -87 -155 -122.5t-156 -35.5q-107 0 -168 63t-61 173zM272 272q0 -44 25 -70t68 -26q86 0 158 63t87 152l25 139q-27 -21 -62 -33t-108 -26q-101 -22 -147 -69t-46 -130zM434 1386q12 71 85.5 125t158.5 54t139 -55t41 -128q-12 -72 -85 -126t-159 -54t-139.5 54.5 t-40.5 129.5zM539 1384q-6 -37 21 -62.5t71 -25.5t79.5 25.5t41.5 60.5q6 37 -20 62.5t-70 25.5q-43 0 -80 -25.5t-43 -60.5z" />
<glyph unicode="&#xe6;" horiz-adv-x="1492" d="M33 215q0 156 79 265.5t210 135.5l229 46q50 10 78 21t42 30t17.5 37.5t3.5 54.5q0 40 -35.5 62t-99.5 22q-77 0 -120 -37.5t-58 -116.5h-232q54 196 165 289.5t296 93.5q89 0 149.5 -28t114.5 -93q85 68 149 94.5t142 26.5q155 0 240.5 -105t85.5 -294q0 -72 -19 -201 l-8 -51h-614q-4 -62 -4 -82q0 -88 43 -136t121 -48q123 0 176 118h241q-83 -183 -198 -265.5t-269 -82.5q-116 0 -180 39t-108 137q-132 -176 -371 -176q-131 0 -198.5 62t-67.5 182zM274 272q0 -44 28.5 -70t76.5 -26q80 0 153 63t86 146l23 137q-23 -22 -60 -34t-124 -27 q-107 -20 -145 -66t-38 -123zM889 653h364l2 52q3 82 -38.5 130t-108.5 48q-78 0 -131 -55.5t-88 -174.5z" />
<glyph unicode="&#xe7;" d="M72 348q0 208 66 382.5t191 281t283 106.5q151 0 241.5 -89.5t90.5 -240.5q0 -22 -4 -88h-238q-2 93 -30 135t-90 42q-78 0 -139.5 -68.5t-93.5 -179.5t-32 -242q0 -86 35.5 -133t100.5 -47q66 0 119 52t75 138h240q-59 -189 -168 -297t-260 -125l-47 -79h18 q56 0 94.5 -35t38.5 -88q0 -99 -78 -169.5t-184 -70.5q-42 0 -78 10.5t-100 40.5l53 99q88 -33 123 -33q38 0 68 29t30 67q0 26 -16 41.5t-41 15.5q-20 0 -70 -16l-28 41l102 147q-132 17 -202 112.5t-70 260.5z" />
<glyph unicode="&#xe8;" d="M57 367q0 211 70 383t193.5 270t275.5 98q164 0 251 -102.5t87 -296.5q0 -72 -19 -201l-8 -51h-612q-6 -47 -6 -80q0 -89 43 -137.5t121 -48.5q120 0 176 118h241q-82 -182 -196 -265t-264 -83q-172 0 -262.5 101.5t-90.5 294.5zM334 653h364l2 54q3 80 -39 128t-108 48 q-78 0 -131 -55t-88 -175zM342 1532h258l107 -299h-170z" />
<glyph unicode="&#xe9;" d="M57 367q0 211 70 383t193.5 270t275.5 98q164 0 251 -102.5t87 -296.5q0 -72 -19 -201l-8 -51h-612q-6 -47 -6 -80q0 -89 43 -137.5t121 -48.5q120 0 176 118h241q-82 -182 -196 -265t-264 -83q-172 0 -262.5 101.5t-90.5 294.5zM334 653h364l2 54q3 80 -39 128t-108 48 q-78 0 -131 -55t-88 -175zM535 1233l210 299h259l-299 -299h-170z" />
<glyph unicode="&#xea;" d="M57 367q0 211 70 383t193.5 270t275.5 98q164 0 251 -102.5t87 -296.5q0 -72 -19 -201l-8 -51h-612q-6 -47 -6 -80q0 -89 43 -137.5t121 -48.5q120 0 176 118h241q-82 -182 -196 -265t-264 -83q-172 0 -262.5 101.5t-90.5 294.5zM324 1233l243 299h211l140 -299h-191 l-78 168l-135 -168h-190zM334 653h364l2 54q3 80 -39 128t-108 48q-78 0 -131 -55t-88 -175z" />
<glyph unicode="&#xeb;" d="M57 367q0 211 70 383t193.5 270t275.5 98q164 0 251 -102.5t87 -296.5q0 -72 -19 -201l-8 -51h-612q-6 -47 -6 -80q0 -89 43 -137.5t121 -48.5q120 0 176 118h241q-82 -182 -196 -265t-264 -83q-172 0 -262.5 101.5t-90.5 294.5zM334 653h364l2 54q3 80 -39 128t-108 48 q-78 0 -131 -55t-88 -175zM358 1266l41 235h197l-41 -235h-197zM696 1266l41 235h197l-41 -235h-197z" />
<glyph unicode="&#xec;" horiz-adv-x="466" d="M55 0l191 1090h233l-190 -1090h-234zM139 1532h258l107 -299h-170z" />
<glyph unicode="&#xed;" horiz-adv-x="466" d="M55 0l191 1090h233l-190 -1090h-234zM270 1233l211 299h258l-299 -299h-170z" />
<glyph unicode="&#xee;" horiz-adv-x="466" d="M55 0l191 1090h233l-190 -1090h-234zM90 1233l244 299h211l139 -299h-190l-78 168l-135 -168h-191z" />
<glyph unicode="&#xef;" horiz-adv-x="466" d="M55 0l191 1090h233l-190 -1090h-234zM125 1266l41 235h196l-40 -235h-197zM463 1266l41 235h196l-41 -235h-196z" />
<glyph unicode="&#xf0;" horiz-adv-x="1026" d="M76 387q0 183 70 341t189 250.5t257 92.5q71 0 118 -29.5t83 -99.5q-32 144 -125 268l-197 -96l-88 107l199 96q-65 65 -107 92l199 100q68 -40 117 -90l186 90l86 -106l-184 -90q83 -133 118 -251.5t35 -266.5q0 -223 -75.5 -412t-211 -300.5t-299.5 -111.5 q-172 0 -271 112t-99 304zM319 430q0 -104 45 -160.5t128 -56.5q79 0 144 62.5t98.5 154t33.5 186.5q0 100 -45 156.5t-123 56.5q-117 0 -199 -116.5t-82 -282.5z" />
<glyph unicode="&#xf1;" horiz-adv-x="1026" d="M47 0l191 1090h225l-29 -166q71 104 141 149t164 45q120 0 188 -72t68 -200q0 -48 -8 -92l-131 -754h-235l114 662q10 62 10 92q0 59 -32 91t-90 32q-87 0 -149.5 -67.5t-82.5 -184.5l-108 -625h-236zM360 1253q46 131 105 191.5t141 60.5q14 0 107.5 -36.5t105.5 -36.5 q32 0 54.5 19t39.5 62h109q-82 -245 -225 -245q-19 0 -117 36.5t-119 36.5q-58 0 -94 -88h-107z" />
<glyph unicode="&#xf2;" horiz-adv-x="1026" d="M76 389q0 152 44.5 287.5t120 232t181.5 153t225 56.5q172 0 271.5 -112t99.5 -306q0 -200 -75 -367.5t-207 -264.5t-290 -97q-172 0 -271 112t-99 306zM319 428q0 -215 170 -215q85 0 150.5 64.5t99 166.5t33.5 220q0 213 -170 213q-85 0 -151 -66t-99 -167t-33 -216z M387 1532h258l107 -299h-170z" />
<glyph unicode="&#xf3;" horiz-adv-x="1026" d="M76 389q0 152 44.5 287.5t120 232t181.5 153t225 56.5q172 0 271.5 -112t99.5 -306q0 -200 -75 -367.5t-207 -264.5t-290 -97q-172 0 -271 112t-99 306zM319 428q0 -215 170 -215q85 0 150.5 64.5t99 166.5t33.5 220q0 213 -170 213q-85 0 -151 -66t-99 -167t-33 -216z M582 1233l211 299h258l-299 -299h-170z" />
<glyph unicode="&#xf4;" horiz-adv-x="1026" d="M76 389q0 152 44.5 287.5t120 232t181.5 153t225 56.5q172 0 271.5 -112t99.5 -306q0 -200 -75 -367.5t-207 -264.5t-290 -97q-172 0 -271 112t-99 306zM319 428q0 -215 170 -215q85 0 150.5 64.5t99 166.5t33.5 220q0 213 -170 213q-85 0 -151 -66t-99 -167t-33 -216z M371 1233l243 299h211l140 -299h-191l-78 168l-135 -168h-190z" />
<glyph unicode="&#xf5;" horiz-adv-x="1026" d="M76 389q0 152 44.5 287.5t120 232t181.5 153t225 56.5q172 0 271.5 -112t99.5 -306q0 -200 -75 -367.5t-207 -264.5t-290 -97q-172 0 -271 112t-99 306zM319 428q0 -215 170 -215q85 0 150.5 64.5t99 166.5t33.5 220q0 213 -170 213q-85 0 -151 -66t-99 -167t-33 -216z M360 1253q46 131 105 191.5t141 60.5q14 0 107.5 -36.5t105.5 -36.5q32 0 54.5 19t39.5 62h109q-82 -245 -225 -245q-19 0 -117 36.5t-119 36.5q-58 0 -94 -88h-107z" />
<glyph unicode="&#xf6;" horiz-adv-x="1026" d="M76 389q0 152 44.5 287.5t120 232t181.5 153t225 56.5q172 0 271.5 -112t99.5 -306q0 -200 -75 -367.5t-207 -264.5t-290 -97q-172 0 -271 112t-99 306zM319 428q0 -215 170 -215q85 0 150.5 64.5t99 166.5t33.5 220q0 213 -170 213q-85 0 -151 -66t-99 -167t-33 -216z M406 1266l40 235h197l-41 -235h-196zM743 1266l41 235h197l-41 -235h-197z" />
<glyph unicode="&#xf7;" horiz-adv-x="980" d="M158 424v176h747v-176h-747zM406 145q0 53 36 90t90 37q52 0 89.5 -37t37.5 -90q0 -54 -37 -90.5t-90 -36.5q-54 0 -90 36.5t-36 90.5zM406 881q0 53 36 90t90 37q52 0 89.5 -37t37.5 -90q0 -54 -37 -90.5t-90 -36.5q-54 0 -90 36.5t-36 90.5z" />
<glyph unicode="&#xf8;" horiz-adv-x="1026" d="M-25 0l150 158q-28 63 -38.5 114t-10.5 119q0 149 44.5 283.5t121 231.5t182.5 154.5t223 57.5q88 0 154 -28.5t127 -92.5l141 150l47 -66l-145 -151q27 -64 37 -114t10 -118q0 -148 -44 -282t-120 -231.5t-182.5 -155.5t-225.5 -58q-88 0 -152.5 28t-123.5 91l-141 -149 zM322 430q0 -1 4 -63l417 438q-26 38 -58 55t-79 17q-123 0 -203.5 -128t-80.5 -319zM354 283q44 -70 133 -70q124 0 204.5 129.5t80.5 316.5q0 31 -2 60z" />
<glyph unicode="&#xf9;" horiz-adv-x="1026" d="M102 246q0 68 11 127l127 717h235l-119 -676q-6 -34 -6 -70q0 -131 121 -131q86 0 146.5 66t80.5 182l111 629h235l-190 -1090h-225l28 160q-69 -100 -142 -144.5t-169 -44.5q-117 0 -180.5 71.5t-63.5 203.5zM387 1532h258l107 -299h-170z" />
<glyph unicode="&#xfa;" horiz-adv-x="1026" d="M102 246q0 68 11 127l127 717h235l-119 -676q-6 -34 -6 -70q0 -131 121 -131q86 0 146.5 66t80.5 182l111 629h235l-190 -1090h-225l28 160q-69 -100 -142 -144.5t-169 -44.5q-117 0 -180.5 71.5t-63.5 203.5zM582 1233l211 299h258l-299 -299h-170z" />
<glyph unicode="&#xfb;" horiz-adv-x="1026" d="M102 246q0 68 11 127l127 717h235l-119 -676q-6 -34 -6 -70q0 -131 121 -131q86 0 146.5 66t80.5 182l111 629h235l-190 -1090h-225l28 160q-69 -100 -142 -144.5t-169 -44.5q-117 0 -180.5 71.5t-63.5 203.5zM371 1233l243 299h211l140 -299h-191l-78 168l-135 -168 h-190z" />
<glyph unicode="&#xfc;" horiz-adv-x="1026" d="M102 246q0 68 11 127l127 717h235l-119 -676q-6 -34 -6 -70q0 -131 121 -131q86 0 146.5 66t80.5 182l111 629h235l-190 -1090h-225l28 160q-69 -100 -142 -144.5t-169 -44.5q-117 0 -180.5 71.5t-63.5 203.5zM406 1266l40 235h197l-41 -235h-196zM743 1266l41 235h197 l-41 -235h-197z" />
<glyph unicode="&#xfd;" d="M8 -434l41 229q28 -4 49 -4q74 0 109 32.5t69 131.5l-131 1135h263l51 -811l325 811h250l-495 -1072q-54 -117 -85.5 -181.5t-67 -123t-57.5 -82.5t-57.5 -43t-67 -22.5t-85.5 -3.5zM535 1233l210 299h259l-299 -299h-170z" />
<glyph unicode="&#xfe;" horiz-adv-x="1026" d="M-31 -424l330 1894h236l-93 -526q69 94 136 134t153 40q135 0 213 -103t78 -282q0 -194 -63 -368.5t-178 -284t-253 -109.5q-92 0 -143 40t-82 134l-98 -569h-236zM350 414q0 -98 41.5 -152.5t116.5 -54.5q74 0 136 67.5t95 170.5t33 212q0 104 -39.5 158.5t-114.5 54.5 q-64 0 -116.5 -42.5t-84.5 -110t-49.5 -146.5t-17.5 -157z" />
<glyph unicode="&#xff;" d="M8 -434l41 229q28 -4 49 -4q74 0 109 32.5t69 131.5l-131 1135h263l51 -811l325 811h250l-495 -1072q-54 -117 -85.5 -181.5t-67 -123t-57.5 -82.5t-57.5 -43t-67 -22.5t-85.5 -3.5zM358 1266l41 235h197l-41 -235h-197zM696 1266l41 235h197l-41 -235h-197z" />
<glyph unicode="&#x100;" horiz-adv-x="1212" d="M-29 0l688 1470h291l168 -1470h-274l-25 303h-444l-137 -303h-267zM485 557h308l-48 588zM549 1667l26 152h580l-27 -152h-579z" />
<glyph unicode="&#x101;" d="M31 207q0 167 89.5 285.5t237.5 144.5l220 39q100 18 100 117q0 96 -127 96q-74 0 -114.5 -34.5t-65.5 -117.5h-226q60 208 164 294.5t291 86.5q152 0 235 -64.5t83 -183.5q0 -27 -7 -67l-102 -590q-10 -65 -10 -100q0 -53 32 -70l-8 -43h-254q-2 33 -2 59q0 31 4 70 q-85 -87 -155 -122.5t-156 -35.5q-107 0 -168 63t-61 173zM272 272q0 -44 25 -70t68 -26q86 0 158 63t87 152l25 139q-27 -21 -62 -33t-108 -26q-101 -22 -147 -69t-46 -130zM342 1307l27 151h579l-26 -151h-580z" />
<glyph unicode="&#x102;" horiz-adv-x="1212" d="M-29 0l688 1470h291l168 -1470h-274l-25 303h-444l-137 -303h-267zM485 557h308l-48 588zM569 1872h111q24 -52 62 -76t116 -24t120.5 24t70.5 76h129q-53 -123 -143.5 -190.5t-215.5 -67.5q-234 0 -250 258z" />
<glyph unicode="&#x103;" d="M31 207q0 167 89.5 285.5t237.5 144.5l220 39q100 18 100 117q0 96 -127 96q-74 0 -114.5 -34.5t-65.5 -117.5h-226q60 208 164 294.5t291 86.5q152 0 235 -64.5t83 -183.5q0 -27 -7 -67l-102 -590q-10 -65 -10 -100q0 -53 32 -70l-8 -43h-254q-2 33 -2 59q0 31 4 70 q-85 -87 -155 -122.5t-156 -35.5q-107 0 -168 63t-61 173zM272 272q0 -44 25 -70t68 -26q86 0 158 63t87 152l25 139q-27 -21 -62 -33t-108 -26q-101 -22 -147 -69t-46 -130zM387 1475q0 32 2 57h111v-12q0 -69 34.5 -100t112.5 -31q82 0 125 31t74 112h108 q-83 -299 -344 -299q-107 0 -165 62.5t-58 179.5z" />
<glyph unicode="&#x104;" horiz-adv-x="1212" d="M-29 0l688 1470h291l168 -1470q-124 -10 -211 -109q-55 -61 -55 -131q0 -86 127 -86h82l-33 -186h-82q-79 0 -144.5 20.5t-109 66t-43.5 110.5q0 91 53 168q62 87 142 147l-25 303h-444l-137 -303h-267zM485 557h308l-48 588z" />
<glyph unicode="&#x105;" d="M31 207q0 167 89.5 285.5t237.5 144.5l220 39q100 18 100 117q0 96 -127 96q-74 0 -114.5 -34.5t-65.5 -117.5h-226q60 208 164 294.5t291 86.5q152 0 235 -64.5t83 -183.5q0 -27 -7 -67l-102 -590q-10 -65 -10 -100q0 -53 32 -70l-8 -43q-122 -9 -209 -109 q-55 -61 -55 -131q0 -86 127 -86h82l-33 -186h-82q-79 0 -144.5 20.5t-109 66t-43.5 110.5q0 89 54 168q63 91 159 147q-2 33 -2 59q0 31 4 70q-85 -87 -155 -122.5t-156 -35.5q-107 0 -168 63t-61 173zM272 272q0 -44 25 -70t68 -26q86 0 158 63t87 152l25 139 q-27 -21 -62 -33t-108 -26q-101 -22 -147 -69t-46 -130z" />
<glyph unicode="&#x106;" horiz-adv-x="1212" d="M119 494q0 277 93 509.5t258 369t366 136.5q192 0 310 -122.5t118 -323.5q0 -41 -2 -74h-254q-6 130 -57 192t-156 62q-118 0 -213.5 -96t-148 -255t-52.5 -347q0 -152 59 -235t168 -83q105 0 182 65.5t134 211.5h252q-198 -543 -617 -543q-208 0 -324 139t-116 394z M768 1614l205 258h258l-293 -258h-170z" />
<glyph unicode="&#x107;" d="M72 348q0 208 66 382.5t191 281t283 106.5q151 0 241.5 -89.5t90.5 -240.5q0 -22 -4 -88h-238q-2 93 -30 135t-90 42q-78 0 -139.5 -68.5t-93.5 -179.5t-32 -242q0 -86 35.5 -133t100.5 -47q66 0 119 52t75 138h240q-63 -206 -188 -316t-296 -110q-161 0 -246 97t-85 280 zM535 1233l210 299h259l-299 -299h-170z" />
<glyph unicode="&#x108;" horiz-adv-x="1212" d="M119 494q0 277 93 509.5t258 369t366 136.5q192 0 310 -122.5t118 -323.5q0 -41 -2 -74h-254q-6 130 -57 192t-156 62q-118 0 -213.5 -96t-148 -255t-52.5 -347q0 -152 59 -235t168 -83q105 0 182 65.5t134 211.5h252q-198 -543 -617 -543q-208 0 -324 139t-116 394z M537 1614l256 258h211l165 -258h-190l-105 127l-147 -127h-190z" />
<glyph unicode="&#x109;" d="M72 348q0 208 66 382.5t191 281t283 106.5q151 0 241.5 -89.5t90.5 -240.5q0 -22 -4 -88h-238q-2 93 -30 135t-90 42q-78 0 -139.5 -68.5t-93.5 -179.5t-32 -242q0 -86 35.5 -133t100.5 -47q66 0 119 52t75 138h240q-63 -206 -188 -316t-296 -110q-161 0 -246 97t-85 280 zM324 1233l243 299h211l140 -299h-191l-78 168l-135 -168h-190z" />
<glyph unicode="&#x10a;" horiz-adv-x="1212" d="M119 494q0 277 93 509.5t258 369t366 136.5q192 0 310 -122.5t118 -323.5q0 -41 -2 -74h-254q-6 130 -57 192t-156 62q-118 0 -213.5 -96t-148 -255t-52.5 -347q0 -152 59 -235t168 -83q105 0 182 65.5t134 211.5h252q-198 -543 -617 -543q-208 0 -324 139t-116 394z M739 1626l41 236h234l-41 -236h-234z" />
<glyph unicode="&#x10b;" d="M72 348q0 208 66 382.5t191 281t283 106.5q151 0 241.5 -89.5t90.5 -240.5q0 -22 -4 -88h-238q-2 93 -30 135t-90 42q-78 0 -139.5 -68.5t-93.5 -179.5t-32 -242q0 -86 35.5 -133t100.5 -47q66 0 119 52t75 138h240q-63 -206 -188 -316t-296 -110q-161 0 -246 97t-85 280 zM510 1266l41 235h233l-41 -235h-233z" />
<glyph unicode="&#x10c;" horiz-adv-x="1212" d="M119 494q0 277 93 509.5t258 369t366 136.5q192 0 310 -122.5t118 -323.5q0 -41 -2 -74h-254q-6 130 -57 192t-156 62q-118 0 -213.5 -96t-148 -255t-52.5 -347q0 -152 59 -235t168 -83q105 0 182 65.5t134 211.5h252q-198 -543 -617 -543q-208 0 -324 139t-116 394z M582 1872h190l105 -127l147 127h190l-256 -258h-210z" />
<glyph unicode="&#x10d;" d="M72 348q0 208 66 382.5t191 281t283 106.5q151 0 241.5 -89.5t90.5 -240.5q0 -22 -4 -88h-238q-2 93 -30 135t-90 42q-78 0 -139.5 -68.5t-93.5 -179.5t-32 -242q0 -86 35.5 -133t100.5 -47q66 0 119 52t75 138h240q-63 -206 -188 -316t-296 -110q-161 0 -246 97t-85 280 zM375 1532h190l78 -168l135 168h191l-244 -299h-211z" />
<glyph unicode="&#x10e;" horiz-adv-x="1212" d="M66 0l256 1470h534q188 0 287.5 -122t99.5 -353q0 -189 -49 -369t-133.5 -318.5t-208.5 -223t-264 -84.5h-522zM356 254h246q109 0 197.5 102t135 259.5t46.5 330.5q0 138 -52 204.5t-161 66.5h-244zM565 1872h191l104 -127l148 127h190l-256 -258h-211z" />
<glyph unicode="&#x10f;" horiz-adv-x="1026" d="M76 369q0 205 65 377.5t177 272t245 99.5q86 0 139.5 -41t90.5 -135l92 528h235l-256 -1470h-231l26 143q-61 -89 -132 -130.5t-162 -41.5q-137 0 -213 104.5t-76 293.5zM322 428q0 -107 37.5 -164t109.5 -57q117 0 195.5 129t78.5 321q0 213 -153 213 q-79 0 -141.5 -65.5t-94.5 -166t-32 -210.5zM1151 983l16 88q59 12 99 61t47 119h-115l39 219h201l-35 -194q-13 -120 -84 -202t-168 -91z" />
<glyph unicode="&#x110;" horiz-adv-x="1212" d="M43 647l45 254h135l101 569h532q188 0 287.5 -121.5t99.5 -355.5q0 -187 -49 -366.5t-133.5 -318.5t-208 -223.5t-262.5 -84.5h-524l112 647h-135zM358 254h244q108 0 196.5 101.5t135.5 259.5t47 331q0 138 -52 204.5t-161 66.5h-242l-55 -316h279l-45 -254h-279z" />
<glyph unicode="&#x111;" horiz-adv-x="1042" d="M76 369q0 205 65 377.5t177 272t245 99.5q86 0 139.5 -41t90.5 -135l45 262h-226l27 152h225l21 114h235l-20 -114h119l-27 -152h-119l-209 -1204h-231l26 143q-61 -89 -132 -130.5t-162 -41.5q-137 0 -213 104.5t-76 293.5zM322 428q0 -107 37.5 -164t109.5 -57 q117 0 195.5 129t78.5 321q0 213 -153 213q-79 0 -141.5 -65.5t-94.5 -166t-32 -210.5z" />
<glyph unicode="&#x112;" horiz-adv-x="1120" d="M66 0l256 1470h886l-45 -260h-641l-53 -309h588l-45 -260h-588l-66 -381h668l-45 -260h-915zM508 1667l27 152h579l-27 -152h-579z" />
<glyph unicode="&#x113;" d="M57 367q0 211 70 383t193.5 270t275.5 98q164 0 251 -102.5t87 -296.5q0 -72 -19 -201l-8 -51h-612q-6 -47 -6 -80q0 -89 43 -137.5t121 -48.5q120 0 176 118h241q-82 -182 -196 -265t-264 -83q-172 0 -262.5 101.5t-90.5 294.5zM334 653h364l2 54q3 80 -39 128t-108 48 q-78 0 -131 -55t-88 -175zM342 1307l27 151h579l-26 -151h-580z" />
<glyph unicode="&#x114;" horiz-adv-x="1120" d="M66 0l256 1470h886l-45 -260h-641l-53 -309h588l-45 -260h-588l-66 -381h668l-45 -260h-915zM528 1872h111q24 -52 62 -76t116 -24t120.5 24t70.5 76h129q-53 -123 -143.5 -190.5t-215.5 -67.5q-234 0 -250 258z" />
<glyph unicode="&#x115;" d="M57 367q0 211 70 383t193.5 270t275.5 98q164 0 251 -102.5t87 -296.5q0 -72 -19 -201l-8 -51h-612q-6 -47 -6 -80q0 -89 43 -137.5t121 -48.5q120 0 176 118h241q-82 -182 -196 -265t-264 -83q-172 0 -262.5 101.5t-90.5 294.5zM334 653h364l2 54q3 80 -39 128t-108 48 q-78 0 -131 -55t-88 -175zM387 1475q0 32 2 57h111v-12q0 -69 34.5 -100t112.5 -31q82 0 125 31t74 112h108q-83 -299 -344 -299q-107 0 -165 62.5t-58 179.5z" />
<glyph unicode="&#x116;" horiz-adv-x="1120" d="M66 0l256 1470h886l-45 -260h-641l-53 -309h588l-45 -260h-588l-66 -381h668l-45 -260h-915zM676 1626l41 236h233l-41 -236h-233z" />
<glyph unicode="&#x117;" d="M57 367q0 211 70 383t193.5 270t275.5 98q164 0 251 -102.5t87 -296.5q0 -72 -19 -201l-8 -51h-612q-6 -47 -6 -80q0 -89 43 -137.5t121 -48.5q120 0 176 118h241q-82 -182 -196 -265t-264 -83q-172 0 -262.5 101.5t-90.5 294.5zM334 653h364l2 54q3 80 -39 128t-108 48 q-78 0 -131 -55t-88 -175zM510 1266l41 235h233l-41 -235h-233z" />
<glyph unicode="&#x118;" horiz-adv-x="1120" d="M66 0l256 1470h886l-45 -260h-641l-53 -309h588l-45 -260h-588l-66 -381h668l-45 -260q-124 -10 -211 -109q-55 -61 -55 -131q0 -86 127 -86h82l-33 -186h-82q-79 0 -144.5 20.5t-109 66t-43.5 110.5q0 91 50 163t155 152h-651z" />
<glyph unicode="&#x119;" d="M57 367q0 211 70 383t193.5 270t275.5 98q164 0 251 -102.5t87 -296.5q0 -72 -19 -201l-8 -51h-612q-6 -47 -6 -80q0 -89 43 -137.5t121 -48.5q120 0 176 118h241q-79 -180 -200 -268q-95 -68 -178 -160q-56 -62 -56 -131q0 -86 127 -86h82l-33 -186h-82 q-79 0 -144.5 20.5t-109 66t-43.5 110.5q0 83 41 150t127 136q-167 2 -255.5 103t-88.5 293zM334 653h364l2 54q3 80 -39 128t-108 48q-78 0 -131 -55t-88 -175z" />
<glyph unicode="&#x11a;" horiz-adv-x="1120" d="M66 0l256 1470h886l-45 -260h-641l-53 -309h588l-45 -260h-588l-66 -381h668l-45 -260h-915zM518 1872h191l104 -127l148 127h190l-256 -258h-211z" />
<glyph unicode="&#x11b;" d="M57 367q0 211 70 383t193.5 270t275.5 98q164 0 251 -102.5t87 -296.5q0 -72 -19 -201l-8 -51h-612q-6 -47 -6 -80q0 -89 43 -137.5t121 -48.5q120 0 176 118h241q-82 -182 -196 -265t-264 -83q-172 0 -262.5 101.5t-90.5 294.5zM334 653h364l2 54q3 80 -39 128t-108 48 q-78 0 -131 -55t-88 -175zM375 1532h190l78 -168l135 168h191l-244 -299h-211z" />
<glyph unicode="&#x11c;" horiz-adv-x="1306" d="M121 510q0 196 56 378t153 319t237 219.5t299 82.5q201 0 323 -119t122 -315q0 -34 -2 -61h-252v12q0 95 -66 162t-160 67q-125 0 -229 -96.5t-162.5 -258.5t-58.5 -351q0 -157 70 -242.5t198 -85.5q115 0 203.5 76.5t155.5 247.5h-281l43 248h506l-139 -793h-168l6 184 q-109 -124 -200.5 -173.5t-213.5 -49.5q-203 0 -321.5 148t-118.5 401zM567 1614l256 258h211l166 -258h-190l-105 127l-147 -127h-191z" />
<glyph unicode="&#x11d;" horiz-adv-x="1026" d="M2 -172q0 35 2 55h256q0 -61 31.5 -85.5t105.5 -24.5q101 0 158 59.5t80 190.5l24 141q-63 -95 -123 -132.5t-149 -37.5q-143 0 -223 101t-80 282q0 202 65.5 372.5t178 269.5t245.5 99q94 0 148 -46.5t80 -149.5l30 168h226l-180 -1033q-24 -138 -70 -236t-114 -155.5 t-150.5 -83.5t-188.5 -26q-166 0 -259 71.5t-93 200.5zM330 434q0 -95 38 -146.5t107 -51.5q77 0 138 60t92.5 154.5t31.5 202.5q0 101 -41 159t-112 58q-103 0 -178.5 -129t-75.5 -307zM371 1233l243 299h211l140 -299h-191l-78 168l-135 -168h-190z" />
<glyph unicode="&#x11e;" horiz-adv-x="1306" d="M121 510q0 196 56 378t153 319t237 219.5t299 82.5q201 0 323 -119t122 -315q0 -34 -2 -61h-252v12q0 95 -66 162t-160 67q-125 0 -229 -96.5t-162.5 -258.5t-58.5 -351q0 -157 70 -242.5t198 -85.5q115 0 203.5 76.5t155.5 247.5h-281l43 248h506l-139 -793h-168l6 184 q-109 -124 -200.5 -173.5t-213.5 -49.5q-203 0 -321.5 148t-118.5 401zM625 1872h110q24 -52 62 -76t116 -24t120.5 24t70.5 76h129q-53 -123 -143.5 -190.5t-215.5 -67.5q-233 0 -249 258z" />
<glyph unicode="&#x11f;" horiz-adv-x="1026" d="M2 -172q0 35 2 55h256q0 -61 31.5 -85.5t105.5 -24.5q101 0 158 59.5t80 190.5l24 141q-63 -95 -123 -132.5t-149 -37.5q-143 0 -223 101t-80 282q0 202 65.5 372.5t178 269.5t245.5 99q94 0 148 -46.5t80 -149.5l30 168h226l-180 -1033q-24 -138 -70 -236t-114 -155.5 t-150.5 -83.5t-188.5 -26q-166 0 -259 71.5t-93 200.5zM330 434q0 -95 38 -146.5t107 -51.5q77 0 138 60t92.5 154.5t31.5 202.5q0 101 -41 159t-112 58q-103 0 -178.5 -129t-75.5 -307zM434 1475q0 32 2 57h111v-12q0 -69 34.5 -100t112.5 -31q82 0 125 31t74 112h108 q-83 -299 -344 -299q-107 0 -165 62.5t-58 179.5z" />
<glyph unicode="&#x120;" horiz-adv-x="1306" d="M121 510q0 196 56 378t153 319t237 219.5t299 82.5q201 0 323 -119t122 -315q0 -34 -2 -61h-252v12q0 95 -66 162t-160 67q-125 0 -229 -96.5t-162.5 -258.5t-58.5 -351q0 -157 70 -242.5t198 -85.5q115 0 203.5 76.5t155.5 247.5h-281l43 248h506l-139 -793h-168l6 184 q-109 -124 -200.5 -173.5t-213.5 -49.5q-203 0 -321.5 148t-118.5 401zM770 1626l41 236h233l-40 -236h-234z" />
<glyph unicode="&#x121;" horiz-adv-x="1026" d="M2 -172q0 35 2 55h256q0 -61 31.5 -85.5t105.5 -24.5q101 0 158 59.5t80 190.5l24 141q-63 -95 -123 -132.5t-149 -37.5q-143 0 -223 101t-80 282q0 202 65.5 372.5t178 269.5t245.5 99q94 0 148 -46.5t80 -149.5l30 168h226l-180 -1033q-24 -138 -70 -236t-114 -155.5 t-150.5 -83.5t-188.5 -26q-166 0 -259 71.5t-93 200.5zM330 434q0 -95 38 -146.5t107 -51.5q77 0 138 60t92.5 154.5t31.5 202.5q0 101 -41 159t-112 58q-103 0 -178.5 -129t-75.5 -307zM557 1266l41 235h233l-40 -235h-234z" />
<glyph unicode="&#x122;" horiz-adv-x="1306" d="M121 510q0 196 56 378t153 319t237 219.5t299 82.5q201 0 323 -119t122 -315q0 -34 -2 -61h-252v12q0 95 -66 162t-160 67q-125 0 -229 -96.5t-162.5 -258.5t-58.5 -351q0 -157 70 -242.5t198 -85.5q115 0 203.5 76.5t155.5 247.5h-281l43 248h506l-139 -793h-168l6 184 q-109 -124 -200.5 -173.5t-213.5 -49.5q-203 0 -321.5 148t-118.5 401zM395 -610l17 88q59 12 98.5 61t46.5 119h-115l39 219h201l-35 -194q-13 -120 -84 -202t-168 -91z" />
<glyph unicode="&#x123;" horiz-adv-x="1026" d="M2 -172q0 35 2 55h256q0 -61 31.5 -85.5t105.5 -24.5q101 0 158 59.5t80 190.5l24 141q-63 -95 -123 -132.5t-149 -37.5q-143 0 -223 101t-80 282q0 202 65.5 372.5t178 269.5t245.5 99q94 0 148 -46.5t80 -149.5l30 168h226l-180 -1033q-24 -138 -70 -236t-114 -155.5 t-150.5 -83.5t-188.5 -26q-166 0 -259 71.5t-93 200.5zM330 434q0 -95 38 -146.5t107 -51.5q77 0 138 60t92.5 154.5t31.5 202.5q0 101 -41 159t-112 58q-103 0 -178.5 -129t-75.5 -307zM561 1198l35 195q13 120 84 202t168 91l-17 -89q-59 -12 -98.5 -61t-46.5 -119h115 l-39 -219h-201z" />
<glyph unicode="&#x124;" horiz-adv-x="1212" d="M57 0l256 1470h252l-96 -557h471l96 557h252l-256 -1470h-252l115 659h-471l-115 -659h-252zM508 1614l256 258h211l166 -258h-191l-104 127l-148 -127h-190z" />
<glyph unicode="&#x125;" horiz-adv-x="1026" d="M47 0l256 1470h236l-93 -530q103 178 297 178q117 0 184.5 -73t67.5 -199q0 -48 -8 -92l-131 -754h-235l114 662q10 62 10 92q0 59 -32 91t-90 32q-87 0 -149.5 -67.5t-82.5 -184.5l-108 -625h-236zM416 1614l256 258h211l166 -258h-191l-104 127l-148 -127h-190z" />
<glyph unicode="&#x126;" horiz-adv-x="1212" d="M57 0l193 1104h-125l25 145h124l39 221h252l-39 -221h471l39 221h252l-39 -221h125l-24 -145h-125l-193 -1104h-252l115 659h-471l-115 -659h-252zM469 913h471l33 191h-471z" />
<glyph unicode="&#x127;" horiz-adv-x="1159" d="M172 0l184 1055l-125 -43l27 155l125 43l45 260h236l-31 -176l180 64l-27 -156l-180 -61l-35 -201q103 178 297 178q117 0 184.5 -73t67.5 -199q0 -48 -8 -92l-131 -754h-236l115 662q10 62 10 92q0 59 -32 91t-90 32q-87 0 -149.5 -67.5t-82.5 -184.5l-108 -625h-236z " />
<glyph unicode="&#x128;" horiz-adv-x="466" d="M45 0l258 1470h252l-258 -1470h-252zM145 1614q46 131 105 191.5t141 60.5q14 0 107.5 -37t105.5 -37q61 0 94 82h109q-82 -246 -225 -246q-19 0 -117 37t-119 37q-58 0 -94 -88h-107z" />
<glyph unicode="&#x129;" horiz-adv-x="466" d="M55 0l191 1090h233l-190 -1090h-234zM80 1253q46 131 105 191.5t141 60.5q14 0 107.5 -36.5t105.5 -36.5q32 0 54.5 19t39.5 62h108q-82 -245 -225 -245q-19 0 -116.5 36.5t-118.5 36.5q-59 0 -95 -88h-106z" />
<glyph unicode="&#x12a;" horiz-adv-x="466" d="M45 0l258 1470h252l-258 -1470h-252zM172 1667l27 152h579l-26 -152h-580z" />
<glyph unicode="&#x12b;" horiz-adv-x="466" d="M55 0l191 1090h233l-190 -1090h-234zM109 1307l26 151h580l-27 -151h-579z" />
<glyph unicode="&#x12c;" horiz-adv-x="466" d="M45 0l258 1470h252l-258 -1470h-252zM193 1872h110q24 -52 62 -76t116 -24t120.5 24t70.5 76h129q-53 -123 -143.5 -190.5t-215.5 -67.5q-233 0 -249 258z" />
<glyph unicode="&#x12d;" horiz-adv-x="466" d="M55 0l191 1090h233l-190 -1090h-234zM154 1475q0 32 2 57h110v-12q0 -69 35 -100t113 -31q82 0 124.5 30.5t73.5 112.5h109q-83 -299 -344 -299q-107 0 -165 62.5t-58 179.5z" />
<glyph unicode="&#x12e;" horiz-adv-x="466" d="M-129 -315q0 91 50 163t155 152h-31l258 1470h252l-258 -1470q-96 -27 -168 -109q-55 -61 -55 -131q0 -86 127 -86h82l-33 -186h-82q-79 0 -144.5 20.5t-109 66t-43.5 110.5z" />
<glyph unicode="&#x12f;" horiz-adv-x="466" d="M-119 -315q0 91 50 163t155 152h-31l191 1090h233l-190 -1090q-86 -39 -150 -109q-55 -65 -55 -131q0 -86 127 -86h82l-33 -186h-82q-79 0 -144.5 20.5t-109 66t-43.5 110.5zM276 1266l41 235h234l-41 -235h-234z" />
<glyph unicode="&#x130;" horiz-adv-x="466" d="M45 0l258 1470h252l-258 -1470h-252zM340 1626l41 236h233l-41 -236h-233z" />
<glyph unicode="&#x131;" horiz-adv-x="466" d="M55 0l191 1090h233l-190 -1090h-234z" />
<glyph unicode="&#x134;" d="M39 274q0 90 33 281h235q-24 -156 -24 -215q0 -68 27 -98.5t87 -30.5q76 0 115 47.5t61 167.5l183 1044h252l-183 -1044q-80 -463 -460 -463q-166 0 -246 76.5t-80 234.5zM588 1614l256 258h211l166 -258h-191l-104 127l-148 -127h-190z" />
<glyph unicode="&#x135;" horiz-adv-x="466" d="M-133 -438l41 229h41q37 0 57 23t29 77l209 1199h235l-209 -1205q-32 -183 -106.5 -253t-237.5 -70h-59zM90 1233l244 299h211l139 -299h-190l-78 168l-135 -168h-191z" />
<glyph unicode="&#x136;" horiz-adv-x="1212" d="M84 0l256 1470h252l-105 -598l566 598h325l-598 -602l371 -868h-326l-260 645l-143 -147l-86 -498h-252zM334 -610l16 88q59 12 99 61t47 119h-115l39 219h201l-35 -194q-13 -120 -84 -202t-168 -91z" />
<glyph unicode="&#x137;" d="M55 0l256 1470h236l-139 -794l366 414h289l-389 -422l209 -668h-283l-131 467l-119 -123l-59 -344h-236zM199 -610l16 88q59 12 98.5 61t46.5 119h-114l39 219h200l-34 -194q-13 -120 -84 -202t-168 -91z" />
<glyph unicode="&#x139;" horiz-adv-x="1026" d="M66 0l256 1470h251l-208 -1204h600l-47 -266h-852zM346 1614l205 258h258l-293 -258h-170z" />
<glyph unicode="&#x13a;" horiz-adv-x="466" d="M55 0l256 1470h236l-256 -1470h-236zM336 1614l205 258h258l-293 -258h-170z" />
<glyph unicode="&#x13b;" horiz-adv-x="1026" d="M66 0l256 1470h251l-208 -1204h600l-47 -266h-852zM285 -610l16 88q59 12 98.5 61t46.5 119h-114l39 219h200l-34 -194q-13 -120 -84 -202t-168 -91z" />
<glyph unicode="&#x13c;" horiz-adv-x="466" d="M-35 -610l17 88q59 12 98.5 61t46.5 119h-115l39 219h201l-35 -194q-13 -120 -84 -202t-168 -91zM55 0l256 1470h236l-256 -1470h-236z" />
<glyph unicode="&#x13d;" horiz-adv-x="1026" d="M66 0l256 1470h251l-208 -1204h600l-47 -266h-852zM604 983l17 88q59 12 98.5 61t46.5 119h-115l39 219h201l-35 -194q-13 -120 -84 -202t-168 -91z" />
<glyph unicode="&#x13e;" horiz-adv-x="466" d="M55 0l256 1470h236l-256 -1470h-236zM578 983l16 88q59 12 98.5 61t46.5 119h-114l39 219h200l-35 -194q-13 -120 -83.5 -202t-167.5 -91z" />
<glyph unicode="&#x13f;" horiz-adv-x="1026" d="M66 0l256 1470h251l-208 -1204h600l-47 -266h-852zM702 657l41 236h234l-41 -236h-234z" />
<glyph unicode="&#x140;" horiz-adv-x="700" d="M55 0l256 1470h236l-256 -1470h-236zM522 657l41 236h234l-41 -236h-234z" />
<glyph unicode="&#x141;" horiz-adv-x="1265" d="M113 346l37 219l217 142l133 763h252l-105 -598l301 197l-39 -219l-299 -197l-67 -387h600l-47 -266h-852l84 487z" />
<glyph unicode="&#x142;" horiz-adv-x="823" d="M125 633l35 205l241 131l88 501h236l-66 -380l244 133l-35 -205l-245 -133l-154 -885h-236l134 764z" />
<glyph unicode="&#x143;" horiz-adv-x="1212" d="M55 0l256 1470h264l304 -1032l178 1032h235l-256 -1470h-252l-311 1055l-182 -1055h-236zM739 1614l205 258h258l-293 -258h-170z" />
<glyph unicode="&#x144;" horiz-adv-x="1026" d="M47 0l191 1090h225l-29 -166q71 104 141 149t164 45q120 0 188 -72t68 -200q0 -48 -8 -92l-131 -754h-235l114 662q10 62 10 92q0 59 -32 91t-90 32q-87 0 -149.5 -67.5t-82.5 -184.5l-108 -625h-236zM582 1233l211 299h258l-299 -299h-170z" />
<glyph unicode="&#x145;" horiz-adv-x="1212" d="M55 0l256 1470h264l304 -1032l178 1032h235l-256 -1470h-252l-311 1055l-182 -1055h-236zM338 -610l16 88q59 12 99 61t47 119h-115l39 219h201l-35 -194q-13 -120 -84 -202t-168 -91z" />
<glyph unicode="&#x146;" horiz-adv-x="1026" d="M47 0l191 1090h225l-29 -166q71 104 141 149t164 45q120 0 188 -72t68 -200q0 -48 -8 -92l-131 -754h-235l114 662q10 62 10 92q0 59 -32 91t-90 32q-87 0 -149.5 -67.5t-82.5 -184.5l-108 -625h-236zM246 -610l16 88q59 12 99 61t47 119h-115l39 219h200l-34 -194 q-13 -120 -84 -202t-168 -91z" />
<glyph unicode="&#x147;" horiz-adv-x="1212" d="M55 0l256 1470h264l304 -1032l178 1032h235l-256 -1470h-252l-311 1055l-182 -1055h-236zM555 1872h190l105 -127l147 127h191l-256 -258h-211z" />
<glyph unicode="&#x148;" horiz-adv-x="1026" d="M47 0l191 1090h225l-29 -166q71 104 141 149t164 45q120 0 188 -72t68 -200q0 -48 -8 -92l-131 -754h-235l114 662q10 62 10 92q0 59 -32 91t-90 32q-87 0 -149.5 -67.5t-82.5 -184.5l-108 -625h-236zM422 1532h190l78 -168l135 168h191l-244 -299h-211z" />
<glyph unicode="&#x14a;" horiz-adv-x="1212" d="M55 0l256 1470h264l304 -1032l178 1032h235l-264 -1517q-80 -463 -461 -463q-166 0 -245.5 76.5t-79.5 234.5l243 66q0 -67 27.5 -98t87.5 -31q64 0 118 42t64 103l15 78l-324 1094l-182 -1055h-236z" />
<glyph unicode="&#x14b;" horiz-adv-x="1026" d="M47 0l191 1090h225l-29 -166q71 104 141 149t164 45q120 0 188 -72t68 -200q0 -48 -8 -92l-151 -869q-32 -183 -106.5 -253t-237.5 -70h-60l41 229h41q37 0 57 23t29 77l135 771q10 62 10 92q0 59 -32 91t-90 32q-87 0 -149.5 -67.5t-82.5 -184.5l-108 -625h-236z" />
<glyph unicode="&#x14c;" horiz-adv-x="1306" d="M119 502q0 167 36 321t103 278t157 216t204 142t239 50q98 0 181.5 -34t146.5 -99.5t99 -169t36 -235.5q0 -212 -56 -399t-153.5 -321t-234.5 -212t-293 -78q-215 0 -340 145.5t-125 395.5zM377 555q0 -157 68 -245.5t188 -88.5q119 0 218.5 91.5t156.5 251t57 351.5 q0 155 -68 244.5t-186 89.5q-124 0 -225 -97.5t-155 -255.5t-54 -341zM594 1667l27 152h579l-26 -152h-580z" />
<glyph unicode="&#x14d;" horiz-adv-x="1026" d="M76 389q0 152 44.5 287.5t120 232t181.5 153t225 56.5q172 0 271.5 -112t99.5 -306q0 -200 -75 -367.5t-207 -264.5t-290 -97q-172 0 -271 112t-99 306zM319 428q0 -215 170 -215q85 0 150.5 64.5t99 166.5t33.5 220q0 213 -170 213q-85 0 -151 -66t-99 -167t-33 -216z M389 1307l27 151h579l-26 -151h-580z" />
<glyph unicode="&#x14e;" horiz-adv-x="1306" d="M119 502q0 167 36 321t103 278t157 216t204 142t239 50q98 0 181.5 -34t146.5 -99.5t99 -169t36 -235.5q0 -212 -56 -399t-153.5 -321t-234.5 -212t-293 -78q-215 0 -340 145.5t-125 395.5zM377 555q0 -157 68 -245.5t188 -88.5q119 0 218.5 91.5t156.5 251t57 351.5 q0 155 -68 244.5t-186 89.5q-124 0 -225 -97.5t-155 -255.5t-54 -341zM616 1872h111q24 -52 62 -76t116 -24t120.5 24t70.5 76h129q-53 -123 -143.5 -190.5t-215.5 -67.5q-234 0 -250 258z" />
<glyph unicode="&#x14f;" horiz-adv-x="1026" d="M76 389q0 152 44.5 287.5t120 232t181.5 153t225 56.5q172 0 271.5 -112t99.5 -306q0 -200 -75 -367.5t-207 -264.5t-290 -97q-172 0 -271 112t-99 306zM319 428q0 -215 170 -215q85 0 150.5 64.5t99 166.5t33.5 220q0 213 -170 213q-85 0 -151 -66t-99 -167t-33 -216z M434 1475q0 32 2 57h111v-12q0 -69 34.5 -100t112.5 -31q82 0 125 31t74 112h108q-83 -299 -344 -299q-107 0 -165 62.5t-58 179.5z" />
<glyph unicode="&#x150;" horiz-adv-x="1306" d="M119 502q0 167 36 321t103 278t157 216t204 142t239 50q98 0 181.5 -34t146.5 -99.5t99 -169t36 -235.5q0 -212 -56 -399t-153.5 -321t-234.5 -212t-293 -78q-215 0 -340 145.5t-125 395.5zM377 555q0 -157 68 -245.5t188 -88.5q119 0 218.5 91.5t156.5 251t57 351.5 q0 155 -68 244.5t-186 89.5q-124 0 -225 -97.5t-155 -255.5t-54 -341zM612 1614l209 299h258l-297 -299h-170zM956 1614l209 299h258l-299 -299h-168z" />
<glyph unicode="&#x151;" horiz-adv-x="1026" d="M76 389q0 152 44.5 287.5t120 232t181.5 153t225 56.5q172 0 271.5 -112t99.5 -306q0 -200 -75 -367.5t-207 -264.5t-290 -97q-172 0 -271 112t-99 306zM319 428q0 -215 170 -215q85 0 150.5 64.5t99 166.5t33.5 220q0 213 -170 213q-85 0 -151 -66t-99 -167t-33 -216z M403 1233l209 299h258l-297 -299h-170zM748 1233l208 299h258l-299 -299h-167z" />
<glyph unicode="&#x152;" horiz-adv-x="1679" d="M104 475q0 202 50 390.5t136.5 330.5t210.5 227.5t263 85.5q86 0 141 -28.5t99 -96.5l14 86h790l-45 -260h-559l-55 -309h522l-45 -260h-522l-66 -381h559l-45 -260h-790l18 102q-74 -81 -134.5 -111t-147.5 -30q-185 0 -289.5 136.5t-104.5 377.5zM356 551 q0 -161 55 -248.5t156 -87.5q87 0 160.5 55.5t87.5 130.5l117 666q4 28 4 37q0 66 -49 108.5t-131 42.5q-87 0 -164 -63.5t-127.5 -165.5t-79.5 -226.5t-29 -248.5z" />
<glyph unicode="&#x153;" horiz-adv-x="1585" d="M76 389q0 202 75 369.5t205.5 263.5t286.5 96q183 0 283 -164q94 94 162.5 129t160.5 35q158 0 244 -104t86 -295q0 -79 -18 -201l-9 -51h-614q-4 -62 -4 -82q0 -89 43 -136.5t121 -47.5q120 0 176 118h242q-82 -182 -196.5 -265t-264.5 -83q-105 0 -171.5 35t-117.5 117 q-70 -79 -146.5 -115.5t-173.5 -36.5q-172 0 -271 112t-99 306zM319 426q0 -213 170 -213q85 0 151 65.5t100 167t34 216.5q0 215 -170 215q-86 0 -152 -66t-99.5 -167.5t-33.5 -217.5zM977 653h366l3 54q3 80 -39.5 128t-108.5 48q-78 0 -132 -56t-89 -174z" />
<glyph unicode="&#x154;" horiz-adv-x="1212" d="M66 0l256 1470h610q149 0 231 -85t82 -240q0 -143 -67.5 -264.5t-186.5 -175.5q60 -37 83.5 -77.5t23.5 -107.5q0 -53 -6 -101t-33 -198q-12 -71 -12 -117q0 -25 7 -39t27 -26l-6 -39h-280l-2 55q-1 37 23.5 205.5t23.5 190.5q0 69 -37.5 96.5t-130.5 27.5h-260 l-101 -575h-245zM457 823h295q119 0 176 69t57 183q0 69 -37.5 105.5t-109.5 36.5h-314zM700 1614l205 258h258l-293 -258h-170z" />
<glyph unicode="&#x155;" horiz-adv-x="653" d="M45 0l191 1090h225l-35 -195q82 129 142.5 176t146.5 47q3 0 8.5 -0.5t16 -1.5t20.5 -2l-51 -291q-23 4 -60 4q-114 0 -180.5 -64t-89.5 -196l-98 -567h-236zM410 1233l211 299h258l-299 -299h-170z" />
<glyph unicode="&#x156;" horiz-adv-x="1212" d="M66 0l256 1470h610q149 0 231 -85t82 -240q0 -143 -67.5 -264.5t-186.5 -175.5q60 -37 83.5 -77.5t23.5 -107.5q0 -53 -6 -101t-33 -198q-12 -71 -12 -117q0 -25 7 -39t27 -26l-6 -39h-280l-2 55q-1 37 23.5 205.5t23.5 190.5q0 69 -37.5 96.5t-130.5 27.5h-260 l-101 -575h-245zM299 -610l16 88q59 12 99 61t47 119h-115l39 219h201l-35 -194q-13 -120 -84 -202t-168 -91zM457 823h295q119 0 176 69t57 183q0 69 -37.5 105.5t-109.5 36.5h-314z" />
<glyph unicode="&#x157;" horiz-adv-x="653" d="M-43 -610l16 88q59 12 99 61t47 119h-115l39 219h201l-35 -194q-13 -120 -84 -202t-168 -91zM45 0l191 1090h225l-35 -195q82 129 142.5 176t146.5 47q3 0 8.5 -0.5t16 -1.5t20.5 -2l-51 -291q-23 4 -60 4q-114 0 -180.5 -64t-89.5 -196l-98 -567h-236z" />
<glyph unicode="&#x158;" horiz-adv-x="1212" d="M66 0l256 1470h610q149 0 231 -85t82 -240q0 -143 -67.5 -264.5t-186.5 -175.5q60 -37 83.5 -77.5t23.5 -107.5q0 -53 -6 -101t-33 -198q-12 -71 -12 -117q0 -25 7 -39t27 -26l-6 -39h-280l-2 55q-1 37 23.5 205.5t23.5 190.5q0 69 -37.5 96.5t-130.5 27.5h-260 l-101 -575h-245zM457 823h295q119 0 176 69t57 183q0 69 -37.5 105.5t-109.5 36.5h-314zM516 1872h191l104 -127l147 127h191l-256 -258h-211z" />
<glyph unicode="&#x159;" horiz-adv-x="653" d="M45 0l191 1090h225l-35 -195q82 129 142.5 176t146.5 47q3 0 8.5 -0.5t16 -1.5t20.5 -2l-51 -291q-23 4 -60 4q-114 0 -180.5 -64t-89.5 -196l-98 -567h-236zM250 1532h190l78 -168l135 168h191l-244 -299h-211z" />
<glyph unicode="&#x15a;" horiz-adv-x="1120" d="M74 332q0 39 10 121h242q-4 -46 -4 -56q0 -88 58 -135t165 -47q127 0 203.5 60.5t76.5 160.5q0 54 -40.5 87t-147.5 65l-123 37q-101 30 -163.5 60t-96.5 70t-45.5 83t-11.5 110q0 156 67 283.5t192.5 202.5t284.5 75q193 0 297.5 -102t104.5 -268q0 -48 -8 -105h-240v43 q0 86 -53 132t-152 46q-110 0 -179 -59t-69 -154q0 -46 23.5 -71.5t81.5 -44.5l278 -88q135 -43 194.5 -113.5t59.5 -187.5q0 -247 -163 -411.5t-418 -164.5q-199 0 -311.5 100.5t-112.5 270.5zM686 1614l205 258h258l-293 -258h-170z" />
<glyph unicode="&#x15b;" d="M45 264q0 22 4 84h242q-2 -16 -2 -41q0 -57 43 -88t121 -31t128 35.5t50 91.5q0 72 -176 107q-310 58 -310 264q0 192 127.5 312t315.5 120q332 0 332 -291q0 -40 -2 -69h-232v37q0 106 -137 106q-72 0 -116 -32.5t-44 -86.5q0 -69 174 -104q161 -32 238.5 -97.5 t77.5 -170.5q0 -188 -130.5 -313.5t-338.5 -125.5q-170 0 -267.5 78t-97.5 215zM535 1233l210 299h259l-299 -299h-170z" />
<glyph unicode="&#x15c;" horiz-adv-x="1120" d="M74 332q0 39 10 121h242q-4 -46 -4 -56q0 -88 58 -135t165 -47q127 0 203.5 60.5t76.5 160.5q0 54 -40.5 87t-147.5 65l-123 37q-101 30 -163.5 60t-96.5 70t-45.5 83t-11.5 110q0 156 67 283.5t192.5 202.5t284.5 75q193 0 297.5 -102t104.5 -268q0 -48 -8 -105h-240v43 q0 86 -53 132t-152 46q-110 0 -179 -59t-69 -154q0 -46 23.5 -71.5t81.5 -44.5l278 -88q135 -43 194.5 -113.5t59.5 -187.5q0 -247 -163 -411.5t-418 -164.5q-199 0 -311.5 100.5t-112.5 270.5zM455 1614l256 258h211l165 -258h-190l-104 127l-148 -127h-190z" />
<glyph unicode="&#x15d;" d="M45 264q0 22 4 84h242q-2 -16 -2 -41q0 -57 43 -88t121 -31t128 35.5t50 91.5q0 72 -176 107q-310 58 -310 264q0 192 127.5 312t315.5 120q332 0 332 -291q0 -40 -2 -69h-232v37q0 106 -137 106q-72 0 -116 -32.5t-44 -86.5q0 -69 174 -104q161 -32 238.5 -97.5 t77.5 -170.5q0 -188 -130.5 -313.5t-338.5 -125.5q-170 0 -267.5 78t-97.5 215zM324 1233l243 299h211l140 -299h-191l-78 168l-135 -168h-190z" />
<glyph unicode="&#x15e;" horiz-adv-x="1120" d="M74 332q0 39 10 121h242q-4 -46 -4 -56q0 -88 58 -135t165 -47q127 0 203.5 60.5t76.5 160.5q0 54 -40.5 87t-147.5 65l-123 37q-101 30 -163.5 60t-96.5 70t-45.5 83t-11.5 110q0 156 67 283.5t192.5 202.5t284.5 75q193 0 297.5 -102t104.5 -268q0 -48 -8 -105h-240v43 q0 86 -53 132t-152 46q-110 0 -179 -59t-69 -154q0 -46 23.5 -71.5t81.5 -44.5l278 -88q135 -43 194.5 -113.5t59.5 -187.5q0 -232 -145.5 -393t-378.5 -181l-41 -67h18q56 0 95 -35t39 -88q0 -99 -78 -169.5t-185 -70.5q-42 0 -78 10.5t-100 40.5l54 99q88 -33 122 -33 q39 0 69 29t30 67q0 26 -16.5 41.5t-41.5 15.5q-19 0 -69 -16l-29 41l94 135q-172 15 -268 113t-96 256z" />
<glyph unicode="&#x15f;" d="M45 264q0 22 4 84h242q-2 -16 -2 -41q0 -57 43 -88t121 -31t128 35.5t50 91.5q0 72 -176 107q-310 58 -310 264q0 192 127.5 312t315.5 120q332 0 332 -291q0 -40 -2 -69h-232v37q0 106 -137 106q-72 0 -116 -32.5t-44 -86.5q0 -69 174 -104q161 -32 238.5 -97.5 t77.5 -170.5q0 -176 -116 -299t-304 -138l-47 -77h18q56 0 94.5 -35t38.5 -88q0 -99 -78 -169.5t-184 -70.5q-42 0 -78 10.5t-100 40.5l53 99q88 -33 123 -33q38 0 68 29t30 67q0 26 -16 41.5t-41 15.5q-20 0 -70 -16l-28 41l102 147q-141 14 -220 90t-79 199z" />
<glyph unicode="&#x160;" horiz-adv-x="1120" d="M74 332q0 39 10 121h242q-4 -46 -4 -56q0 -88 58 -135t165 -47q127 0 203.5 60.5t76.5 160.5q0 54 -40.5 87t-147.5 65l-123 37q-101 30 -163.5 60t-96.5 70t-45.5 83t-11.5 110q0 156 67 283.5t192.5 202.5t284.5 75q193 0 297.5 -102t104.5 -268q0 -48 -8 -105h-240v43 q0 86 -53 132t-152 46q-110 0 -179 -59t-69 -154q0 -46 23.5 -71.5t81.5 -44.5l278 -88q135 -43 194.5 -113.5t59.5 -187.5q0 -247 -163 -411.5t-418 -164.5q-199 0 -311.5 100.5t-112.5 270.5zM502 1872h190l105 -127l147 127h191l-256 -258h-211z" />
<glyph unicode="&#x161;" d="M45 264q0 22 4 84h242q-2 -16 -2 -41q0 -57 43 -88t121 -31t128 35.5t50 91.5q0 72 -176 107q-310 58 -310 264q0 192 127.5 312t315.5 120q332 0 332 -291q0 -40 -2 -69h-232v37q0 106 -137 106q-72 0 -116 -32.5t-44 -86.5q0 -69 174 -104q161 -32 238.5 -97.5 t77.5 -170.5q0 -188 -130.5 -313.5t-338.5 -125.5q-170 0 -267.5 78t-97.5 215zM375 1532h190l78 -168l135 168h191l-244 -299h-211z" />
<glyph unicode="&#x162;" horiz-adv-x="1026" d="M164 -416l53 99q88 -33 123 -33q38 0 68 29t30 67q0 26 -16 41.5t-41 15.5q-20 0 -70 -16l-28 41l120 172h-77l211 1210h-365l45 260h981l-45 -260h-365l-210 -1210h-62l-63 -104h18q56 0 94.5 -35t38.5 -88q0 -99 -78 -169.5t-184 -70.5q-42 0 -78 10.5t-100 40.5z" />
<glyph unicode="&#x163;" horiz-adv-x="559" d="M-41 -416l53 99q88 -33 123 -33q38 0 68 29t30 67q0 26 -16 41.5t-41 15.5q-20 0 -70 -16l-28 41l121 174q-93 34 -93 137q0 41 9 84l114 662h-120l34 205h123l51 294h236l-51 -294h145l-35 -205h-147l-103 -592q-6 -27 -6 -47q0 -22 20 -31.5t66 -9.5q2 0 52 4l-39 -217 l-142 -4h-10l-55 -92h18q56 0 94.5 -35t38.5 -88q0 -99 -78 -169.5t-184 -70.5q-42 0 -78 10.5t-100 40.5z" />
<glyph unicode="&#x164;" horiz-adv-x="1026" d="M172 1210l45 260h981l-45 -260h-365l-210 -1210h-252l211 1210h-365zM463 1872h190l105 -127l147 127h191l-256 -258h-211z" />
<glyph unicode="&#x165;" horiz-adv-x="559" d="M106 139q0 41 9 84l114 662h-120l34 205h123l51 294h236l-51 -294h145l-35 -205h-147l-103 -592q-6 -27 -6 -47q0 -22 20 -31.5t66 -9.5q2 0 52 4l-39 -217l-142 -4q-107 0 -157 36.5t-50 114.5zM571 1149l17 88q59 12 98.5 61t46.5 119h-115l39 219h201l-35 -194 q-13 -120 -84 -202t-168 -91z" />
<glyph unicode="&#x168;" horiz-adv-x="1212" d="M135 346q0 76 12 150l170 974h256l-165 -954q-9 -46 -9 -90q0 -101 46.5 -153t136.5 -52q114 0 184.5 71.5t95.5 209.5l170 968h256l-166 -956q-47 -269 -196 -411t-385 -142q-195 0 -300.5 100t-105.5 285zM520 1614q46 131 105 191.5t141 60.5q14 0 107.5 -37 t105.5 -37q61 0 94 82h109q-82 -246 -226 -246q-19 0 -116.5 37t-118.5 37q-58 0 -94 -88h-107z" />
<glyph unicode="&#x169;" horiz-adv-x="1026" d="M102 246q0 68 11 127l127 717h235l-119 -676q-6 -34 -6 -70q0 -131 121 -131q86 0 146.5 66t80.5 182l111 629h235l-190 -1090h-225l28 160q-69 -100 -142 -144.5t-169 -44.5q-117 0 -180.5 71.5t-63.5 203.5zM360 1253q46 131 105 191.5t141 60.5q14 0 107.5 -36.5 t105.5 -36.5q32 0 54.5 19t39.5 62h109q-82 -245 -225 -245q-19 0 -117 36.5t-119 36.5q-58 0 -94 -88h-107z" />
<glyph unicode="&#x16a;" horiz-adv-x="1212" d="M135 346q0 76 12 150l170 974h256l-165 -954q-9 -46 -9 -90q0 -101 46.5 -153t136.5 -52q114 0 184.5 71.5t95.5 209.5l170 968h256l-166 -956q-47 -269 -196 -411t-385 -142q-195 0 -300.5 100t-105.5 285zM547 1667l26 152h580l-27 -152h-579z" />
<glyph unicode="&#x16b;" horiz-adv-x="1026" d="M102 246q0 68 11 127l127 717h235l-119 -676q-6 -34 -6 -70q0 -131 121 -131q86 0 146.5 66t80.5 182l111 629h235l-190 -1090h-225l28 160q-69 -100 -142 -144.5t-169 -44.5q-117 0 -180.5 71.5t-63.5 203.5zM389 1307l27 151h579l-26 -151h-580z" />
<glyph unicode="&#x16c;" horiz-adv-x="1212" d="M135 346q0 76 12 150l170 974h256l-165 -954q-9 -46 -9 -90q0 -101 46.5 -153t136.5 -52q114 0 184.5 71.5t95.5 209.5l170 968h256l-166 -956q-47 -269 -196 -411t-385 -142q-195 0 -300.5 100t-105.5 285zM567 1872h111q24 -52 62 -76t116 -24t120.5 24t70.5 76h129 q-53 -123 -143.5 -190.5t-215.5 -67.5q-234 0 -250 258z" />
<glyph unicode="&#x16d;" horiz-adv-x="1026" d="M102 246q0 68 11 127l127 717h235l-119 -676q-6 -34 -6 -70q0 -131 121 -131q86 0 146.5 66t80.5 182l111 629h235l-190 -1090h-225l28 160q-69 -100 -142 -144.5t-169 -44.5q-117 0 -180.5 71.5t-63.5 203.5zM434 1475q0 32 2 57h111v-12q0 -69 34.5 -100t112.5 -31 q82 0 125 31t74 112h108q-83 -299 -344 -299q-107 0 -165 62.5t-58 179.5z" />
<glyph unicode="&#x16e;" horiz-adv-x="1212" d="M135 346q0 76 12 150l170 974h256l-165 -954q-9 -46 -9 -90q0 -101 46.5 -153t136.5 -52q114 0 184.5 71.5t95.5 209.5l170 968h256l-166 -956q-47 -269 -196 -411t-385 -142q-195 0 -300.5 100t-105.5 285zM645 1786q12 71 85.5 124.5t158.5 53.5t139.5 -54.5 t42.5 -127.5q-12 -72 -86 -126t-160 -54t-139 54.5t-41 129.5zM752 1784q-6 -37 20 -62.5t70 -25.5t80.5 25.5t42.5 60.5q6 37 -21.5 62.5t-71.5 25.5q-43 0 -78.5 -25.5t-41.5 -60.5z" />
<glyph unicode="&#x16f;" horiz-adv-x="1026" d="M102 246q0 68 11 127l127 717h235l-119 -676q-6 -34 -6 -70q0 -131 121 -131q86 0 146.5 66t80.5 182l111 629h235l-190 -1090h-225l28 160q-69 -100 -142 -144.5t-169 -44.5q-117 0 -180.5 71.5t-63.5 203.5zM481 1386q12 71 85.5 125t158.5 54t139 -55t41 -128 q-12 -72 -84.5 -126t-158.5 -54t-140 54.5t-41 129.5zM586 1384q-6 -37 21 -62.5t71 -25.5t79.5 25.5t41.5 60.5q6 37 -20 62.5t-70 25.5q-43 0 -80 -25.5t-43 -60.5z" />
<glyph unicode="&#x170;" horiz-adv-x="1212" d="M135 346q0 76 12 150l170 974h256l-165 -954q-9 -46 -9 -90q0 -101 46.5 -153t136.5 -52q114 0 184.5 71.5t95.5 209.5l170 968h256l-166 -956q-47 -269 -196 -411t-385 -142q-195 0 -300.5 100t-105.5 285zM563 1614l209 299h258l-297 -299h-170zM907 1614l209 299h258 l-299 -299h-168z" />
<glyph unicode="&#x171;" horiz-adv-x="1026" d="M102 246q0 68 11 127l127 717h235l-119 -676q-6 -34 -6 -70q0 -131 121 -131q86 0 146.5 66t80.5 182l111 629h235l-190 -1090h-225l28 160q-69 -100 -142 -144.5t-169 -44.5q-117 0 -180.5 71.5t-63.5 203.5zM403 1233l209 299h258l-297 -299h-170zM748 1233l208 299 h258l-299 -299h-167z" />
<glyph unicode="&#x172;" horiz-adv-x="1212" d="M135 346q0 76 12 150l170 974h256l-165 -954q-9 -46 -9 -90q0 -101 46.5 -153t136.5 -52q114 0 184.5 71.5t95.5 209.5l170 968h256l-166 -956q-35 -201 -128 -331.5t-238 -184.5q-33 -12 -62 -38.5t-65 -68.5q-56 -62 -56 -131q0 -86 127 -86h82l-32 -186h-82 q-79 0 -144.5 20.5t-109 66t-43.5 110.5q0 80 38.5 144t118.5 132q-189 3 -291 103t-102 282z" />
<glyph unicode="&#x173;" horiz-adv-x="1026" d="M102 246q0 68 11 127l127 717h235l-119 -676q-6 -34 -6 -70q0 -131 121 -131q86 0 146.5 66t80.5 182l111 629h235l-190 -1090q-94 -27 -170 -109q-55 -65 -55 -131q0 -86 127 -86h82l-33 -186h-82q-79 0 -144.5 20.5t-109 66t-43.5 110.5q0 91 53 168q63 87 150 147 l28 160q-69 -100 -142 -144.5t-169 -44.5q-117 0 -180.5 71.5t-63.5 203.5z" />
<glyph unicode="&#x174;" horiz-adv-x="1585" d="M221 0v1470h273v-800v-287l358 1087h260v-1087l387 1087h256l-596 -1470h-227v1157l-391 -1157h-320zM688 1614l256 258h211l166 -258h-191l-104 127l-147 -127h-191z" />
<glyph unicode="&#x175;" horiz-adv-x="1306" d="M145 0v1090h254v-793l265 793h237v-793l277 793h241l-446 -1090h-242v805l-282 -805h-304zM510 1233l244 299h211l139 -299h-191l-77 168l-136 -168h-190z" />
<glyph unicode="&#x176;" horiz-adv-x="1120" d="M219 1470h297l139 -639l351 639h286l-565 -919l-94 -551h-254l98 555zM469 1614l256 258h211l166 -258h-191l-104 127l-148 -127h-190z" />
<glyph unicode="&#x177;" d="M8 -434l41 229q28 -4 49 -4q74 0 109 32.5t69 131.5l-131 1135h263l51 -811l325 811h250l-495 -1072q-54 -117 -85.5 -181.5t-67 -123t-57.5 -82.5t-57.5 -43t-67 -22.5t-85.5 -3.5zM324 1233l243 299h211l140 -299h-191l-78 168l-135 -168h-190z" />
<glyph unicode="&#x178;" horiz-adv-x="1120" d="M219 1470h297l139 -639l351 639h286l-565 -919l-94 -551h-254l98 555zM522 1626l41 236h197l-41 -236h-197zM860 1626l41 236h197l-41 -236h-197z" />
<glyph unicode="&#x179;" horiz-adv-x="1026" d="M-20 0l45 260l790 950h-608l45 260h924l-43 -241l-801 -969h637l-47 -260h-942zM651 1614l205 258h258l-293 -258h-170z" />
<glyph unicode="&#x17a;" horiz-adv-x="839" d="M-29 0l39 223l570 637h-426l39 230h725l-41 -236l-560 -618h469l-43 -236h-772zM487 1233l211 299h258l-299 -299h-170z" />
<glyph unicode="&#x17b;" horiz-adv-x="1026" d="M-20 0l45 260l790 950h-608l45 260h924l-43 -241l-801 -969h637l-47 -260h-942zM625 1626l41 236h233l-41 -236h-233z" />
<glyph unicode="&#x17c;" horiz-adv-x="839" d="M-29 0l39 223l570 637h-426l39 230h725l-41 -236l-560 -618h469l-43 -236h-772zM463 1266l41 235h233l-41 -235h-233z" />
<glyph unicode="&#x17d;" horiz-adv-x="1026" d="M-20 0l45 260l790 950h-608l45 260h924l-43 -241l-801 -969h637l-47 -260h-942zM467 1872h190l105 -127l147 127h191l-256 -258h-211z" />
<glyph unicode="&#x17e;" horiz-adv-x="839" d="M-29 0l39 223l570 637h-426l39 230h725l-41 -236l-560 -618h469l-43 -236h-772zM328 1532h190l78 -168l135 168h191l-244 -299h-211z" />
<glyph unicode="&#x17f;" horiz-adv-x="559" d="M84 0l205 1178q26 160 108 235.5t224 75.5q44 0 106 -4l-41 -232h-65q-55 0 -71.5 -19.5t-31.5 -100.5l-199 -1133h-235z" />
<glyph unicode="&#x18e;" horiz-adv-x="1120" d="M66 0l45 260h667l68 381h-588l45 260h588l55 309h-641l45 260h887l-256 -1470h-915z" />
<glyph unicode="&#x192;" d="M-145 -387l79 227q28 -22 43.5 -28.5t38.5 -6.5q57 0 90.5 53.5t90.5 235.5l215 684h-205l35 199h229l64 178q66 185 151 269.5t207 84.5q73 0 168 -39l-80 -221q-48 31 -88 31q-44 0 -78 -32.5t-53 -90.5l-57 -180h200l-33 -199h-225l-227 -735q-75 -243 -173.5 -358 t-232.5 -115q-34 0 -65 8.5t-94 34.5z" />
<glyph unicode="&#x1a0;" horiz-adv-x="1306" d="M119 502q0 167 36 321t103 278t157 216t204 142t239 50t225.5 -54.5t161.5 -160.5q51 65 72 179h-117l41 235h234l-41 -235q-14 -82 -51 -158.5t-91 -130.5q29 -101 29 -213q0 -212 -56 -399t-153.5 -321t-234.5 -212t-293 -78q-215 0 -340 145.5t-125 395.5zM377 555 q0 -157 68 -245.5t188 -88.5q119 0 218.5 91.5t156.5 251t57 351.5q0 155 -68 244.5t-186 89.5q-124 0 -225 -97.5t-155 -255.5t-54 -341z" />
<glyph unicode="&#x1a1;" horiz-adv-x="1048" d="M76 389q0 152 44.5 287.5t120 232t181.5 153t225 56.5q110 0 192.5 -47.5t127.5 -134.5q42 65 55 156h-117l41 235h234l-41 -235q-26 -166 -131 -281q10 -58 10 -111q0 -200 -75 -367.5t-207 -264.5t-290 -97q-172 0 -271 112t-99 306zM319 428q0 -215 170 -215 q85 0 150.5 64.5t99 166.5t33.5 220q0 213 -170 213q-85 0 -151 -66t-99 -167t-33 -216z" />
<glyph unicode="&#x1af;" horiz-adv-x="1404" d="M135 346q0 76 12 150l170 974h256l-165 -954q-9 -46 -9 -90q0 -101 46.5 -153t136.5 -52q114 0 184.5 71.5t95.5 209.5l170 968h256l-43 -251q77 0 129.5 74.5t71.5 179.5h-117l41 235h234l-41 -235q-28 -154 -122 -267.5t-218 -113.5l-101 -578q-47 -269 -196 -411 t-385 -142q-195 0 -300.5 100t-105.5 285z" />
<glyph unicode="&#x1b0;" horiz-adv-x="1226" d="M102 246q0 68 11 127l127 717h235l-119 -676q-6 -34 -6 -70q0 -131 121 -131q86 0 146.5 66t80.5 182l111 629h235l-43 -252q77 0 129.5 75.5t69.5 178.5h-117l41 235h234l-41 -235q-17 -99 -62.5 -184.5t-118.5 -141t-157 -55.5l-125 -711h-225l28 160 q-69 -100 -142 -144.5t-169 -44.5q-117 0 -180.5 71.5t-63.5 203.5z" />
<glyph unicode="&#x1dd;" d="M57 371q0 71 19 200l8 52h612q6 46 6 79q0 89 -42.5 138t-120.5 49q-121 0 -177 -119h-241q82 182 196.5 265t264.5 83q172 0 262 -101t90 -294q0 -211 -70 -383.5t-193.5 -270.5t-275.5 -98q-164 0 -251 103t-87 297zM291 383q-3 -80 39 -128t108 -48q78 0 131 55 t88 174h-364z" />
<glyph unicode="&#x1e6;" horiz-adv-x="1306" d="M121 510q0 196 56 378t153 319t237 219.5t299 82.5q201 0 323 -119t122 -315q0 -34 -2 -61h-252v12q0 95 -66 162t-160 67q-125 0 -229 -96.5t-162.5 -258.5t-58.5 -351q0 -157 70 -242.5t198 -85.5q115 0 203.5 76.5t155.5 247.5h-281l43 248h506l-139 -793h-168l6 184 q-109 -124 -200.5 -173.5t-213.5 -49.5q-203 0 -321.5 148t-118.5 401zM612 1872h191l104 -127l148 127h190l-256 -258h-211z" />
<glyph unicode="&#x1e7;" horiz-adv-x="1026" d="M2 -172q0 35 2 55h256q0 -61 31.5 -85.5t105.5 -24.5q101 0 158 59.5t80 190.5l24 141q-63 -95 -123 -132.5t-149 -37.5q-143 0 -223 101t-80 282q0 202 65.5 372.5t178 269.5t245.5 99q94 0 148 -46.5t80 -149.5l30 168h226l-180 -1033q-24 -138 -70 -236t-114 -155.5 t-150.5 -83.5t-188.5 -26q-166 0 -259 71.5t-93 200.5zM330 434q0 -95 38 -146.5t107 -51.5q77 0 138 60t92.5 154.5t31.5 202.5q0 101 -41 159t-112 58q-103 0 -178.5 -129t-75.5 -307zM422 1532h190l78 -168l135 168h191l-244 -299h-211z" />
<glyph unicode="&#x1ea;" horiz-adv-x="1306" d="M119 502q0 167 36 321t103 278t157 216t204 142t239 50q98 0 181.5 -34t146.5 -99.5t99 -169t36 -235.5q0 -319 -121 -568.5t-323 -363.5q-112 -63 -189 -148q-55 -61 -55 -131q0 -86 127 -86h82l-33 -186h-82q-79 0 -144.5 20.5t-109 66t-43.5 110.5q0 80 38 144 t118 132h-2q-215 0 -340 145.5t-125 395.5zM377 555q0 -157 68 -245.5t188 -88.5q119 0 218.5 91.5t156.5 251t57 351.5q0 155 -68 244.5t-186 89.5q-124 0 -225 -97.5t-155 -255.5t-54 -341z" />
<glyph unicode="&#x1eb;" horiz-adv-x="1026" d="M76 389q0 152 44.5 287.5t120 232t181.5 153t225 56.5q172 0 271.5 -112t99.5 -306q0 -210 -83 -383.5t-222 -265.5q-111 -71 -191 -160q-55 -65 -55 -131q0 -86 127 -86h82l-33 -186h-82q-79 0 -144.5 20.5t-109 66t-43.5 110.5q0 83 42 149.5t128 136.5 q-167 4 -262.5 115.5t-95.5 302.5zM319 428q0 -215 170 -215q85 0 150.5 64.5t99 166.5t33.5 220q0 213 -170 213q-85 0 -151 -66t-99 -167t-33 -216z" />
<glyph unicode="&#x1f4;" horiz-adv-x="1306" d="M121 510q0 196 56 378t153 319t237 219.5t299 82.5q201 0 323 -119t122 -315q0 -34 -2 -61h-252v12q0 95 -66 162t-160 67q-125 0 -229 -96.5t-162.5 -258.5t-58.5 -351q0 -157 70 -242.5t198 -85.5q115 0 203.5 76.5t155.5 247.5h-281l43 248h506l-139 -793h-168l6 184 q-109 -124 -200.5 -173.5t-213.5 -49.5q-203 0 -321.5 148t-118.5 401zM799 1614l205 258h258l-293 -258h-170z" />
<glyph unicode="&#x1f5;" horiz-adv-x="1026" d="M2 -172q0 35 2 55h256q0 -61 31.5 -85.5t105.5 -24.5q101 0 158 59.5t80 190.5l24 141q-63 -95 -123 -132.5t-149 -37.5q-143 0 -223 101t-80 282q0 202 65.5 372.5t178 269.5t245.5 99q94 0 148 -46.5t80 -149.5l30 168h226l-180 -1033q-24 -138 -70 -236t-114 -155.5 t-150.5 -83.5t-188.5 -26q-166 0 -259 71.5t-93 200.5zM330 434q0 -95 38 -146.5t107 -51.5q77 0 138 60t92.5 154.5t31.5 202.5q0 101 -41 159t-112 58q-103 0 -178.5 -129t-75.5 -307zM582 1233l211 299h258l-299 -299h-170z" />
<glyph unicode="&#x1fa;" horiz-adv-x="1212" d="M-29 0l688 1470h291l168 -1470h-274l-25 303h-444l-137 -303h-267zM485 557h308l-48 588zM647 1786q12 71 85.5 124.5t158.5 53.5t139.5 -54.5t42.5 -127.5q-12 -72 -86 -126t-160 -54t-139 54.5t-41 129.5zM754 1784q-6 -37 20 -62.5t70 -25.5t80.5 25.5t42.5 60.5 q6 37 -21.5 62.5t-71.5 25.5q-43 0 -78.5 -25.5t-41.5 -60.5zM813 2005l203 258h258l-291 -258h-170z" />
<glyph unicode="&#x1fb;" d="M31 207q0 167 89.5 285.5t237.5 144.5l220 39q100 18 100 117q0 96 -127 96q-74 0 -114.5 -34.5t-65.5 -117.5h-226q60 208 164 294.5t291 86.5q152 0 235 -64.5t83 -183.5q0 -27 -7 -67l-102 -590q-10 -65 -10 -100q0 -53 32 -70l-8 -43h-254q-2 33 -2 59q0 31 4 70 q-85 -87 -155 -122.5t-156 -35.5q-107 0 -168 63t-61 173zM272 272q0 -44 25 -70t68 -26q86 0 158 63t87 152l25 139q-27 -21 -62 -33t-108 -26q-101 -22 -147 -69t-46 -130zM436 1405q12 71 85.5 124.5t158.5 53.5t139.5 -54.5t42.5 -127.5q-12 -72 -86 -126t-160 -54 t-139 54.5t-41 129.5zM543 1403q-6 -37 20 -62.5t70 -25.5t80.5 25.5t42.5 60.5q6 37 -21 62.5t-71 25.5q-43 0 -79 -25.5t-42 -60.5zM602 1624l203 258h258l-291 -258h-170z" />
<glyph unicode="&#x1fc;" horiz-adv-x="1679" d="M-53 0l696 1470h1143l-45 -260h-625l-53 -309h561l-45 -260h-561l-66 -381h635l-45 -260h-883l56 313h-363l-141 -313h-264zM461 555h295l114 655h-108zM973 1614l205 258h258l-293 -258h-170z" />
<glyph unicode="&#x1fd;" horiz-adv-x="1492" d="M33 215q0 156 79 265.5t210 135.5l229 46q50 10 78 21t42 30t17.5 37.5t3.5 54.5q0 40 -35.5 62t-99.5 22q-77 0 -120 -37.5t-58 -116.5h-232q54 196 165 289.5t296 93.5q89 0 149.5 -28t114.5 -93q85 68 149 94.5t142 26.5q155 0 240.5 -105t85.5 -294q0 -72 -19 -201 l-8 -51h-614q-4 -62 -4 -82q0 -88 43 -136t121 -48q123 0 176 118h241q-83 -183 -198 -265.5t-269 -82.5q-116 0 -180 39t-108 137q-132 -176 -371 -176q-131 0 -198.5 62t-67.5 182zM274 272q0 -44 28.5 -70t76.5 -26q80 0 153 63t86 146l23 137q-23 -22 -60 -34t-124 -27 q-107 -20 -145 -66t-38 -123zM815 1233l211 299h258l-299 -299h-170zM889 653h364l2 52q3 82 -38.5 130t-108.5 48q-78 0 -131 -55.5t-88 -174.5z" />
<glyph unicode="&#x1fe;" horiz-adv-x="1306" d="M-2 23l176 190q-31 77 -43 140.5t-12 150.5q0 208 57 394t154 320t233 212.5t289 78.5q107 0 192.5 -36.5t169.5 -129.5l168 183l58 -78l-174 -188q32 -79 43.5 -140.5t11.5 -150.5q0 -208 -57 -394.5t-154 -321t-234 -213.5t-290 -79q-108 0 -195 37t-166 131l-170 -184 zM377 561q0 -54 10 -115l629 682q-41 64 -90 92.5t-117 28.5q-98 0 -181.5 -62.5t-137 -162.5t-83.5 -221t-30 -242zM422 344q40 -64 89.5 -93.5t117.5 -29.5q100 0 184.5 63t137.5 164t82.5 221t29.5 240q0 58 -12 117zM786 1614l205 258h258l-293 -258h-170z" />
<glyph unicode="&#x1ff;" horiz-adv-x="1026" d="M-25 0l150 158q-28 63 -38.5 114t-10.5 119q0 149 44.5 283.5t121 231.5t182.5 154.5t223 57.5q88 0 154 -28.5t127 -92.5l141 150l47 -66l-145 -151q27 -64 37 -114t10 -118q0 -148 -44 -282t-120 -231.5t-182.5 -155.5t-225.5 -58q-88 0 -152.5 28t-123.5 91l-141 -149 zM322 430q0 -1 4 -63l417 438q-26 38 -58 55t-79 17q-123 0 -203.5 -128t-80.5 -319zM354 283q44 -70 133 -70q124 0 204.5 129.5t80.5 316.5q0 31 -2 60zM582 1233l211 299h258l-299 -299h-170z" />
<glyph unicode="&#x200;" horiz-adv-x="1212" d="M-29 0l688 1470h291l168 -1470h-274l-25 303h-444l-137 -303h-267zM387 1913h258l105 -299h-168zM485 557h308l-48 588zM731 1913h258l105 -299h-170z" />
<glyph unicode="&#x201;" d="M31 207q0 167 89.5 285.5t237.5 144.5l220 39q100 18 100 117q0 96 -127 96q-74 0 -114.5 -34.5t-65.5 -117.5h-226q60 208 164 294.5t291 86.5q152 0 235 -64.5t83 -183.5q0 -27 -7 -67l-102 -590q-10 -65 -10 -100q0 -53 32 -70l-8 -43h-254q-2 33 -2 59q0 31 4 70 q-85 -87 -155 -122.5t-156 -35.5q-107 0 -168 63t-61 173zM176 1532h258l105 -299h-168zM272 272q0 -44 25 -70t68 -26q86 0 158 63t87 152l25 139q-27 -21 -62 -33t-108 -26q-101 -22 -147 -69t-46 -130zM520 1532h258l105 -299h-170z" />
<glyph unicode="&#x204;" horiz-adv-x="1120" d="M66 0l256 1470h886l-45 -260h-641l-53 -309h588l-45 -260h-588l-66 -381h668l-45 -260h-915zM346 1913h258l105 -299h-168zM690 1913h258l105 -299h-170z" />
<glyph unicode="&#x205;" d="M57 367q0 211 70 383t193.5 270t275.5 98q164 0 251 -102.5t87 -296.5q0 -72 -19 -201l-8 -51h-612q-6 -47 -6 -80q0 -89 43 -137.5t121 -48.5q120 0 176 118h241q-82 -182 -196 -265t-264 -83q-172 0 -262.5 101.5t-90.5 294.5zM178 1532h258l105 -299h-168zM334 653 h364l2 54q3 80 -39 128t-108 48q-78 0 -131 -55t-88 -175zM522 1532h258l105 -299h-170z" />
<glyph unicode="&#x208;" horiz-adv-x="466" d="M10 1913h258l105 -299h-168zM45 0l258 1470h252l-258 -1470h-252zM354 1913h258l105 -299h-170z" />
<glyph unicode="&#x209;" horiz-adv-x="466" d="M-55 1532h258l104 -299h-168zM55 0l191 1090h233l-190 -1090h-234zM289 1532h258l104 -299h-170z" />
<glyph unicode="&#x20c;" horiz-adv-x="1306" d="M119 502q0 167 36 321t103 278t157 216t204 142t239 50q98 0 181.5 -34t146.5 -99.5t99 -169t36 -235.5q0 -212 -56 -399t-153.5 -321t-234.5 -212t-293 -78q-215 0 -340 145.5t-125 395.5zM377 555q0 -157 68 -245.5t188 -88.5q119 0 218.5 91.5t156.5 251t57 351.5 q0 155 -68 244.5t-186 89.5q-124 0 -225 -97.5t-155 -255.5t-54 -341zM432 1913h258l105 -299h-168zM776 1913h258l105 -299h-170z" />
<glyph unicode="&#x20d;" horiz-adv-x="1026" d="M76 389q0 152 44.5 287.5t120 232t181.5 153t225 56.5q172 0 271.5 -112t99.5 -306q0 -200 -75 -367.5t-207 -264.5t-290 -97q-172 0 -271 112t-99 306zM223 1532h258l105 -299h-168zM319 428q0 -215 170 -215q85 0 150.5 64.5t99 166.5t33.5 220q0 213 -170 213 q-85 0 -151 -66t-99 -167t-33 -216zM567 1532h258l105 -299h-170z" />
<glyph unicode="&#x210;" horiz-adv-x="1212" d="M66 0l256 1470h610q149 0 231 -85t82 -240q0 -143 -67.5 -264.5t-186.5 -175.5q60 -37 83.5 -77.5t23.5 -107.5q0 -53 -6 -101t-33 -198q-12 -71 -12 -117q0 -25 7 -39t27 -26l-6 -39h-280l-2 55q-1 37 23.5 205.5t23.5 190.5q0 69 -37.5 96.5t-130.5 27.5h-260 l-101 -575h-245zM344 1913h258l105 -299h-168zM457 823h295q119 0 176 69t57 183q0 69 -37.5 105.5t-109.5 36.5h-314zM688 1913h258l105 -299h-170z" />
<glyph unicode="&#x211;" horiz-adv-x="653" d="M45 0l191 1090h225l-35 -195q82 129 142.5 176t146.5 47q3 0 8.5 -0.5t16 -1.5t20.5 -2l-51 -291q-23 4 -60 4q-114 0 -180.5 -64t-89.5 -196l-98 -567h-236zM51 1532h258l105 -299h-168zM395 1532h258l105 -299h-170z" />
<glyph unicode="&#x214;" horiz-adv-x="1212" d="M135 346q0 76 12 150l170 974h256l-165 -954q-9 -46 -9 -90q0 -101 46.5 -153t136.5 -52q114 0 184.5 71.5t95.5 209.5l170 968h256l-166 -956q-47 -269 -196 -411t-385 -142q-195 0 -300.5 100t-105.5 285zM385 1913h258l105 -299h-168zM729 1913h258l105 -299h-170z " />
<glyph unicode="&#x215;" horiz-adv-x="1026" d="M102 246q0 68 11 127l127 717h235l-119 -676q-6 -34 -6 -70q0 -131 121 -131q86 0 146.5 66t80.5 182l111 629h235l-190 -1090h-225l28 160q-69 -100 -142 -144.5t-169 -44.5q-117 0 -180.5 71.5t-63.5 203.5zM223 1532h258l105 -299h-168zM567 1532h258l105 -299h-170z " />
<glyph unicode="&#x218;" horiz-adv-x="1120" d="M74 332q0 39 10 121h242q-4 -46 -4 -56q0 -88 58 -135t165 -47q127 0 203.5 60.5t76.5 160.5q0 54 -40.5 87t-147.5 65l-123 37q-101 30 -163.5 60t-96.5 70t-45.5 83t-11.5 110q0 156 67 283.5t192.5 202.5t284.5 75q193 0 297.5 -102t104.5 -268q0 -48 -8 -105h-240v43 q0 86 -53 132t-152 46q-110 0 -179 -59t-69 -154q0 -46 23.5 -71.5t81.5 -44.5l278 -88q135 -43 194.5 -113.5t59.5 -187.5q0 -247 -163 -411.5t-418 -164.5q-199 0 -311.5 100.5t-112.5 270.5zM285 -610l16 88q59 12 98.5 61t46.5 119h-114l39 219h200l-34 -194 q-13 -120 -84 -202t-168 -91z" />
<glyph unicode="&#x219;" d="M45 264q0 22 4 84h242q-2 -16 -2 -41q0 -57 43 -88t121 -31t128 35.5t50 91.5q0 72 -176 107q-310 58 -310 264q0 192 127.5 312t315.5 120q332 0 332 -291q0 -40 -2 -69h-232v37q0 106 -137 106q-72 0 -116 -32.5t-44 -86.5q0 -69 174 -104q161 -32 238.5 -97.5 t77.5 -170.5q0 -188 -130.5 -313.5t-338.5 -125.5q-170 0 -267.5 78t-97.5 215zM199 -610l16 88q59 12 98.5 61t46.5 119h-114l39 219h200l-34 -194q-13 -120 -84 -202t-168 -91z" />
<glyph unicode="&#x21a;" horiz-adv-x="1026" d="M172 1210l45 260h981l-45 -260h-365l-210 -1210h-252l211 1210h-365zM246 -610l16 88q59 12 99 61t47 119h-115l39 219h200l-34 -194q-13 -120 -84 -202t-168 -91z" />
<glyph unicode="&#x21b;" horiz-adv-x="559" d="M106 139q0 41 9 84l114 662h-120l34 205h123l51 294h236l-51 -294h145l-35 -205h-147l-103 -592q-6 -27 -6 -47q0 -22 20 -31.5t66 -9.5q2 0 52 4l-39 -217l-142 -4q-107 0 -157 36.5t-50 114.5zM109 -610l16 88q59 12 98.5 61t46.5 119h-114l39 219h200l-35 -194 q-13 -120 -83.5 -202t-167.5 -91z" />
<glyph unicode="&#x258;" d="M43 319h242q15 -118 135 -118q78 0 137 48.5t90 137.5q16 41 23 80h-613l11 51q20 111 51 201q68 194 190.5 296.5t286.5 102.5q114 0 194 -57.5t116.5 -157t28.5 -239t-63 -297.5q-68 -194 -192.5 -295t-296.5 -101q-150 0 -236 83t-104 265zM332 653h364 q6 120 -27.5 175t-111.5 55q-66 0 -125.5 -48t-83.5 -128z" />
<glyph unicode="&#x259;" d="M57 371q0 71 19 200l8 52h612q6 46 6 79q0 89 -42.5 138t-120.5 49q-121 0 -177 -119h-241q82 182 196.5 265t264.5 83q172 0 262 -101t90 -294q0 -211 -70 -383.5t-193.5 -270.5t-275.5 -98q-164 0 -251 103t-87 297zM291 383q-3 -80 39 -128t108 -48q78 0 131 55 t88 174h-364z" />
<glyph unicode="&#x2be;" horiz-adv-x="815" d="M213 864l4 62q0 6 7 12t14 6h157q13 0 13 -14q0 -55 15 -80t50 -25q72 0 115 90t45 218q-3 106 -78 106q-38 0 -68.5 -30.5t-42.5 -80.5q-6 -16 -18 -16h-160q-7 0 -11.5 5t-2.5 13q44 145 132.5 222.5t209.5 77.5q114 0 174.5 -68.5t58.5 -196.5q1 -144 -45.5 -265.5 t-134 -195t-198.5 -73.5q-106 0 -170 63.5t-66 169.5z" />
<glyph unicode="&#x2bf;" horiz-adv-x="815" d="M223 895q0 144 47 266t135.5 195.5t198.5 73.5q106 0 170 -64t66 -170l-4 -61q0 -6 -7 -12.5t-14 -6.5h-158q-11 0 -14 14q0 55 -15 80t-50 25q-72 0 -114 -89.5t-44 -217.5q0 -107 78 -107q38 0 67.5 30.5t40.5 80.5q6 16 21 16h159q8 0 12 -5.5t1 -12.5 q-43 -145 -130.5 -222t-209.5 -77q-114 0 -175 68t-61 196z" />
<glyph unicode="&#x2c6;" horiz-adv-x="559" d="M137 1233l244 299h211l139 -299h-190l-78 168l-135 -168h-191z" />
<glyph unicode="&#x2c7;" horiz-adv-x="559" d="M188 1532h191l78 -168l135 168h190l-243 -299h-211z" />
<glyph unicode="&#x2d8;" horiz-adv-x="559" d="M201 1475q0 32 2 57h110v-12q0 -69 35 -100t113 -31q82 0 124.5 30.5t73.5 112.5h109q-83 -299 -344 -299q-107 0 -165 62.5t-58 179.5z" />
<glyph unicode="&#x2d9;" horiz-adv-x="559" d="M324 1266l41 235h233l-41 -235h-233z" />
<glyph unicode="&#x2da;" horiz-adv-x="559" d="M248 1386q12 71 85.5 125t158.5 54t139 -55t41 -128q-12 -72 -85 -126t-159 -54t-139.5 54.5t-40.5 129.5zM352 1384q-6 -37 21 -62.5t71 -25.5t79.5 25.5t41.5 60.5q6 37 -20 62.5t-70 25.5q-43 0 -80 -25.5t-43 -60.5z" />
<glyph unicode="&#x2db;" horiz-adv-x="559" d="M49 -315q0 91 50 163t155 152h188q-93 -61 -141.5 -116t-48.5 -124q0 -86 127 -86h82l-33 -186h-82q-79 0 -144.5 20.5t-109 66t-43.5 110.5z" />
<glyph unicode="&#x2dc;" horiz-adv-x="559" d="M127 1253q46 131 105 191.5t141 60.5q14 0 107.5 -36.5t105.5 -36.5q32 0 54.5 19t39.5 62h108q-82 -245 -225 -245q-19 0 -116.5 36.5t-118.5 36.5q-59 0 -95 -88h-106z" />
<glyph unicode="&#x2dd;" horiz-adv-x="559" d="M170 1233l209 299h258l-297 -299h-170zM514 1233l209 299h258l-299 -299h-168z" />
<glyph unicode="&#x300;" horiz-adv-x="0" d="M-592 1532h258l107 -299h-170z" />
<glyph unicode="&#x301;" horiz-adv-x="0" d="M-397 1233l211 299h258l-299 -299h-170z" />
<glyph unicode="&#x302;" horiz-adv-x="0" d="M-608 1233l243 299h211l140 -299h-191l-78 168l-135 -168h-190z" />
<glyph unicode="&#x303;" horiz-adv-x="0" d="M-618 1253q46 131 104.5 191.5t140.5 60.5q14 0 107.5 -36.5t105.5 -36.5q32 0 54.5 19t39.5 62h109q-82 -245 -225 -245q-19 0 -117 36.5t-119 36.5q-58 0 -94 -88h-106z" />
<glyph unicode="&#x304;" horiz-adv-x="0" d="M-590 1307l27 151h579l-26 -151h-580z" />
<glyph unicode="&#x306;" horiz-adv-x="0" d="M-545 1475q0 32 2 57h111v-12q0 -69 34.5 -100t112.5 -31q82 0 125 31t74 112h109q-83 -299 -345 -299q-107 0 -165 62.5t-58 179.5z" />
<glyph unicode="&#x307;" horiz-adv-x="0" d="M-422 1266l41 235h234l-41 -235h-234z" />
<glyph unicode="&#x308;" horiz-adv-x="0" d="M-573 1266l41 235h196l-41 -235h-196zM-236 1266l41 235h197l-41 -235h-197z" />
<glyph unicode="&#x309;" horiz-adv-x="0" d="M-514 1378q35 189 270 189q104 0 158.5 -38.5t42.5 -103.5q-6 -39 -32.5 -66t-90.5 -61q-52 -29 -66.5 -40t-17.5 -25l-8 -49h-127l10 55q6 37 33 61t96 58v-2q73 43 76 69q5 22 -21.5 37t-72.5 15q-69 0 -98 -29l2 2q-16 -14 -29 -72h-125z" />
<glyph unicode="&#x30a;" horiz-adv-x="0" d="M-498 1386q12 71 85.5 125t158.5 54t139 -55t41 -128q-12 -72 -84.5 -126t-158.5 -54t-140 54.5t-41 129.5zM-393 1384q-6 -37 21 -62.5t71 -25.5t79.5 25.5t41.5 60.5q6 37 -20 62.5t-70 25.5q-43 0 -80 -25.5t-43 -60.5z" />
<glyph unicode="&#x30b;" horiz-adv-x="0" d="M-575 1233l208 299h258l-297 -299h-169zM-231 1233l208 299h259l-299 -299h-168z" />
<glyph unicode="&#x30c;" horiz-adv-x="0" d="M-557 1532h190l78 -168l135 168h191l-244 -299h-211z" />
<glyph unicode="&#x30f;" horiz-adv-x="0" d="M-756 1532h258l105 -299h-168zM-412 1532h258l105 -299h-170z" />
<glyph unicode="&#x311;" horiz-adv-x="0" d="M-596 1233q83 299 344 299q107 0 165 -62.5t58 -179.5q0 -32 -2 -57h-110v12q0 69 -35 100t-113 31q-82 0 -124.5 -30.5t-73.5 -112.5h-109z" />
<glyph unicode="&#x323;" horiz-adv-x="0" d="M-715 -410l41 236h234l-41 -236h-234z" />
<glyph unicode="&#x326;" horiz-adv-x="0" d="M-735 -610l16 88q59 12 99 61t47 119h-115l39 219h200l-34 -194q-13 -120 -84 -202t-168 -91z" />
<glyph unicode="&#x32e;" horiz-adv-x="0" d="M-860 -164h110q24 -52 61.5 -76t115.5 -24q79 0 121.5 24t70.5 76h129q-53 -123 -143 -190.5t-215 -67.5q-234 0 -250 258z" />
<glyph unicode="&#x32f;" horiz-adv-x="0" d="M-905 -422q53 123 143 190.5t215 67.5q234 0 250 -258h-111q-24 52 -61 76t-115 24q-79 0 -121.5 -24t-70.5 -76h-129z" />
<glyph unicode="&#x330;" horiz-adv-x="0" d="M-911 -422q46 131 104.5 191.5t140.5 60.5q14 0 107.5 -37t105.5 -37q62 0 95 82h108q-82 -246 -225 -246q-19 0 -117 37t-119 37q-58 0 -94 -88h-106z" />
<glyph unicode="&#x331;" horiz-adv-x="0" d="M-883 -369l27 152h580l-27 -152h-580z" />
<glyph unicode="&#x332;" horiz-adv-x="0" d="M-883 -369l27 152h580l-27 -152h-580z" />
<glyph unicode="&#x391;" horiz-adv-x="1212" d="M-29 0l688 1470h291l168 -1470h-274l-25 303h-444l-137 -303h-267zM485 557h308l-48 588z" />
<glyph unicode="&#x392;" horiz-adv-x="1212" d="M66 0l256 1470h587q149 0 230.5 -76.5t81.5 -217.5q0 -266 -207 -383q73 -43 104 -99.5t31 -148.5q0 -106 -38 -208.5t-107 -178.5q-82 -91 -173 -124.5t-256 -33.5h-509zM352 254h310q107 0 170 74t63 182q0 64 -41 100.5t-113 36.5h-321zM463 895h297q95 0 153 56.5 t58 150.5q0 59 -39.5 87t-122.5 28h-289z" />
<glyph unicode="&#x393;" horiz-adv-x="1026" d="M66 0l256 1470h858l-45 -260h-607l-211 -1210h-251z" />
<glyph unicode="&#x394;" horiz-adv-x="1028" d="M-47 0l635 1417h225l139 -1417h-999zM299 233h389l-72 711z" />
<glyph unicode="&#x395;" horiz-adv-x="1120" d="M66 0l256 1470h886l-45 -260h-641l-53 -309h588l-45 -260h-588l-66 -381h668l-45 -260h-915z" />
<glyph unicode="&#x396;" horiz-adv-x="1026" d="M-20 0l45 260l790 950h-608l45 260h924l-43 -241l-801 -969h637l-47 -260h-942z" />
<glyph unicode="&#x397;" horiz-adv-x="1212" d="M57 0l256 1470h252l-96 -557h471l96 557h252l-256 -1470h-252l115 659h-471l-115 -659h-252z" />
<glyph unicode="&#x398;" horiz-adv-x="1306" d="M119 502q0 167 36 321t103 278t157 216t204 142t239 50q98 0 181.5 -34t146.5 -99.5t99 -169t36 -235.5q0 -212 -56 -399t-153.5 -321t-234.5 -212t-293 -78q-215 0 -340 145.5t-125 395.5zM377 555q0 -157 68 -245.5t188 -88.5q119 0 218.5 91.5t156.5 251t57 351.5 q0 155 -68 244.5t-186 89.5q-124 0 -225 -97.5t-155 -255.5t-54 -341zM479 618l41 234h441l-39 -234h-443z" />
<glyph unicode="&#x399;" horiz-adv-x="466" d="M45 0l258 1470h252l-258 -1470h-252z" />
<glyph unicode="&#x39a;" horiz-adv-x="1212" d="M84 0l256 1470h252l-105 -598l566 598h325l-598 -602l371 -868h-326l-260 645l-143 -147l-86 -498h-252z" />
<glyph unicode="&#x39b;" horiz-adv-x="1212" d="M-29 0l688 1470h291l168 -1470h-274l-99 1145l-507 -1145h-267z" />
<glyph unicode="&#x39c;" horiz-adv-x="1398" d="M55 0l256 1470h383v-1167l420 1167h365l-256 -1470h-236l217 1247l-444 -1247h-252v1247l-217 -1247h-236z" />
<glyph unicode="&#x39d;" horiz-adv-x="1212" d="M55 0l256 1470h264l304 -1032l178 1032h235l-256 -1470h-252l-311 1055l-182 -1055h-236z" />
<glyph unicode="&#x39e;" horiz-adv-x="1212" d="M55 0l45 250h977l-43 -250h-979zM268 1221l45 249h977l-43 -249h-979zM418 618l41 234h469l-41 -234h-469z" />
<glyph unicode="&#x39f;" horiz-adv-x="1306" d="M119 502q0 167 36 321t103 278t157 216t204 142t239 50q98 0 181.5 -34t146.5 -99.5t99 -169t36 -235.5q0 -212 -56 -399t-153.5 -321t-234.5 -212t-293 -78q-215 0 -340 145.5t-125 395.5zM377 555q0 -157 68 -245.5t188 -88.5q119 0 218.5 91.5t156.5 251t57 351.5 q0 155 -68 244.5t-186 89.5q-124 0 -225 -97.5t-155 -255.5t-54 -341z" />
<glyph unicode="&#x3a0;" horiz-adv-x="1212" d="M57 0l256 1470h975l-256 -1470h-252l211 1217h-471l-211 -1217h-252z" />
<glyph unicode="&#x3a1;" horiz-adv-x="1120" d="M66 0l256 1470h550q145 0 225.5 -90.5t80.5 -251.5q0 -153 -61.5 -290t-173 -222.5t-245.5 -85.5h-288l-93 -530h-251zM455 784h233q111 0 172.5 80t61.5 211q0 73 -46.5 107.5t-146.5 34.5h-199z" />
<glyph unicode="&#x3a3;" horiz-adv-x="1032" d="M0 0l49 276l447 459l-287 459l47 276h909l-43 -245h-618l307 -490l-477 -489h618l-43 -246h-909z" />
<glyph unicode="&#x3a4;" horiz-adv-x="1026" d="M172 1210l45 260h981l-45 -260h-365l-210 -1210h-252l211 1210h-365z" />
<glyph unicode="&#x3a5;" horiz-adv-x="1120" d="M219 1470h297l139 -639l351 639h286l-565 -919l-94 -551h-254l98 555z" />
<glyph unicode="&#x3a6;" horiz-adv-x="1312" d="M184 735q30 175 171 305.5t327 169.5l45 260h252l-45 -260q171 -39 265.5 -169.5t64.5 -305.5t-171 -305.5t-327 -169.5l-45 -260h-252l45 260q-171 39 -265.5 169.5t-64.5 305.5zM426 735q-13 -76 24.5 -135t108.5 -88l78 446q-81 -29 -139.5 -88.5t-71.5 -134.5z M811 512q81 29 139.5 88.5t71.5 134.5q13 76 -24.5 135t-108.5 88z" />
<glyph unicode="&#x3a7;" horiz-adv-x="1120" d="M-39 0l520 752l-241 718h301l131 -475l303 475h291l-492 -706l260 -764h-307l-141 502l-330 -502h-295z" />
<glyph unicode="&#x3a8;" horiz-adv-x="1290" d="M236.5 873.5q-11.5 105.5 9.5 216.5l65 380h242l-66 -380q-23 -124 1 -230.5t92 -157.5l135 768h252l-136 -768q86 51 146.5 157t81.5 231l67 380h242l-68 -380q-26 -149 -97 -283.5t-180.5 -232.5t-236.5 -132l-77 -442h-252l78 442q-87 26 -152 89.5t-100 150 t-46.5 192z" />
<glyph unicode="&#x3a9;" horiz-adv-x="1298" d="M0 0l43 246h238l22 123q-108 142 -108 348q0 140 52.5 279.5t139.5 247t209 174.5t252 67q131 0 229.5 -69t148.5 -182.5t50 -252.5q0 -173 -74.5 -336.5t-200.5 -275.5l-20 -123h238l-43 -246h-490l84 481q111 51 181.5 187.5t70.5 281.5q0 125 -56 207t-161 82 q-100 0 -183 -76t-127 -187.5t-44 -225.5q0 -93 30.5 -164.5t91.5 -104.5l-84 -481h-489z" />
<glyph unicode="&#x3b1;" horiz-adv-x="1345" d="M143 506q21 122 75.5 235t131 200t178 139.5t209.5 52.5q215 0 305 -240q85 207 117 250l191 -107q-86 -125 -248 -532q6 -248 76 -451l-228 -106q-29 76 -47 211q-169 -201 -371 -201q-137 0 -236 76t-138.5 201.5t-14.5 271.5zM377 506q-22 -124 32.5 -215.5 t163.5 -91.5q183 0 314 309q-1 53 -4 93t-10 87.5t-20.5 80.5t-33.5 62.5t-52 44.5t-73 15q-81 0 -149.5 -57t-109.5 -142.5t-58 -185.5z" />
<glyph unicode="&#x3b2;" horiz-adv-x="1005" d="M-86 -492l279 1596q31 180 156 286.5t306 106.5q160 0 246 -77t86 -222q0 -249 -176 -356q75 -53 106 -110.5t31 -147.5q0 -161 -64.5 -301.5t-181 -226t-258.5 -85.5q-112 0 -204 58l-90 -521h-236zM281 262q61 -55 157 -55q125 0 197 90t72 235q0 89 -48.5 129 t-171.5 50l35 198q128 6 175.5 63t47.5 167q0 61 -36 95t-101 34q-72 0 -121 -49t-63 -134z" />
<glyph unicode="&#x3b3;" horiz-adv-x="1179" d="M246 1090h246l104 -707l350 707h246l-551 -1110l-82 -472h-233l82 472z" />
<glyph unicode="&#x3b4;" horiz-adv-x="1026" d="M70 356q0 175 114.5 311.5t294.5 200.5q-73 65 -111 124t-38 134q0 99 62.5 179t159 122.5t202.5 42.5q179 0 297 -106l-146 -186q-85 57 -192 57q-37 0 -59 -2.5t-45.5 -11t-34.5 -27.5t-11 -49q1 -32 13 -60t39.5 -53.5t48 -41t62.5 -42t58 -37.5q95 -66 149 -165 t54 -216q0 -49 -8 -90q-21 -126 -99.5 -234t-194 -171.5t-239.5 -63.5q-165 0 -270.5 110t-105.5 275zM309 397q0 -81 49 -135.5t129 -54.5q91 0 164.5 69t91.5 164q5 25 5 60q0 69 -28.5 128t-80.5 97q-124 0 -227 -100t-103 -228z" />
<glyph unicode="&#x3b5;" horiz-adv-x="1011" d="M117 352q28 156 198 248q-100 87 -77 223q27 151 138.5 260t248.5 109q162 0 350 -129l-127 -164q-50 32 -113 41.5t-151 9.5q-41 0 -72 -38t-41 -89q-12 -72 55 -105.5t172 -33.5l-34 -192q-290 0 -314 -140q-15 -87 34 -149t136 -62q54 0 83.5 1.5t75 12t79.5 31.5 l80 -157q-212 -129 -361 -129q-121 0 -211.5 61t-130 165t-18.5 226z" />
<glyph unicode="&#x3b6;" horiz-adv-x="968" d="M150 545q38 213 164.5 403.5t316.5 329.5h-352l32 192h793l-33 -192h-127q-219 -98 -369 -297.5t-192 -435.5q-11 -79 -6 -147t42.5 -114t100.5 -46h62q88 0 150 -51.5t86 -135t7 -180.5q-25 -144 -131 -249t-237 -105l39 217q38 0 62 39.5t34 97.5q4 32 3 59.5t-15 46.5 t-39 19h-62q-125 0 -210 78.5t-114.5 203t-4.5 267.5z" />
<glyph unicode="&#x3b7;" horiz-adv-x="1026" d="M55 0l191 1090h233v-5q94 48 199 48q103 0 178 -56t106 -149t13 -201l-213 -1219h-234l213 1219q11 67 -18.5 115.5t-87.5 48.5q-118 0 -205 -84l-141 -807h-234z" />
<glyph unicode="&#x3b8;" horiz-adv-x="980" d="M148.5 482q7.5 99 27.5 214q16 92 32.5 167.5t41.5 163t53 154.5t68 131.5t85.5 107t106 68t129.5 25.5t120.5 -25.5t82.5 -68t48.5 -107t22.5 -132t-0.5 -154t-15.5 -162.5t-26 -168q-20 -114 -46.5 -213.5t-69.5 -199t-96 -169.5t-127.5 -113.5t-162.5 -43.5t-148 43.5 t-88.5 113.5t-36.5 169.5t-0.5 198.5zM372 317.5q4 -57.5 27 -88t64 -30.5q42 0 76 30.5t58.5 88t40.5 117t32 140.5h-281q-12 -81 -16.5 -140.5t-0.5 -117zM432 817h279q10 63 16.5 112.5t10.5 104.5t1 95.5t-12 74t-29 51t-49 17.5q-42 0 -77 -37.5t-61 -107.5t-43.5 -142 t-35.5 -168z" />
<glyph unicode="&#x3b9;" horiz-adv-x="778" d="M229 328l133 762h234l-133 -762q-10 -61 41.5 -95t130.5 -34l-43 -242q-112 0 -202 46.5t-135 133t-26 191.5z" />
<glyph unicode="&#x3ba;" d="M55 0l191 1090h233l-71 -414l366 414h289l-389 -422l209 -668h-283l-131 467l-119 -123l-59 -344h-236z" />
<glyph unicode="&#x3bb;" horiz-adv-x="1304" d="M55 0l658 989l-11 60q-13 84 -60 140t-122 56l39 217q148 0 251 -93t128 -239l188 -1130h-245l-115 674l-449 -674h-262z" />
<glyph unicode="&#x3bc;" horiz-adv-x="1259" d="M86 -492l276 1582h234l-129 -738q17 -153 135 -153q120 0 191 153l129 738h233l-190 -1090h-234v6q-81 -49 -170 -49q-90 0 -155 49l-87 -498h-233z" />
<glyph unicode="&#x3bd;" horiz-adv-x="1056" d="M188 1090h246l123 -834q108 93 179.5 216t94.5 255q30 182 21 363h240q8 -153 -27 -363q-41 -233 -189 -437.5t-368 -330.5l-162 64z" />
<glyph unicode="&#x3be;" horiz-adv-x="1026" d="M137 467q18 105 80.5 196t153.5 154q-113 113 -86 279q17 101 92 182h-98l32 192h793l-33 -192h-356q-77 -22 -131.5 -69t-65.5 -113q-12 -74 43 -122t141 -48l-36 -217q-105 0 -191.5 -70.5t-103.5 -171.5q-16 -94 25.5 -161.5t123.5 -67.5h62q88 0 150 -51.5t86 -135 t7 -180.5q-25 -144 -131 -249t-237 -105l39 217q38 0 62 39.5t34 97.5q4 32 3 59.5t-15 46.5t-39 19h-62q-119 0 -206 65t-122.5 173t-13.5 233z" />
<glyph unicode="&#x3bf;" horiz-adv-x="1026" d="M76 389q0 152 44.5 287.5t120 232t181.5 153t225 56.5q172 0 271.5 -112t99.5 -306q0 -200 -75 -367.5t-207 -264.5t-290 -97q-172 0 -271 112t-99 306zM319 428q0 -215 170 -215q85 0 150.5 64.5t99 166.5t33.5 220q0 213 -170 213q-85 0 -151 -66t-99 -167t-33 -216z " />
<glyph unicode="&#x3c0;" horiz-adv-x="1251" d="M113 641q41 235 177.5 342t385.5 107h643l-41 -236h-102l-150 -854h-233l149 854h-190l-150 -854h-233l149 854q-81 0 -116 -51t-54 -162h-235z" />
<glyph unicode="&#x3c1;" horiz-adv-x="1157" d="M-31 -492l181 1037q20 114 71.5 220t125 187.5t170 131t198.5 49.5q136 0 228 -84.5t124.5 -217.5t5.5 -286t-105.5 -286t-200 -217.5t-257.5 -84.5q-124 0 -217 68l-90 -517h-234zM340 295q30 -48 86 -72t125 -24q109 0 187 103t102 243q13 89 4.5 166t-53.5 128.5 t-119 51.5q-107 0 -185.5 -103t-103.5 -243z" />
<glyph unicode="&#x3c2;" horiz-adv-x="1026" d="M154 565q26 147 98 275t185 210.5t241 82.5q150 0 234.5 -110t56.5 -265l-211 2q10 56 -26.5 93.5t-96.5 37.5q-66 0 -119 -49.5t-83 -120t-46 -156.5q-13 -61 -11 -119.5t15 -104.5t46.5 -74.5t82.5 -28.5h62q88 0 150 -51.5t86 -135t7 -180.5q-25 -144 -131 -249 t-237 -105l39 217q38 0 62 39.5t34 97.5q4 32 3 59.5t-15 46.5t-39 19h-62q-128 0 -212.5 82.5t-111.5 210.5t-1 276z" />
<glyph unicode="&#x3c3;" horiz-adv-x="1239" d="M137 389q0 203 75.5 370.5t206.5 263t290 95.5q55 0 104 -12q177 23 416 131l67 -217q-125 -55 -268 -84q51 -97 51 -236q0 -200 -75 -367.5t-206.5 -264.5t-289.5 -97q-172 0 -271.5 112t-99.5 306zM381 428q0 -215 170 -215q85 0 150.5 64.5t99 166.5t33.5 220 q0 213 -170 213q-85 0 -151 -66t-99 -167t-33 -216z" />
<glyph unicode="&#x3c4;" horiz-adv-x="837" d="M205 852l41 242h588l-43 -242h-177l-92 -524q-10 -61 42 -95t130 -34l-41 -242q-174 0 -282.5 106t-81.5 265l92 524h-176z" />
<glyph unicode="&#x3c5;" horiz-adv-x="1026" d="M119 362l127 728h233l-127 -728q-11 -66 14 -114.5t80 -48.5q66 0 121.5 46.5t89 115.5t48.5 151q47 277 18 578h242q26 -267 -27 -578q-26 -145 -100.5 -270.5t-189 -205t-242.5 -79.5q-101 0 -174 56.5t-102 149t-11 199.5z" />
<glyph unicode="&#x3c6;" horiz-adv-x="1540" d="M150 545q30 172 146 321t284 238l75 -184q-108 -58 -180 -158t-92 -217q-21 -122 49.5 -212t196.5 -120l53 299q21 119 62.5 227t102.5 198t146.5 143t182.5 53q75 0 133 -33t91.5 -89.5t53 -132t17.5 -160t-15 -173.5q-38 -220 -220 -381t-417 -197l-80 -459h-233 l80 459q-108 18 -197 68.5t-148.5 125.5t-84.5 174.5t-6 209.5zM862 213q137 30 238.5 120t122.5 212q10 58 15.5 100t5 91.5t-10.5 81t-35 52.5t-65 21q-32 0 -58.5 -13t-45.5 -30.5t-36 -51.5t-27 -59.5t-21 -73.5t-16 -73.5t-14 -77.5z" />
<glyph unicode="&#x3c7;" horiz-adv-x="1189" d="M-31 -492l490 791l-213 791h258l133 -500l309 500h258l-489 -791l213 -791h-258l-133 500l-310 -500h-258z" />
<glyph unicode="&#x3c8;" horiz-adv-x="1306" d="M119 362l127 728h233l-127 -728q-11 -65 33.5 -102.5t126.5 -52.5l219 1263h234l-220 -1263q192 33 213 155l127 728h234l-127 -728q-27 -155 -165.5 -260.5t-324.5 -134.5l-79 -459h-234l80 459q-84 14 -153.5 47.5t-118.5 83t-70 118t-8 146.5z" />
<glyph unicode="&#x3c9;" horiz-adv-x="1357" d="M136 402q5 86 22 182q43 250 260 506h200q-174 -201 -227 -506q-10 -55 -15.5 -89.5t-11.5 -85.5t-5 -83t7 -64t22 -47.5t42 -15.5q101 0 154 147q3 154 43 381h233q-48 -281 -48 -384q-1 -144 62 -144q19 0 36.5 8.5t31.5 28t25.5 39t22.5 53.5t18 58t15.5 66.5l13 65 t12.5 66.5q53 303 -52 506h201q127 -254 84 -506q-17 -96 -42 -182t-64 -169t-87 -143t-114 -96.5t-141 -36.5q-151 0 -211 127q-96 -127 -236 -127q-76 0 -129 36.5t-80 96.5t-37 143t-5 169z" />
<glyph unicode="&#x3d1;" horiz-adv-x="1142" d="M119 362l63 365h234l-64 -365q-12 -69 27 -118t106 -49q69 0 125 49t68 118l76 433q-85 11 -152.5 29t-127 48t-96.5 70.5t-53 98.5t-3 130q29 161 144 278.5t259 117.5q114 0 194.5 -67.5t110.5 -176t8 -233.5l-20 -121h117l-35 -195l-117 2l-72 -414 q-29 -166 -165.5 -283.5t-301.5 -117.5q-164 0 -259 117.5t-66 283.5zM508 1171q-7 -45 10.5 -79.5t57.5 -56t91 -34.5t119 -20l19 109q11 52 9.5 103t-12 91t-39 65t-71.5 25q-67 0 -118.5 -61t-65.5 -142z" />
<glyph unicode="&#x3d5;" horiz-adv-x="1439" d="M152 545q24 141 109 263t209 202.5t265 105.5l62 354h237l-61 -354q201 -39 311 -198.5t74 -372.5q-24 -141 -109 -263.5t-209.5 -203t-265.5 -105.5l-82 -465h-237l82 465q-202 39 -311.5 199t-73.5 373zM385 545q-20 -115 34.5 -205.5t158.5 -126.5l116 664 q-118 -36 -203.5 -126.5t-105.5 -205.5zM815 213q118 36 203.5 126.5t105.5 205.5t-34.5 205.5t-157.5 126.5z" />
<glyph unicode="&#x3d6;" horiz-adv-x="1357" d="M136 402q5 86 22 182q43 250 260 506h200q-174 -201 -227 -506q-10 -55 -15.5 -89.5t-11.5 -85.5t-5 -83t7 -64t22 -47.5t42 -15.5q101 0 154 147q3 154 43 381h233q-48 -281 -48 -384q-1 -144 62 -144q19 0 36.5 8.5t31.5 28t25.5 39t22.5 53.5t18 58t15.5 66.5l13 65 t12.5 66.5q49 287 52 410q7 267 -133 310q-29 9 -65 9q-205 0 -407 -105l-60 144q243 129 496 129q110 0 189 -51.5t120.5 -137.5t59 -203.5t11.5 -242.5t-30 -262q-17 -96 -42 -182t-64 -169t-87 -143t-114 -96.5t-141 -36.5q-151 0 -211 127q-96 -127 -236 -127 q-76 0 -129 36.5t-80 96.5t-37 143t-5 169z" />
<glyph unicode="&#x3f5;" d="M72 348q0 208 66 382.5t191 281t283 106.5q143 0 233 -81.5t99 -219.5h-262q-26 60 -100 60t-132.5 -60.5t-91.5 -163.5h318l-39 -217h-318l-2 -49q0 -86 35.5 -133t100.5 -47q74 0 133 65h254q-71 -147 -182 -224t-255 -77q-161 0 -246 97t-85 280z" />
<glyph unicode="&#x400;" horiz-adv-x="1120" d="M66 0l256 1470h886l-45 -260h-641l-53 -309h588l-45 -260h-588l-66 -381h668l-45 -260h-915zM659 1974h259l106 -299h-170z" />
<glyph unicode="&#x401;" horiz-adv-x="1120" d="M66 0l256 1470h886l-45 -260h-641l-53 -309h588l-45 -260h-588l-66 -381h668l-45 -260h-915zM514 1638l41 236h211l-41 -236h-211zM842 1638l41 236h211l-41 -236h-211z" />
<glyph unicode="&#x402;" horiz-adv-x="1331" d="M172 1210l45 260h817l-45 -260h-282l-58 -331q16 18 34 31.5t33.5 22.5t38 15t36 9t39.5 4.5t37 2t40 0t37 -0.5q164 0 252 -71.5t88 -211.5q0 -43 -10 -105l-100 -575q-10 -55 -25.5 -97t-35.5 -72t-50.5 -50.5t-62 -33t-79 -19.5t-92.5 -9t-110 -2v162q92 0 142.5 34 t60.5 87l100 567q2 8 2 23q0 55 -54 88t-149 33q-37 0 -71 -7t-67 -23.5t-57 -48t-32 -75.5l-98 -557h-252l211 1210h-283z" />
<glyph unicode="&#x403;" horiz-adv-x="1026" d="M66 0l256 1470h858l-45 -260h-607l-211 -1210h-251zM406 1589l210 299h258l-299 -299h-169z" />
<glyph unicode="&#x404;" horiz-adv-x="1212" d="M141 731q63 359 251 568.5t446 209.5q142 0 244.5 -67.5t148.5 -192.5q23 -62 30 -117.5t1 -142.5h-252q-5 95 -33 156q-23 46 -70.5 72t-109.5 26q-118 0 -210.5 -89t-148.5 -253h424l-45 -260h-434q-19 -196 39.5 -305t185.5 -109q138 0 230 115q25 31 42.5 64.5 t43.5 97.5h252q-47 -130 -89.5 -205.5t-107.5 -146.5q-176 -191 -422 -191q-256 0 -367.5 206t-48.5 564z" />
<glyph unicode="&#x405;" horiz-adv-x="1120" d="M74 332q0 39 10 121h242q-4 -46 -4 -56q0 -88 58 -135t165 -47q127 0 203.5 60.5t76.5 160.5q0 54 -40.5 87t-147.5 65l-123 37q-185 55 -238 108q-37 35 -58 92.5t-21 122.5q0 97 32 195t88 172q72 94 181.5 144t242.5 50q243 0 340 -151q62 -102 62 -219q0 -48 -8 -105 h-240v43q0 86 -53 132t-152 46q-110 0 -179 -59t-69 -154q0 -46 23.5 -71.5t81.5 -44.5l278 -88q135 -43 194.5 -113.5t59.5 -187.5q0 -114 -44.5 -226.5t-119.5 -187.5q-77 -78 -184 -120t-233 -42q-125 0 -221 42.5t-146 119.5q-57 90 -57 209z" />
<glyph unicode="&#x406;" horiz-adv-x="466" d="M45 0l258 1470h252l-258 -1470h-252z" />
<glyph unicode="&#x407;" horiz-adv-x="466" d="M45 0l256 1470h252l-256 -1470h-252zM188 1638l41 236h211l-41 -236h-211zM516 1638l41 236h211l-41 -236h-211z" />
<glyph unicode="&#x408;" d="M39 274q0 90 33 281h235q-24 -156 -24 -215q0 -68 27 -98.5t87 -30.5q77 0 116.5 48t59.5 167l183 1044h252l-183 -1044q-80 -463 -460 -463q-166 0 -246 76.5t-80 234.5z" />
<glyph unicode="&#x409;" horiz-adv-x="1716" d="M-160 0l43 248q61 -1 136 111.5t137.5 288t93.5 356.5l82 466h839l-94 -532h289q147 0 230 -94.5t83 -259.5q0 -157 -61 -291t-169 -213.5t-237 -79.5h-550l217 1219h-340l-39 -226q-23 -134 -61.5 -268t-98.5 -266t-132.5 -233t-168 -163.5t-199.5 -62.5zM956 252h201 q134 0 200 76t66 207q0 151 -155 151h-234z" />
<glyph unicode="&#x40a;" horiz-adv-x="1789" d="M57 0l256 1470h252l-96 -557h471l96 557h254l-94 -532h289q147 0 230 -94.5t83 -259.5q0 -157 -61 -291t-169 -213.5t-237 -79.5h-551l115 659h-471l-115 -659h-252zM1075 252h201q134 0 200 76t66 207q0 151 -156 151h-233z" />
<glyph unicode="&#x40b;" horiz-adv-x="1331" d="M172 1210l45 260h817l-45 -260h-282l-58 -331q16 18 34 31.5t33.5 22.5t38 15t36 9t39.5 4.5t37 2t40 0t37 -0.5q164 0 252 -71.5t88 -211.5q0 -43 -10 -105l-100 -575h-252l100 567q2 8 2 23q0 55 -54 88t-149 33q-37 0 -71 -7t-67 -23.5t-57 -48t-32 -75.5l-98 -557 h-252l211 1210h-283z" />
<glyph unicode="&#x40c;" horiz-adv-x="1214" d="M84 0l258 1470h252l-92 -528l553 528h325l-733 -704l504 -766h-324l-389 582l-102 -582h-252zM406 1589l210 299h258l-299 -299h-169z" />
<glyph unicode="&#x40d;" horiz-adv-x="1220" d="M57 0l258 1470h234l-187 -1054l685 1054h249l-258 -1470h-233l182 1032l-665 -1032h-265zM686 1974h258l107 -299h-170z" />
<glyph unicode="&#x40e;" horiz-adv-x="1120" d="M115 0l362 578l-256 892h297l156 -593l334 593h284l-893 -1470h-284zM600 1860q0 32 2 57h111v-12q0 -69 34.5 -100t112.5 -31q82 0 125 31t74 112h108q-83 -299 -344 -299q-107 0 -165 62.5t-58 179.5z" />
<glyph unicode="&#x40f;" horiz-adv-x="1208" d="M55 0l258 1470h252l-215 -1218h471l215 1218h252l-258 -1470h-364l-43 -246h-220l43 246h-391z" />
<glyph unicode="&#x410;" horiz-adv-x="1212" d="M-29 0l688 1470h291l168 -1470h-274l-25 303h-444l-137 -303h-267zM485 557h308l-48 588z" />
<glyph unicode="&#x411;" horiz-adv-x="1212" d="M-63 0l258 1470h858l-45 -260h-617l-55 -315h295q79 0 142 -17t102.5 -42.5t69 -62.5t43.5 -68t22 -70t9 -58t1 -40q0 -238 -168 -406q-77 -75 -163 -103t-243 -28h-509zM221 252h309q104 0 170 73t66 181q0 66 -40.5 102.5t-113.5 36.5h-321z" />
<glyph unicode="&#x412;" horiz-adv-x="1212" d="M66 0l256 1470h587q149 0 230.5 -76.5t81.5 -217.5q0 -74 -22.5 -149t-59.5 -130q-24 -33 -51 -55t-74 -49q73 -43 104 -99.5t31 -148.5q0 -106 -38 -208.5t-107 -178.5q-79 -91 -171 -124.5t-258 -33.5h-509zM352 254h310q121 0 184 90q49 76 49 166q0 64 -41 100.5 t-113 36.5h-321zM463 895h297q95 0 153 56.5t58 150.5q0 59 -39.5 87t-122.5 28h-289z" />
<glyph unicode="&#x413;" horiz-adv-x="1026" d="M66 0l256 1470h858l-45 -260h-607l-211 -1210h-251z" />
<glyph unicode="&#x414;" horiz-adv-x="1458" d="M-160 -246l86 492h133q61 0 135.5 113t136.5 288.5t93 356.5l82 466h844l-213 -1224h145l-86 -492h-219l43 246h-918l-43 -246h-219zM401 252h484l170 967h-340l-41 -226q-33 -198 -103.5 -397.5t-169.5 -343.5z" />
<glyph unicode="&#x415;" horiz-adv-x="1120" d="M66 0l256 1470h886l-45 -260h-641l-53 -309h588l-45 -260h-588l-66 -381h668l-45 -260h-915z" />
<glyph unicode="&#x416;" horiz-adv-x="1843" d="M-39 0l733 766l-446 704h325l328 -528l92 528h250l-92 -528l512 528h326l-693 -704l463 -766h-323l-349 582l-102 -582h-250l103 582l-553 -582h-324z" />
<glyph unicode="&#x417;" horiz-adv-x="1099" d="M50.5 310q-2.5 53 10.5 143h242q-14 -122 39.5 -181t179.5 -59q132 0 208.5 64.5t76.5 179.5q0 47 -15 84t-58 63.5t-111 26.5h-162l43 239h196q91 0 141 68.5t50 155.5q0 71 -49.5 117t-136.5 46q-113 0 -180 -53t-101 -170h-242q54 230 198 352.5t361 122.5 q185 0 286 -92.5t101 -257.5q0 -127 -45 -234t-118 -169q94 -73 94 -211q0 -158 -44 -273.5t-125 -182t-183.5 -97.5t-231.5 -31q-158 0 -261.5 61.5t-141.5 178.5q-19 56 -21.5 109z" />
<glyph unicode="&#x418;" horiz-adv-x="1220" d="M57 0l258 1470h234l-187 -1054l685 1054h249l-258 -1470h-233l182 1032l-665 -1032h-265z" />
<glyph unicode="&#x419;" horiz-adv-x="1220" d="M57 0l258 1470h234l-187 -1054l685 1054h249l-258 -1470h-233l182 1032l-665 -1032h-265zM625 1860q0 32 2 57h110v-12q0 -69 35 -100t113 -31q82 0 124.5 30.5t73.5 112.5h109q-83 -299 -344 -299q-107 0 -165 62.5t-58 179.5z" />
<glyph unicode="&#x41a;" horiz-adv-x="1214" d="M84 0l258 1470h252l-92 -528l553 528h325l-733 -704l504 -766h-324l-389 582l-102 -582h-252z" />
<glyph unicode="&#x41b;" horiz-adv-x="1212" d="M-160 0l43 248q61 -1 136 111.5t137.5 288t93.5 356.5l82 466h844l-258 -1470h-252l213 1219h-340l-39 -226q-23 -134 -61.5 -268t-98.5 -266t-132.5 -233t-168 -163.5t-199.5 -62.5z" />
<glyph unicode="&#x41c;" horiz-adv-x="1404" d="M57 0l256 1470h367l16 -1167l420 1167h365l-256 -1470h-236l217 1247l-444 -1247h-246l-6 1247l-217 -1247h-236z" />
<glyph unicode="&#x41d;" horiz-adv-x="1212" d="M57 0l256 1470h252l-96 -557h471l96 557h252l-256 -1470h-252l115 659h-471l-115 -659h-252z" />
<glyph unicode="&#x41e;" horiz-adv-x="1306" d="M119 502q0 195 62 402t159 333q98 129 234 200.5t284 71.5q197 0 330 -133q63 -63 98 -170t35 -235q0 -202 -60.5 -405.5t-158.5 -332.5t-234 -200.5t-284 -71.5q-215 0 -340 145.5t-125 395.5zM377 555q0 -157 68 -245.5t188 -88.5q119 0 218.5 91.5t156.5 251t57 351.5 q0 155 -68 244.5t-186 89.5q-99 0 -187 -63t-145 -176q-47 -94 -74.5 -215.5t-27.5 -239.5z" />
<glyph unicode="&#x41f;" horiz-adv-x="1208" d="M55 0l258 1470h975l-258 -1470h-252l215 1219h-471l-215 -1219h-252z" />
<glyph unicode="&#x420;" horiz-adv-x="1120" d="M66 0l256 1470h534q146 0 234 -91.5t88 -250.5q0 -121 -29.5 -227.5t-87 -190t-151 -132t-212.5 -48.5h-288l-93 -530h-251zM455 784h233q134 0 193 111q41 77 41 180q0 73 -46.5 107.5t-146.5 34.5h-199z" />
<glyph unicode="&#x421;" horiz-adv-x="1212" d="M119 494q0 207 62 412.5t165 340.5q200 262 490 262q192 0 310 -122.5t118 -323.5q0 -41 -2 -74h-254q-3 61 -9.5 92.5t-23.5 63.5q-23 46 -70.5 72t-109.5 26q-166 0 -277 -170q-60 -93 -98.5 -239.5t-38.5 -288.5q0 -152 59 -235t168 -83q138 0 230 115q26 32 43.5 65 t42.5 97h252q-47 -130 -89.5 -205.5t-107.5 -146.5q-85 -93 -192.5 -142t-227.5 -49q-193 0 -309 119q-60 63 -95.5 175t-35.5 239z" />
<glyph unicode="&#x422;" horiz-adv-x="1026" d="M172 1210l45 260h981l-45 -260h-365l-210 -1210h-252l211 1210h-365z" />
<glyph unicode="&#x423;" horiz-adv-x="1120" d="M115 0l362 578l-256 892h297l156 -593l334 593h284l-893 -1470h-284z" />
<glyph unicode="&#x424;" horiz-adv-x="1589" d="M51 743q20 115 91 223t175 183q186 135 480 160l28 161h254l-26 -159q280 -24 424 -162q78 -75 110 -184t10 -230q-28 -158 -134.5 -288.5t-266.5 -202.5q-157 -68 -346 -82l-29 -162h-254l27 160q-283 27 -424 162q-80 77 -111 186.5t-8 234.5zM309 739 q-23 -133 64.5 -217t265.5 -106l115 641q-191 -26 -299 -105q-58 -40 -96.5 -96.5t-49.5 -116.5zM893 414q187 23 304 107t140 214t-63.5 214.5t-265.5 107.5z" />
<glyph unicode="&#x425;" horiz-adv-x="1120" d="M-39 0l520 752l-241 718h301l131 -475l303 475h291l-492 -706l260 -764h-307l-141 502l-330 -502h-295z" />
<glyph unicode="&#x426;" horiz-adv-x="1337" d="M66 0l260 1470h252l-216 -1218h472l215 1218h251l-217 -1224h240l-86 -492h-219l43 246h-995z" />
<glyph unicode="&#x427;" horiz-adv-x="1007" d="M47 791q0 42 10 104l101 575h252l-101 -567q-2 -8 -2 -22q0 -55 54 -88t149 -33q174 0 227 153l99 557h251l-258 -1470h-251l104 592q-16 -18 -34 -31.5t-33.5 -22.5t-38 -15t-36 -9t-39.5 -4.5t-37 -2t-40 0t-37 0.5q-164 0 -252 71.5t-88 211.5z" />
<glyph unicode="&#x428;" horiz-adv-x="1523" d="M66 0l258 1470h251l-215 -1218l275 2l213 1216h252l-213 -1216l250 -2l215 1218h252l-258 -1470h-1280z" />
<glyph unicode="&#x429;" horiz-adv-x="1642" d="M66 0l260 1470h252l-216 -1218h273l215 1218h252l-215 -1218h252l215 1218h252l-217 -1224h239l-86 -492h-219l43 246h-1300z" />
<glyph unicode="&#x42a;" horiz-adv-x="1296" d="M55 1210l45 260h699l-94 -532h288q147 0 230.5 -94.5t83.5 -259.5q0 -157 -61 -291t-169 -213.5t-237 -79.5h-551l213 1210h-447zM584 252h200q134 0 200.5 76.5t66.5 206.5q0 151 -156 151h-233z" />
<glyph unicode="&#x42b;" horiz-adv-x="1488" d="M66 0l258 1470h251l-94 -532h289q147 0 230 -94.5t83 -259.5q0 -157 -61 -291t-169 -213.5t-237 -79.5h-550zM360 252h201q134 0 200 76t66 207q0 151 -155 151h-234zM1059 0l258 1470h252l-258 -1470h-252z" />
<glyph unicode="&#x42c;" horiz-adv-x="1073" d="M66 0l258 1470h251l-94 -532h289q147 0 230 -94.5t83 -259.5q0 -157 -61 -291t-169 -213.5t-237 -79.5h-550zM360 252h201q134 0 200 76t66 207q0 151 -155 151h-234z" />
<glyph unicode="&#x42d;" horiz-adv-x="1241" d="M119 504h252q5 -108 28 -162q56 -115 189 -115q127 0 223.5 109t146.5 305h-432l45 260h424v14q0 157 -60.5 242.5t-174.5 85.5q-129 0 -217 -98q-47 -61 -86 -156h-252q25 87 50.5 142.5t70.5 117.5q92 125 218.5 192.5t268.5 67.5q213 0 328.5 -143t115.5 -401 q0 -207 -49 -389.5t-139 -319t-225.5 -216t-298.5 -79.5q-245 0 -352 191q-40 71 -56.5 147t-17.5 205z" />
<glyph unicode="&#x42e;" horiz-adv-x="1871" d="M55 0l258 1470h252l-98 -557h281q77 254 225 402q94 94 212.5 144t244.5 50q115 0 212.5 -51.5t157.5 -142.5q86 -130 86 -346q0 -243 -82.5 -465t-208.5 -348q-91 -92 -209 -143.5t-239 -51.5q-158 0 -273 83.5t-161 231.5q-31 102 -31 228q0 66 10 158h-268l-117 -662 h-252zM940 561q0 -162 66 -251t188 -89q120 0 220.5 97t157 254.5t56.5 334.5q0 151 -55 236q-30 50 -82 78t-113 28q-93 0 -175.5 -58t-139.5 -153t-90 -220t-33 -257z" />
<glyph unicode="&#x42f;" horiz-adv-x="1167" d="M-29 0l510 532q-133 9 -207.5 103.5t-74.5 247.5q0 158 60.5 292.5t168.5 214.5t238 80h551l-259 -1470h-251l94 532l-506 -532h-324zM455 936q0 -152 155 -152h234l78 435h-201q-134 0 -200 -76t-66 -207z" />
<glyph unicode="&#x430;" d="M31 207q0 167 89.5 285.5t237.5 144.5l220 39q100 18 100 117q0 96 -127 96q-74 0 -114.5 -34.5t-65.5 -117.5h-226q27 92 51 144.5t62 97.5q115 139 342 139q152 0 235 -64.5t83 -183.5q0 -27 -7 -67l-102 -590q-10 -65 -10 -100q0 -53 32 -70l-8 -43h-254q-2 33 -2 59 q0 31 4 70q-85 -87 -155 -122.5t-156 -35.5q-107 0 -168 63t-61 173zM272 272q0 -44 25 -70t68 -26q86 0 158 63t87 152l25 139q-50 -37 -170 -59q-102 -22 -147.5 -68.5t-45.5 -130.5z" />
<glyph unicode="&#x431;" horiz-adv-x="1017" d="M61 389q0 71 15 154q11 65 17 97.5t19.5 100.5t24 108.5t29.5 104t38 104.5t46 93.5t56.5 88.5t67.5 70.5t81 57.5q65 35 130.5 56t108 26t89.5 10t69 10q20 5 36 12.5t25.5 13.5t20 19.5t15 20.5t15 26t15.5 27h213q-30 -68 -43.5 -96.5t-49.5 -77.5t-83 -84 q-50 -37 -101.5 -55t-117.5 -29t-103 -22q-102 -32 -150.5 -60.5t-76.5 -77.5q82 31 172 31q171 0 268 -114t97 -310q0 -144 -45 -277.5t-121.5 -231t-183.5 -156t-224 -58.5q-173 0 -271 113t-98 305zM305 424q0 -103 42.5 -157t125.5 -54q84 0 150.5 64.5t100.5 166 t34 218.5q0 105 -42.5 160t-123.5 55q-86 0 -152.5 -66.5t-100.5 -169t-34 -217.5z" />
<glyph unicode="&#x432;" horiz-adv-x="993" d="M41 0l192 1090h437q156 0 241.5 -60t85.5 -172q0 -94 -49.5 -163.5t-140.5 -106.5q52 -23 78 -45t45 -58q20 -41 20 -102q0 -171 -147 -285q-73 -57 -158.5 -77.5t-243.5 -20.5h-360zM309 217h172q102 0 160.5 42t58.5 118q0 49 -41 69.5t-122 20.5h-185zM389 674h158 q98 0 149.5 27t51.5 92q0 45 -40.5 62t-132.5 17h-151z" />
<glyph unicode="&#x433;" horiz-adv-x="778" d="M41 0l192 1090h652l-41 -234h-418l-152 -856h-233z" />
<glyph unicode="&#x434;" horiz-adv-x="1304" d="M-117 -246l82 471h154q20 0 52 42t66.5 113t68.5 178t54 222l54 310h739l-152 -865h146l-82 -471h-213l43 246h-756l-43 -246h-213zM393 233h377l109 623h-273l-10 -63q-22 -124 -75.5 -280.5t-127.5 -279.5z" />
<glyph unicode="&#x435;" d="M57 367q0 257 107 460q73 142 183.5 216.5t248.5 74.5q164 0 251 -102.5t87 -296.5q0 -93 -19 -201l-8 -51h-612q-6 -47 -6 -80q0 -89 43 -137.5t121 -48.5q120 0 176 118h241q-46 -101 -87.5 -157.5t-104.5 -102.5q-119 -88 -268 -88q-172 0 -262.5 101.5t-90.5 294.5z M334 653h364l2 54q0 82 -39.5 129t-107.5 47q-78 0 -131 -55t-88 -175z" />
<glyph unicode="&#x436;" horiz-adv-x="1474" d="M-37 0l526 578l-323 512h289l227 -381l68 381h233l-68 -381l363 381h289l-504 -512l321 -578h-282l-236 426l-75 -426h-236l78 426l-387 -426h-283z" />
<glyph unicode="&#x437;" horiz-adv-x="935" d="M51 348h242q-11 -82 28 -120t134 -38q81 0 129.5 39t48.5 111q0 48 -29.5 82t-103.5 35l-94 2l32 188l76 2q100 3 142 48.5t42 101.5q0 43 -33 71.5t-92 28.5q-77 0 -117.5 -31t-68.5 -110h-231q34 114 71.5 175t100.5 105q116 80 282 80q227 0 291 -155q25 -61 25 -127 q0 -159 -97 -263l31 -67q19 -46 19 -90q0 -198 -134.5 -321.5t-334.5 -123.5q-187 0 -287 97q-51 47 -66 107t-6 173z" />
<glyph unicode="&#x438;" horiz-adv-x="1030" d="M47 0l193 1090h233l-125 -703l432 703h269l-193 -1090h-233l122 700l-430 -700h-268z" />
<glyph unicode="&#x439;" horiz-adv-x="1032" d="M47 0l193 1090h233l-125 -703l432 703h269l-193 -1090h-233l122 700l-430 -700h-268zM483 1479q0 32 2 57h111v-12q0 -69 34.5 -100t112.5 -31q82 0 125 31t74 112h109q-83 -299 -344 -299q-108 0 -166 62.5t-58 179.5z" />
<glyph unicode="&#x43a;" horiz-adv-x="935" d="M55 0l193 1090h233l-67 -381l362 381h289l-504 -512l322 -578h-283l-235 426l-76 -426h-234z" />
<glyph unicode="&#x43b;" horiz-adv-x="1015" d="M-121 0l41 236q20 0 51.5 40.5t65.5 109t67.5 174t53.5 220.5l53 310h739l-188 -1090h-234l150 856h-272l-13 -63q-14 -81 -40.5 -176t-73 -207t-102.5 -201t-134.5 -149t-163.5 -60z" />
<glyph unicode="&#x43c;" horiz-adv-x="1327" d="M47 0l193 1090h364l43 -811l334 811h365l-193 -1090h-233l120 686l-323 -686h-248l-76 641l-112 -641h-234z" />
<glyph unicode="&#x43d;" horiz-adv-x="1030" d="M47 0l193 1090h233l-70 -365h342l70 365h234l-193 -1090h-233l82 492h-343l-81 -492h-234z" />
<glyph unicode="&#x43e;" horiz-adv-x="1026" d="M76 389q0 152 44.5 287.5t120 232t181.5 153t225 56.5q172 0 271.5 -112t99.5 -306q0 -137 -44.5 -278.5t-117.5 -237.5q-78 -102 -184.5 -157.5t-225.5 -55.5q-172 0 -271 112t-99 306zM319 428q0 -215 170 -215q141 0 216 149q30 59 48.5 143t18.5 159q0 213 -170 213 q-68 0 -123 -38.5t-90 -111.5q-31 -60 -50.5 -143.5t-19.5 -155.5z" />
<glyph unicode="&#x43f;" horiz-adv-x="1030" d="M47 0l193 1090h809l-193 -1090h-233l151 856h-342l-151 -856h-234z" />
<glyph unicode="&#x440;" horiz-adv-x="1026" d="M-31 -424l264 1514h226l-29 -164q73 106 141 149t160 43q135 0 213 -102.5t78 -282.5q0 -158 -48 -316.5t-128 -266.5q-135 -179 -320 -179q-90 0 -141 40t-82 134l-98 -569h-236zM350 414q0 -98 41.5 -152.5t116.5 -54.5q120 0 194 149q70 140 70 303q0 103 -39.5 157 t-114.5 54q-62 0 -112 -36t-82 -103q-74 -151 -74 -317z" />
<glyph unicode="&#x441;" d="M72 348q0 157 48 317t126 263q143 190 366 190q151 0 241.5 -89.5t90.5 -240.5q0 -22 -4 -88h-238q-2 93 -30 135t-90 42q-118 0 -189 -138q-33 -62 -54.5 -162t-21.5 -190q0 -86 35.5 -133t100.5 -47q66 0 119 52t75 138h240q-63 -206 -188 -316t-296 -110 q-161 0 -246 97t-85 280z" />
<glyph unicode="&#x442;" horiz-adv-x="757" d="M106 885l37 205h721l-37 -205h-243l-156 -885h-233l155 885h-244z" />
<glyph unicode="&#x443;" d="M8 -434l41 229q28 -4 49 -4q74 0 109 32.5t69 131.5l-131 1135h263l51 -811l325 811h250l-495 -1072q-54 -117 -85.5 -181.5t-67 -123t-57.5 -82.5t-57.5 -43t-67 -22.5t-85.5 -3.5z" />
<glyph unicode="&#x444;" horiz-adv-x="1609" d="M74 369q0 140 37.5 275t101.5 240t157 169.5t197 64.5q95 0 151 -44.5t73 -147.5l65 379h234l-66 -379q64 108 130 150t159 42q139 0 217 -104.5t78 -286.5q0 -139 -39 -276t-105 -243t-159 -171.5t-195 -65.5q-91 0 -142.5 40t-80.5 134l-101 -569h-233l100 569 q-63 -94 -128 -134t-156 -40q-139 0 -217 107.5t-78 290.5zM319 424q0 -102 39 -159.5t111 -57.5q81 0 145 68t95.5 171.5t31.5 219.5q0 202 -151 202q-76 0 -139.5 -64.5t-97.5 -166t-34 -213.5zM934 412q0 -100 40.5 -152.5t117.5 -52.5q71 0 133 65t97.5 168t35.5 215 q0 102 -39.5 157.5t-114.5 55.5q-79 0 -142 -67t-95.5 -170.5t-32.5 -218.5z" />
<glyph unicode="&#x445;" d="M-37 0l402 555l-201 535h287l96 -318l203 318h276l-387 -535l207 -555h-291l-96 328l-211 -328h-285z" />
<glyph unicode="&#x446;" horiz-adv-x="1169" d="M47 0l191 1090h233l-149 -857h342l149 857h234l-152 -865h233l-81 -471h-213l43 246h-830z" />
<glyph unicode="&#x447;" horiz-adv-x="856" d="M37 582q0 29 6 59l80 449h233l-80 -443q-6 -18 -6 -37q0 -75 136 -75q53 0 95.5 30.5t61.5 81.5l80 443h234l-193 -1090h-233l65 381q-11 -11 -23.5 -19t-29.5 -13t-29 -8t-34.5 -4t-33 -1.5t-38.5 0t-37 0.5q-29 0 -60.5 7t-66.5 25.5t-63 45.5t-46 70.5t-18 97.5z" />
<glyph unicode="&#x448;" horiz-adv-x="1388" d="M47 0l193 1090h233l-151 -857h233l152 857h233l-152 -857h234l152 857h233l-193 -1090h-1167z" />
<glyph unicode="&#x449;" horiz-adv-x="1527" d="M47 0l191 1090h233l-149 -857h233l150 857h233l-150 -857h234l149 857h234l-152 -865h234l-82 -471h-213l43 246h-1188z" />
<glyph unicode="&#x44a;" horiz-adv-x="1122" d="M106 885l37 205h494l-74 -416h158q84 0 151.5 -14.5t109.5 -40t72 -55t44 -64.5t20 -62.5t6 -54.5q0 -171 -147 -285q-73 -57 -158.5 -77.5t-243.5 -20.5h-360l156 885h-265zM483 217h172q102 0 160.5 42t58.5 118q0 49 -41 69.5t-122 20.5h-185z" />
<glyph unicode="&#x44b;" horiz-adv-x="1406" d="M47 0l193 1090h229l-74 -416h158q59 0 109 -6.5t84.5 -16t64 -25.5t46.5 -28.5t33 -32.5t21.5 -30.5t14 -28.5t10.5 -21q20 -41 20 -102q0 -171 -147 -285q-73 -57 -158 -77.5t-243 -20.5h-361zM315 217h172q102 0 161 42t59 118q0 49 -41.5 69.5t-122.5 20.5h-185z M999 0l193 1090h233l-192 -1090h-234z" />
<glyph unicode="&#x44c;" horiz-adv-x="937" d="M47 0l193 1090h229l-74 -416h158q59 0 109 -6.5t84.5 -16t64 -25.5t46.5 -28.5t33 -32.5t21.5 -30.5t14 -28.5t10.5 -21q20 -41 20 -102q0 -171 -147 -285q-73 -57 -158 -77.5t-243 -20.5h-361zM315 217h172q102 0 161 42t59 118q0 49 -41.5 69.5t-122.5 20.5h-185z" />
<glyph unicode="&#x44d;" horiz-adv-x="946" d="M76 397h237q-8 -86 28 -138t103 -52q152 0 220 246h-226l41 233h215q0 191 -145 191q-63 0 -106.5 -42t-77.5 -135h-238q24 84 45 132t55 94q66 92 164 142t209 50q164 0 252 -105t88 -298q0 -143 -37.5 -277t-104 -238t-167.5 -166.5t-219 -62.5q-173 0 -259 109.5 t-77 316.5z" />
<glyph unicode="&#x44e;" horiz-adv-x="1480" d="M47 0l193 1090h233l-72 -404h181q66 203 205 317.5t321 114.5q171 0 268 -113.5t97 -308.5q0 -144 -44.5 -277t-120.5 -231.5t-182.5 -157.5t-224.5 -59q-174 0 -271.5 111.5t-97.5 304.5q0 31 3 66h-175l-79 -453h-234zM774 424q0 -103 42.5 -157t125.5 -54 q85 0 151.5 65t101 167t34.5 219q0 103 -42.5 158t-123.5 55q-85 0 -152 -66t-102 -168.5t-35 -218.5z" />
<glyph unicode="&#x44f;" horiz-adv-x="997" d="M4 0l385 424q-38 6 -71 15.5t-56 19t-43.5 25.5t-32 25.5t-24 28t-16 25t-11.5 23.5l-8 18q-21 44 -21 103q0 169 148 284q73 57 158.5 78t242.5 21h361l-193 -1090h-229l74 416l-381 -416h-283zM356 713q0 -49 41.5 -69.5t122.5 -20.5h185l43 249h-173 q-102 0 -160.5 -41.5t-58.5 -117.5z" />
<glyph unicode="&#x450;" d="M57 367q0 257 107 460q73 142 183.5 216.5t248.5 74.5q164 0 251 -102.5t87 -296.5q0 -93 -19 -201l-8 -51h-612q-6 -47 -6 -80q0 -89 43 -137.5t121 -48.5q120 0 176 118h241q-46 -101 -87.5 -157.5t-104.5 -102.5q-119 -88 -268 -88q-172 0 -262.5 101.5t-90.5 294.5z M334 653h364l2 54q0 82 -39.5 129t-107.5 47q-78 0 -131 -55t-88 -175zM479 1593h258l107 -299h-170z" />
<glyph unicode="&#x451;" d="M57 367q0 257 107 460q73 142 183.5 216.5t248.5 74.5q164 0 251 -102.5t87 -296.5q0 -93 -19 -201l-8 -51h-612q-6 -47 -6 -80q0 -89 43 -137.5t121 -48.5q120 0 176 118h241q-46 -101 -87.5 -157.5t-104.5 -102.5q-119 -88 -268 -88q-172 0 -262.5 101.5t-90.5 294.5z M334 653h364l2 54q0 82 -39.5 129t-107.5 47q-78 0 -131 -55t-88 -175zM358 1257l41 236h211l-41 -236h-211zM686 1257l41 236h211l-41 -236h-211z" />
<glyph unicode="&#x452;" horiz-adv-x="1060" d="M133 0l182 1034h-182l37 205h174l45 231h236l-45 -231h290l-36 -205h-285l-51 -282q103 178 297 178q117 0 184.5 -73.5t67.5 -199.5q0 -18 -9 -92l-98 -569q-14 -81 -31 -127t-55.5 -82t-102.5 -49.5t-167 -13.5v149q102 0 123 123l79 477q2 14 4.5 34.5t4.5 34.5t2 23 q0 59 -32.5 91t-90.5 32q-87 0 -149.5 -67.5t-82.5 -184.5l-73 -436h-236z" />
<glyph unicode="&#x453;" horiz-adv-x="778" d="M41 0l192 1090h652l-41 -234h-418l-152 -856h-233zM299 1217l211 299h258l-299 -299h-170z" />
<glyph unicode="&#x454;" d="M88 530q50 277 188.5 432.5t337.5 155.5q111 0 192 -50t116 -142q17 -48 21 -96t-3 -130h-238q0 93 -27.5 135t-90.5 42q-147 0 -215 -191h215l-41 -233h-224q-21 -246 132 -246q67 0 120 51.5t76 138.5h238q-61 -207 -186 -316.5t-298 -109.5q-198 0 -279 145t-34 414z " />
<glyph unicode="&#x455;" d="M45 264q0 22 4 84h242q-2 -16 -2 -41q0 -57 43 -88t121 -31t128 35.5t50 91.5q0 72 -176 107q-310 58 -310 264q0 101 54 209q115 223 389 223q332 0 332 -291q0 -40 -2 -69h-232v14v23q-6 106 -137 106q-72 0 -116 -32.5t-44 -86.5q0 -66 174 -104q316 -61 316 -268 q0 -83 -35 -168t-92 -144q-61 -61 -150 -94t-192 -33q-170 0 -267.5 78t-97.5 215z" />
<glyph unicode="&#x456;" horiz-adv-x="466" d="M55 0l191 1090h233l-188 -1090h-236zM268 1219l45 266h236l-47 -266h-234z" />
<glyph unicode="&#x457;" horiz-adv-x="466" d="M55 0l191 1090h233l-190 -1090h-234zM129 1294l41 236h211l-41 -236h-211zM457 1294l41 236h211l-41 -236h-211z" />
<glyph unicode="&#x458;" horiz-adv-x="466" d="M-133 -438l41 229h41q37 0 57 23t29 77l209 1199h235l-209 -1205q-32 -183 -106.5 -253t-237.5 -70h-59zM266 1219l47 266h236l-47 -266h-236z" />
<glyph unicode="&#x459;" horiz-adv-x="1495" d="M-121 0l41 236q20 0 51.5 40.5t65.5 109t67.5 174t53.5 220.5l53 310h741l-73 -416h157q59 0 109 -6.5t84.5 -16t64 -25.5t46.5 -28.5t33 -32.5t21.5 -30.5t14 -28.5t10.5 -21q21 -43 21 -102q0 -170 -148 -285q-73 -57 -158 -77.5t-243 -20.5h-361l148 856h-272l-13 -63 q-14 -81 -40.5 -176t-73 -207t-102.5 -201t-134.5 -149t-163.5 -60zM799 217h172q102 0 160.5 42t58.5 118q0 49 -41.5 69.5t-122.5 20.5h-184z" />
<glyph unicode="&#x45a;" horiz-adv-x="1513" d="M47 0l193 1090h233l-72 -404h342l72 404h229l-73 -416h157q59 0 109 -6.5t84.5 -16t64 -25.5t46.5 -28.5t33 -32.5t21.5 -30.5t14 -28.5t10.5 -21q32 -69 17 -157q-22 -137 -144 -230q-73 -57 -158 -77.5t-243 -20.5h-360l79 453h-342l-79 -453h-234zM891 217h172 q99 0 152 31t65 104q12 62 -29.5 88.5t-132.5 26.5h-184z" />
<glyph unicode="&#x45b;" horiz-adv-x="1060" d="M133 0l182 1034h-182l37 205h174l45 231h236l-45 -231h290l-36 -205h-285l-51 -282q103 178 297 178q117 0 184.5 -73.5t67.5 -199.5q0 -43 -9 -92l-96 -565h-235l79 473q11 68 11 92q0 59 -32.5 91t-90.5 32q-87 0 -149.5 -67.5t-82.5 -184.5l-73 -436h-236z" />
<glyph unicode="&#x45c;" horiz-adv-x="935" d="M55 0l193 1090h233l-67 -381l362 381h289l-504 -512l322 -578h-283l-235 426l-76 -426h-234zM299 1217l211 299h258l-299 -299h-170z" />
<glyph unicode="&#x45d;" horiz-adv-x="1030" d="M47 0l193 1090h233l-125 -703l432 703h269l-193 -1090h-233l122 700l-430 -700h-268zM522 1593h258l107 -299h-170z" />
<glyph unicode="&#x45e;" d="M8 -434l41 229q28 -4 49 -4q74 0 109 32.5t69 131.5l-131 1135h263l51 -811l325 811h250l-495 -1072q-54 -117 -85.5 -181.5t-67 -123t-57.5 -82.5t-57.5 -43t-67 -22.5t-85.5 -3.5zM387 1479q0 32 2 57h111v-12q0 -69 34.5 -100t112.5 -31q82 0 125 31t74 112h108 q-83 -299 -344 -299q-107 0 -165 62.5t-58 179.5z" />
<glyph unicode="&#x45f;" horiz-adv-x="1030" d="M47 0l193 1090h233l-151 -857h342l151 857h234l-193 -1090h-283l-43 -246h-213l43 246h-313z" />
<glyph unicode="&#x48c;" horiz-adv-x="1073" d="M66 0l258 1470h251l-94 -532h289q147 0 230 -94.5t83 -259.5q0 -157 -61 -291t-169 -213.5t-237 -79.5h-550zM360 252h201q134 0 200 76t66 207q0 151 -155 151h-234z" />
<glyph unicode="&#x48d;" horiz-adv-x="937" d="M47 0l193 1090h229l-74 -416h158q59 0 109 -6.5t84.5 -16t64 -25.5t46.5 -28.5t33 -32.5t21.5 -30.5t14 -28.5t10.5 -21q20 -41 20 -102q0 -171 -147 -285q-73 -57 -158 -77.5t-243 -20.5h-361zM315 217h172q102 0 161 42t59 118q0 49 -41.5 69.5t-122.5 20.5h-185z" />
<glyph unicode="&#x48e;" horiz-adv-x="1120" d="M66 0l256 1470h550q145 0 225.5 -90.5t80.5 -251.5q0 -111 -37.5 -222.5t-102.5 -198.5q-136 -177 -340 -177h-288l-93 -530h-251zM455 784h233q134 0 193 111q41 77 41 180q0 73 -46.5 107.5t-146.5 34.5h-199z" />
<glyph unicode="&#x48f;" horiz-adv-x="1026" d="M-31 -424l264 1514h226l-29 -164q73 106 141 149t160 43q135 0 213 -102.5t78 -282.5q0 -158 -48 -316.5t-128 -266.5q-135 -179 -320 -179q-90 0 -141 40t-82 134l-98 -569h-236zM350 414q0 -98 41.5 -152.5t116.5 -54.5q120 0 194 149q70 140 70 303q0 103 -39.5 157 t-114.5 54q-62 0 -112 -36t-82 -103q-74 -151 -74 -317z" />
<glyph unicode="&#x490;" horiz-adv-x="1107" d="M66 0l258 1470h606l37 213h252l-82 -473h-607l-213 -1210h-251z" />
<glyph unicode="&#x491;" horiz-adv-x="868" d="M41 0l190 1090l433 2l36 219h222l-80 -455h-418l-150 -856h-233z" />
<glyph unicode="&#x492;" horiz-adv-x="1026" d="M66 0l129 737h-129l43 254h129l84 479h858l-45 -260h-607l-39 -219h277l-43 -254h-277l-129 -737h-251z" />
<glyph unicode="&#x493;" horiz-adv-x="778" d="M33 545l33 192h106l61 353h652l-41 -234h-418l-20 -119h184l-35 -192h-184l-97 -545h-233l98 545h-106z" />
<glyph unicode="&#x494;" horiz-adv-x="1026" d="M66 0l256 1470h858l-45 -260h-607l-211 -1210h-251z" />
<glyph unicode="&#x495;" horiz-adv-x="778" d="M41 0l192 1090h652l-41 -234h-418l-152 -856h-233z" />
<glyph unicode="&#x496;" horiz-adv-x="1843" d="M-39 0l733 766l-446 704h325l328 -528l92 528h250l-92 -528l512 528h326l-693 -704l314 -520h192l-86 -492h-219l43 246h-104l-349 582l-102 -582h-250l103 582l-553 -582h-324z" />
<glyph unicode="&#x497;" horiz-adv-x="1474" d="M-37 0l526 578l-323 512h289l227 -381l68 381h233l-68 -381l363 381h289l-504 -512l197 -353h163l-82 -471h-213l43 246h-69l-236 426l-75 -426h-236l78 426l-387 -426h-283z" />
<glyph unicode="&#x498;" horiz-adv-x="1099" d="M50.5 310q-2.5 53 10.5 143h242q-14 -122 39.5 -181t179.5 -59q117 0 190.5 49.5t88.5 138.5q4 29 5.5 60.5t-9.5 62t-30 54.5t-56 38.5t-88 14.5h-162l43 239h221q45 0 81.5 36.5t55 80.5t27.5 92q14 83 -35 130.5t-149 47.5q-113 0 -180 -53t-101 -170h-242 q54 230 198 352.5t361 122.5q215 0 315 -122.5t62 -337.5q-35 -193 -153 -293q65 -52 85 -129t-1 -189q-38 -221 -192.5 -349t-381.5 -128q-158 0 -261.5 61.5t-141.5 178.5q-19 56 -21.5 109z" />
<glyph unicode="&#x499;" horiz-adv-x="935" d="M51 348h242q-11 -82 28 -120t134 -38q71 0 118 30.5t56 82.5q2 18 3.5 38t-6 40.5t-20 37t-40 27t-66.5 11.5l-94 2l32 188l76 2q42 1 74 12t50 25t31 35.5t18 38t9 37.5q9 51 -22.5 76.5t-100.5 25.5q-77 0 -117.5 -31t-68.5 -110h-231q34 114 71.5 175t100.5 105 q116 80 282 80q227 0 291 -155q38 -91 17 -207q-18 -109 -89 -183l31 -67q29 -65 10 -166q-29 -172 -152 -270.5t-308 -98.5q-187 0 -287 97q-51 47 -66 107t-6 173z" />
<glyph unicode="&#x49a;" horiz-adv-x="1214" d="M84 0l258 1470h252l-92 -528l553 528h325l-733 -704l342 -520h205l-86 -492h-219l43 246h-105l-389 582l-102 -582h-252z" />
<glyph unicode="&#x49b;" horiz-adv-x="935" d="M55 0l193 1090h233l-67 -381l362 381h289l-504 -512l197 -353h164l-82 -471h-213l43 246h-70l-235 426l-76 -426h-234z" />
<glyph unicode="&#x49c;" horiz-adv-x="1214" d="M84 0l258 1470h252l-92 -528l553 528h325l-733 -704l504 -766h-324l-389 582l-102 -582h-252z" />
<glyph unicode="&#x49d;" horiz-adv-x="935" d="M55 0l193 1090h233l-67 -381l362 381h289l-504 -512l322 -578h-283l-235 426l-76 -426h-234z" />
<glyph unicode="&#x49e;" horiz-adv-x="1214" d="M84 0l258 1470h252l-92 -528l553 528h325l-733 -704l504 -766h-324l-389 582l-102 -582h-252z" />
<glyph unicode="&#x49f;" horiz-adv-x="935" d="M55 0l193 1090h233l-67 -381l362 381h289l-504 -512l322 -578h-283l-235 426l-76 -426h-234z" />
<glyph unicode="&#x4a0;" horiz-adv-x="1214" d="M84 0l258 1470h252l-92 -528l553 528h325l-733 -704l504 -766h-324l-389 582l-102 -582h-252z" />
<glyph unicode="&#x4a1;" horiz-adv-x="935" d="M55 0l193 1090h233l-67 -381l362 381h289l-504 -512l322 -578h-283l-235 426l-76 -426h-234z" />
<glyph unicode="&#x4a2;" horiz-adv-x="1212" d="M57 0l256 1470h252l-96 -557h471l96 557h252l-213 -1224h209l-86 -492h-219l43 246h-242l115 659h-471l-115 -659h-252z" />
<glyph unicode="&#x4a3;" horiz-adv-x="1030" d="M47 0l193 1090h233l-70 -365h342l70 365h234l-154 -865h192l-81 -471h-213l43 246h-213l82 492h-343l-81 -492h-234z" />
<glyph unicode="&#x4a4;" horiz-adv-x="1212" d="M57 0l256 1470h252l-96 -557h471l96 557h252l-256 -1470h-252l115 659h-471l-115 -659h-252z" />
<glyph unicode="&#x4a5;" horiz-adv-x="1030" d="M47 0l193 1090h233l-70 -365h342l70 365h234l-193 -1090h-233l82 492h-343l-81 -492h-234z" />
<glyph unicode="&#x4a6;" horiz-adv-x="1208" d="M55 0l258 1470h975l-258 -1470h-252l215 1219h-471l-215 -1219h-252z" />
<glyph unicode="&#x4a7;" horiz-adv-x="1030" d="M47 0l193 1090h809l-193 -1090h-233l151 856h-342l-151 -856h-234z" />
<glyph unicode="&#x4a8;" horiz-adv-x="1212" d="M119 494q0 207 62 412.5t165 340.5q200 262 490 262q192 0 310 -122.5t118 -323.5q0 -41 -2 -74h-254q-3 61 -9.5 92.5t-23.5 63.5q-23 46 -70.5 72t-109.5 26q-166 0 -277 -170q-60 -93 -98.5 -239.5t-38.5 -288.5q0 -152 59 -235t168 -83q138 0 230 115q26 32 43.5 65 t42.5 97h252q-47 -130 -89.5 -205.5t-107.5 -146.5q-85 -93 -192.5 -142t-227.5 -49q-193 0 -309 119q-60 63 -95.5 175t-35.5 239z" />
<glyph unicode="&#x4a9;" d="M72 348q0 157 48 317t126 263q143 190 366 190q151 0 241.5 -89.5t90.5 -240.5q0 -22 -4 -88h-238q-2 93 -30 135t-90 42q-118 0 -189 -138q-33 -62 -54.5 -162t-21.5 -190q0 -86 35.5 -133t100.5 -47q66 0 119 52t75 138h240q-63 -206 -188 -316t-296 -110 q-161 0 -246 97t-85 280z" />
<glyph unicode="&#x4aa;" horiz-adv-x="1212" d="M119 494q0 207 62 412.5t165 340.5q200 262 490 262q192 0 310 -122.5t118 -323.5q0 -41 -2 -74h-254q-3 61 -9.5 92.5t-23.5 63.5q-23 46 -70.5 72t-109.5 26q-166 0 -277 -170q-60 -93 -98.5 -239.5t-38.5 -288.5q0 -152 59 -235t168 -83q138 0 230 115q26 32 43.5 65 t42.5 97h252q-47 -130 -89.5 -205.5t-107.5 -146.5q-85 -93 -192.5 -142t-227.5 -49q-193 0 -309 119q-60 63 -95.5 175t-35.5 239z" />
<glyph unicode="&#x4ab;" d="M72 348q0 157 48 317t126 263q143 190 366 190q151 0 241.5 -89.5t90.5 -240.5q0 -22 -4 -88h-238q-2 93 -30 135t-90 42q-118 0 -189 -138q-33 -62 -54.5 -162t-21.5 -190q0 -86 35.5 -133t100.5 -47q66 0 119 52t75 138h240q-63 -206 -188 -316t-296 -110 q-161 0 -246 97t-85 280z" />
<glyph unicode="&#x4ac;" horiz-adv-x="1026" d="M172 1210l45 260h981l-45 -260h-365l-167 -964h208l-86 -492h-219l43 246h-241l211 1210h-365z" />
<glyph unicode="&#x4ad;" horiz-adv-x="757" d="M106 885l37 205h721l-37 -205h-243l-117 -660h192l-81 -471h-213l43 246h-213l155 885h-244z" />
<glyph unicode="&#x4ae;" horiz-adv-x="1120" d="M219 1470h297l139 -639l351 639h286l-565 -919l-94 -551h-254l98 555z" />
<glyph unicode="&#x4af;" horiz-adv-x="1120" d="M154 1090h297l139 -639l350 639h287l-565 -918l-95 -553h-254l99 553z" />
<glyph unicode="&#x4b0;" horiz-adv-x="1120" d="M111 332l32 184h328l6 39l-258 915h297l139 -639l351 639h286l-565 -919l-6 -35h328l-31 -184h-328l-57 -332h-254l59 332h-327z" />
<glyph unicode="&#x4b1;" horiz-adv-x="1120" d="M61 -8l33 180h318l-258 918h297l139 -639l350 639h287l-565 -918h317l-31 -180h-317l-64 -373h-254l66 373h-318z" />
<glyph unicode="&#x4b2;" horiz-adv-x="1120" d="M-39 0l520 752l-241 718h301l131 -475l303 475h291l-492 -706l176 -518h127l-86 -492h-219l43 246h-88l-141 502l-330 -502h-295z" />
<glyph unicode="&#x4b3;" d="M-37 0l402 555l-201 535h287l96 -318l203 318h276l-387 -535l123 -330h125l-82 -471h-213l43 246h-80l-96 328l-211 -328h-285z" />
<glyph unicode="&#x4b4;" horiz-adv-x="1337" d="M66 0l260 1470h252l-216 -1218h472l215 1218h251l-217 -1224h240l-86 -492h-219l43 246h-995z" />
<glyph unicode="&#x4b5;" horiz-adv-x="1169" d="M47 0l191 1090h233l-149 -857h342l149 857h234l-152 -865h233l-81 -471h-213l43 246h-830z" />
<glyph unicode="&#x4b6;" horiz-adv-x="1007" d="M47 791q0 42 10 104l101 575h252l-101 -567q-2 -8 -2 -22q0 -55 54 -88t149 -33q174 0 227 153l99 557h251l-258 -1470h-251l104 592q-16 -18 -34 -31.5t-33.5 -22.5t-38 -15t-36 -9t-39.5 -4.5t-37 -2t-40 0t-37 0.5q-164 0 -252 71.5t-88 211.5z" />
<glyph unicode="&#x4b7;" horiz-adv-x="856" d="M37 582q0 29 6 59l80 449h233l-80 -443q-6 -18 -6 -37q0 -75 136 -75q53 0 95.5 30.5t61.5 81.5l80 443h234l-193 -1090h-233l65 381q-11 -11 -23.5 -19t-29.5 -13t-29 -8t-34.5 -4t-33 -1.5t-38.5 0t-37 0.5q-29 0 -60.5 7t-66.5 25.5t-63 45.5t-46 70.5t-18 97.5z" />
<glyph unicode="&#x4b8;" horiz-adv-x="1007" d="M47 791q0 42 10 104l101 575h252l-101 -567q-2 -8 -2 -22q0 -55 54 -88t149 -33q174 0 227 153l99 557h251l-258 -1470h-251l104 592q-16 -18 -34 -31.5t-33.5 -22.5t-38 -15t-36 -9t-39.5 -4.5t-37 -2t-40 0t-37 0.5q-164 0 -252 71.5t-88 211.5z" />
<glyph unicode="&#x4b9;" horiz-adv-x="856" d="M37 582q0 29 6 59l80 449h233l-80 -443q-6 -18 -6 -37q0 -75 136 -75q53 0 95.5 30.5t61.5 81.5l80 443h234l-193 -1090h-233l65 381q-11 -11 -23.5 -19t-29.5 -13t-29 -8t-34.5 -4t-33 -1.5t-38.5 0t-37 0.5q-29 0 -60.5 7t-66.5 25.5t-63 45.5t-46 70.5t-18 97.5z" />
<glyph unicode="&#x4ba;" horiz-adv-x="1007" d="M-14 0l258 1470h252l-105 -591q16 18 34 31.5t33.5 22.5t38 15t36 9t39.5 4.5t37 2t40 0t37 -0.5q164 0 252 -71.5t88 -211.5q0 -43 -10 -105l-101 -575h-251l100 567q2 8 2 23q0 55 -54 88t-149 33q-174 0 -227 -154l-98 -557h-252z" />
<glyph unicode="&#x4bb;" horiz-adv-x="856" d="M37 0l192 1090h234l-66 -381q11 11 23.5 19t29.5 13t29 8t35 4t33.5 1.5t38.5 0t37 -0.5q29 0 61 -7t67 -25.5t62.5 -45.5t45.5 -70.5t18 -97.5q0 -24 -7 -59l-79 -449h-234l80 442q6 18 6 37q0 76 -135 76q-52 0 -95 -31t-63 -82l-80 -442h-233z" />
<glyph unicode="&#x4bc;" horiz-adv-x="1212" d="M119 494q0 207 62 412.5t165 340.5q200 262 490 262q192 0 310 -122.5t118 -323.5q0 -41 -2 -74h-254q-3 61 -9.5 92.5t-23.5 63.5q-23 46 -70.5 72t-109.5 26q-166 0 -277 -170q-60 -93 -98.5 -239.5t-38.5 -288.5q0 -152 59 -235t168 -83q138 0 230 115q26 32 43.5 65 t42.5 97h252q-47 -130 -89.5 -205.5t-107.5 -146.5q-85 -93 -192.5 -142t-227.5 -49q-193 0 -309 119q-60 63 -95.5 175t-35.5 239z" />
<glyph unicode="&#x4bd;" d="M72 348q0 157 48 317t126 263q143 190 366 190q151 0 241.5 -89.5t90.5 -240.5q0 -22 -4 -88h-238q-2 93 -30 135t-90 42q-118 0 -189 -138q-33 -62 -54.5 -162t-21.5 -190q0 -86 35.5 -133t100.5 -47q66 0 119 52t75 138h240q-63 -206 -188 -316t-296 -110 q-161 0 -246 97t-85 280z" />
<glyph unicode="&#x4be;" horiz-adv-x="1212" d="M119 494q0 207 62 412.5t165 340.5q200 262 490 262q192 0 310 -122.5t118 -323.5q0 -41 -2 -74h-254q-3 61 -9.5 92.5t-23.5 63.5q-23 46 -70.5 72t-109.5 26q-166 0 -277 -170q-60 -93 -98.5 -239.5t-38.5 -288.5q0 -152 59 -235t168 -83q138 0 230 115q26 32 43.5 65 t42.5 97h252q-47 -130 -89.5 -205.5t-107.5 -146.5q-85 -93 -192.5 -142t-227.5 -49q-193 0 -309 119q-60 63 -95.5 175t-35.5 239z" />
<glyph unicode="&#x4bf;" d="M72 348q0 157 48 317t126 263q143 190 366 190q151 0 241.5 -89.5t90.5 -240.5q0 -22 -4 -88h-238q-2 93 -30 135t-90 42q-118 0 -189 -138q-33 -62 -54.5 -162t-21.5 -190q0 -86 35.5 -133t100.5 -47q66 0 119 52t75 138h240q-63 -206 -188 -316t-296 -110 q-161 0 -246 97t-85 280z" />
<glyph unicode="&#x4c0;" horiz-adv-x="466" d="M45 0l258 1470h252l-258 -1470h-252z" />
<glyph unicode="&#x4c1;" horiz-adv-x="1843" d="M-39 0l733 766l-446 704h325l328 -528l92 528h250l-92 -528l512 528h326l-693 -704l463 -766h-323l-349 582l-102 -582h-250l103 582l-553 -582h-324zM920 1917q0 32 2 57h110v-12q0 -69 35 -100t113 -31q82 0 124.5 30.5t73.5 112.5h109q-83 -299 -344 -299 q-107 0 -165 62.5t-58 179.5z" />
<glyph unicode="&#x4c2;" horiz-adv-x="1474" d="M-37 0l526 578l-323 512h289l227 -381l68 381h233l-68 -381l363 381h289l-504 -512l321 -578h-282l-236 426l-75 -426h-236l78 426l-387 -426h-283zM668 1536q0 32 2 57h110v-12q0 -69 35 -100t113 -31q82 0 124.5 30.5t73.5 112.5h109q-83 -299 -344 -299 q-107 0 -165 62.5t-58 179.5z" />
<glyph unicode="&#x4c3;" horiz-adv-x="1214" d="M84 0l258 1470h252l-92 -528l553 528h325l-733 -704l504 -766h-324l-389 582l-102 -582h-252z" />
<glyph unicode="&#x4c4;" horiz-adv-x="935" d="M55 0l193 1090h233l-67 -381l362 381h289l-504 -512l322 -578h-283l-235 426l-76 -426h-234z" />
<glyph unicode="&#x4c7;" horiz-adv-x="1212" d="M57 0l256 1470h252l-96 -557h471l96 557h252l-256 -1470h-252l115 659h-471l-115 -659h-252z" />
<glyph unicode="&#x4c8;" horiz-adv-x="1030" d="M47 0l193 1090h233l-70 -365h342l70 365h234l-193 -1090h-233l82 492h-343l-81 -492h-234z" />
<glyph unicode="&#x4cb;" horiz-adv-x="1007" d="M47 791q0 42 10 104l101 575h252l-101 -567q-2 -8 -2 -22q0 -55 54 -88t149 -33q174 0 227 153l99 557h251l-258 -1470h-251l104 592q-16 -18 -34 -31.5t-33.5 -22.5t-38 -15t-36 -9t-39.5 -4.5t-37 -2t-40 0t-37 0.5q-164 0 -252 71.5t-88 211.5z" />
<glyph unicode="&#x4cc;" horiz-adv-x="856" d="M37 582q0 29 6 59l80 449h233l-80 -443q-6 -18 -6 -37q0 -75 136 -75q53 0 95.5 30.5t61.5 81.5l80 443h234l-193 -1090h-233l65 381q-11 -11 -23.5 -19t-29.5 -13t-29 -8t-34.5 -4t-33 -1.5t-38.5 0t-37 0.5q-29 0 -60.5 7t-66.5 25.5t-63 45.5t-46 70.5t-18 97.5z" />
<glyph unicode="&#x4d0;" horiz-adv-x="1212" d="M-29 0l688 1470h291l168 -1470h-274l-25 303h-444l-137 -303h-267zM485 557h308l-48 588zM604 1917q0 32 2 57h111v-12q0 -69 34.5 -100t112.5 -31q82 0 125 31t74 112h108q-83 -299 -344 -299q-107 0 -165 62.5t-58 179.5z" />
<glyph unicode="&#x4d1;" d="M31 207q0 167 89.5 285.5t237.5 144.5l220 39q100 18 100 117q0 96 -127 96q-74 0 -114.5 -34.5t-65.5 -117.5h-226q27 92 51 144.5t62 97.5q115 139 342 139q152 0 235 -64.5t83 -183.5q0 -27 -7 -67l-102 -590q-10 -65 -10 -100q0 -53 32 -70l-8 -43h-254q-2 33 -2 59 q0 31 4 70q-85 -87 -155 -122.5t-156 -35.5q-107 0 -168 63t-61 173zM272 272q0 -44 25 -70t68 -26q86 0 158 63t87 152l25 139q-50 -37 -170 -59q-102 -22 -147.5 -68.5t-45.5 -130.5zM403 1536q0 20 3 57h110v-12q0 -69 35 -100t113 -31q82 0 124.5 30.5t73.5 112.5h109 q-83 -299 -344 -299q-108 0 -166 62.5t-58 179.5z" />
<glyph unicode="&#x4d2;" horiz-adv-x="1212" d="M-29 0l688 1470h291l168 -1470h-274l-25 303h-444l-137 -303h-267zM485 557h308l-48 588zM567 1675l41 236h211l-41 -236h-211zM895 1675l41 236h211l-41 -236h-211z" />
<glyph unicode="&#x4d3;" d="M31 207q0 167 89.5 285.5t237.5 144.5l220 39q100 18 100 117q0 96 -127 96q-74 0 -114.5 -34.5t-65.5 -117.5h-226q27 92 51 144.5t62 97.5q115 139 342 139q152 0 235 -64.5t83 -183.5q0 -27 -7 -67l-102 -590q-10 -65 -10 -100q0 -53 32 -70l-8 -43h-254q-2 33 -2 59 q0 31 4 70q-85 -87 -155 -122.5t-156 -35.5q-107 0 -168 63t-61 173zM272 272q0 -44 25 -70t68 -26q86 0 158 63t87 152l25 139q-50 -37 -170 -59q-102 -22 -147.5 -68.5t-45.5 -130.5zM367 1294l41 236h210l-40 -236h-211zM694 1294l41 236h211l-41 -236h-211z" />
<glyph unicode="&#x4d4;" horiz-adv-x="1679" d="M-53 0l696 1470h1143l-45 -260h-625l-53 -309h561l-45 -260h-561l-66 -381h635l-45 -260h-883l56 313h-363l-141 -313h-264zM461 555h295l114 655h-108z" />
<glyph unicode="&#x4d5;" horiz-adv-x="1492" d="M33 215q0 156 79 265.5t210 135.5l229 46q94 19 115 45q11 12 18.5 40.5t7.5 57.5q0 40 -35.5 62t-99.5 22q-77 0 -120 -37.5t-58 -116.5h-232q23 85 47 136t62 98q121 149 352 149q89 0 149.5 -28t114.5 -93q85 68 149 94.5t142 26.5q155 0 240.5 -105t85.5 -294 q0 -93 -19 -201l-8 -51h-614q-4 -62 -4 -82q0 -88 43 -136t121 -48q123 0 176 118h241q-46 -101 -87.5 -157.5t-104.5 -102.5q-122 -88 -275 -88q-116 0 -180 39t-108 137q-132 -176 -371 -176q-131 0 -198.5 62t-67.5 182zM274 272q0 -44 28.5 -70t76.5 -26 q81 0 152.5 62.5t86.5 146.5l23 137q-23 -22 -60 -34t-124 -27q-58 -10 -87.5 -23t-50.5 -35q-45 -52 -45 -131zM889 653h364l2 52q0 83 -39 130.5t-108 47.5q-78 0 -131 -55.5t-88 -174.5z" />
<glyph unicode="&#x4d6;" horiz-adv-x="1120" d="M66 0l256 1470h886l-45 -260h-641l-53 -309h588l-45 -260h-588l-66 -381h668l-45 -260h-915zM584 1917q0 32 2 57h110v-12q0 -69 35 -100t113 -31q82 0 124.5 30.5t73.5 112.5h109q-83 -299 -344 -299q-107 0 -165 62.5t-58 179.5z" />
<glyph unicode="&#x4d7;" d="M57 367q0 257 107 460q73 142 183.5 216.5t248.5 74.5q164 0 251 -102.5t87 -296.5q0 -93 -19 -201l-8 -51h-612q-6 -47 -6 -80q0 -89 43 -137.5t121 -48.5q120 0 176 118h241q-46 -101 -87.5 -157.5t-104.5 -102.5q-119 -88 -268 -88q-172 0 -262.5 101.5t-90.5 294.5z M334 653h364l2 54q0 82 -39.5 129t-107.5 47q-78 0 -131 -55t-88 -175zM403 1536q0 20 3 57h110v-12q0 -69 35 -100t113 -31q82 0 124.5 30.5t73.5 112.5h109q-83 -299 -344 -299q-108 0 -166 62.5t-58 179.5z" />
<glyph unicode="&#x4d8;" horiz-adv-x="1212" d="M119 408q0 40 2 73h254q3 -61 9.5 -92t23.5 -63q24 -46 71 -72.5t109 -26.5q165 0 276 170q60 93 98.5 240t38.5 289q0 152 -59 234.5t-168 82.5q-137 0 -229 -115q-44 -54 -86 -161h-252q47 130 89 205.5t107 146.5q175 190 420 190q195 0 310 -118q60 -63 95.5 -175 t35.5 -239q0 -206 -62.5 -412.5t-165.5 -341.5q-200 -262 -489 -262q-192 0 -310 123t-118 324z" />
<glyph unicode="&#x4d9;" d="M72 301q0 22 4 88h237q2 -93 30 -134.5t91 -41.5q119 0 189 137q33 62 54 161.5t21 190.5q0 86 -35.5 133.5t-99.5 47.5q-66 0 -119 -52.5t-75 -138.5h-240q63 206 187.5 316t295.5 110q161 0 246.5 -97t85.5 -280q0 -157 -48 -316.5t-126 -262.5q-144 -191 -367 -191 q-151 0 -241 89.5t-90 240.5z" />
<glyph unicode="&#x4da;" horiz-adv-x="1212" d="M119 408q0 40 2 73h254q3 -61 9.5 -92t23.5 -63q24 -46 71 -72.5t109 -26.5q165 0 276 170q60 93 98.5 240t38.5 289q0 152 -59 234.5t-168 82.5q-137 0 -229 -115q-44 -54 -86 -161h-252q47 130 89 205.5t107 146.5q175 190 420 190q195 0 310 -118q60 -63 95.5 -175 t35.5 -239q0 -206 -62.5 -412.5t-165.5 -341.5q-200 -262 -489 -262q-192 0 -310 123t-118 324zM588 1675l41 236h211l-41 -236h-211zM915 1675l41 236h211l-41 -236h-211z" />
<glyph unicode="&#x4db;" d="M72 301q0 22 4 88h237q2 -93 30 -134.5t91 -41.5q119 0 189 137q33 62 54 161.5t21 190.5q0 86 -35.5 133.5t-99.5 47.5q-66 0 -119 -52.5t-75 -138.5h-240q63 206 187.5 316t295.5 110q161 0 246.5 -97t85.5 -280q0 -157 -48 -316.5t-126 -262.5q-144 -191 -367 -191 q-151 0 -241 89.5t-90 240.5zM369 1294l41 236h211l-41 -236h-211zM696 1294l41 236h211l-41 -236h-211z" />
<glyph unicode="&#x4dc;" horiz-adv-x="1843" d="M-39 0l733 766l-446 704h325l328 -528l92 528h250l-92 -528l512 528h326l-693 -704l463 -766h-323l-349 582l-102 -582h-250l103 582l-553 -582h-324zM883 1675l41 236h211l-41 -236h-211zM1210 1675l41 236h211l-41 -236h-211z" />
<glyph unicode="&#x4dd;" horiz-adv-x="1474" d="M-37 0l526 578l-323 512h289l227 -381l68 381h233l-68 -381l363 381h289l-504 -512l321 -578h-282l-236 426l-75 -426h-236l78 426l-387 -426h-283zM631 1294l41 236h211l-41 -236h-211zM958 1294l41 236h211l-41 -236h-211z" />
<glyph unicode="&#x4de;" horiz-adv-x="1099" d="M50.5 310q-2.5 53 10.5 143h242q-14 -122 39.5 -181t179.5 -59q117 0 190.5 49.5t88.5 138.5q4 29 5.5 60.5t-9.5 62t-30 54.5t-56 38.5t-88 14.5h-162l43 239h221q45 0 81.5 36.5t55 80.5t27.5 92q14 83 -35 130.5t-149 47.5q-113 0 -180 -53t-101 -170h-242 q54 230 198 352.5t361 122.5q215 0 315 -122.5t62 -337.5q-35 -193 -153 -293q65 -52 85 -129t-1 -189q-38 -221 -192.5 -349t-381.5 -128q-158 0 -261.5 61.5t-141.5 178.5q-19 56 -21.5 109zM502 1675l41 236h211l-41 -236h-211zM829 1675l41 236h211l-41 -236h-211z" />
<glyph unicode="&#x4df;" horiz-adv-x="935" d="M51 348h242q-11 -82 28 -120t134 -38q71 0 118 30.5t56 82.5q2 18 3.5 38t-6 40.5t-20 37t-40 27t-66.5 11.5l-94 2l32 188l76 2q42 1 74 12t50 25t31 35.5t18 38t9 37.5q9 51 -22.5 76.5t-100.5 25.5q-77 0 -117.5 -31t-68.5 -110h-231q34 114 71.5 175t100.5 105 q116 80 282 80q227 0 291 -155q38 -91 17 -207q-18 -109 -89 -183l31 -67q29 -65 10 -166q-29 -172 -152 -270.5t-308 -98.5q-187 0 -287 97q-51 47 -66 107t-6 173zM358 1294l41 236h211l-41 -236h-211zM686 1294l41 236h211l-41 -236h-211z" />
<glyph unicode="&#x4e0;" horiz-adv-x="1099" d="M50.5 310q-2.5 53 10.5 143h242q-14 -122 39.5 -181t179.5 -59q117 0 190.5 49.5t88.5 138.5q4 29 5.5 60.5t-9.5 62t-30 54.5t-56 38.5t-88 14.5h-162l43 239h221q45 0 81.5 36.5t55 80.5t27.5 92q14 83 -35 130.5t-149 47.5q-113 0 -180 -53t-101 -170h-242 q54 230 198 352.5t361 122.5q215 0 315 -122.5t62 -337.5q-35 -193 -153 -293q65 -52 85 -129t-1 -189q-38 -221 -192.5 -349t-381.5 -128q-158 0 -261.5 61.5t-141.5 178.5q-19 56 -21.5 109z" />
<glyph unicode="&#x4e1;" horiz-adv-x="935" d="M51 348h242q-11 -82 28 -120t134 -38q71 0 118 30.5t56 82.5q2 18 3.5 38t-6 40.5t-20 37t-40 27t-66.5 11.5l-94 2l32 188l76 2q42 1 74 12t50 25t31 35.5t18 38t9 37.5q9 51 -22.5 76.5t-100.5 25.5q-77 0 -117.5 -31t-68.5 -110h-231q34 114 71.5 175t100.5 105 q116 80 282 80q227 0 291 -155q38 -91 17 -207q-18 -109 -89 -183l31 -67q29 -65 10 -166q-29 -172 -152 -270.5t-308 -98.5q-187 0 -287 97q-51 47 -66 107t-6 173z" />
<glyph unicode="&#x4e2;" horiz-adv-x="1220" d="M57 0l258 1470h234l-187 -1054l685 1054h249l-258 -1470h-233l182 1032l-665 -1032h-265zM551 1675l27 152h579l-27 -152h-579z" />
<glyph unicode="&#x4e3;" horiz-adv-x="1030" d="M47 0l193 1090h233l-125 -703l432 703h269l-193 -1090h-233l122 700l-430 -700h-268zM389 1294l27 152h579l-26 -152h-580z" />
<glyph unicode="&#x4e4;" horiz-adv-x="1220" d="M57 0l258 1470h234l-187 -1054l685 1054h249l-258 -1470h-233l182 1032l-665 -1032h-265zM571 1675l41 236h211l-41 -236h-211zM899 1675l41 236h211l-41 -236h-211z" />
<glyph unicode="&#x4e5;" horiz-adv-x="1030" d="M47 0l193 1090h233l-125 -703l432 703h269l-193 -1090h-233l122 700l-430 -700h-268zM410 1294l41 236h211l-41 -236h-211zM737 1294l41 236h211l-41 -236h-211z" />
<glyph unicode="&#x4e6;" horiz-adv-x="1306" d="M119 502q0 195 62 402t159 333q98 129 234 200.5t284 71.5q197 0 330 -133q63 -63 98 -170t35 -235q0 -202 -60.5 -405.5t-158.5 -332.5t-234 -200.5t-284 -71.5q-215 0 -340 145.5t-125 395.5zM377 555q0 -157 68 -245.5t188 -88.5q119 0 218.5 91.5t156.5 251t57 351.5 q0 155 -68 244.5t-186 89.5q-99 0 -187 -63t-145 -176q-47 -94 -74.5 -215.5t-27.5 -239.5zM614 1675l41 236h211l-41 -236h-211zM942 1675l41 236h211l-41 -236h-211z" />
<glyph unicode="&#x4e7;" horiz-adv-x="1026" d="M76 389q0 152 44.5 287.5t120 232t181.5 153t225 56.5q172 0 271.5 -112t99.5 -306q0 -137 -44.5 -278.5t-117.5 -237.5q-78 -102 -184.5 -157.5t-225.5 -55.5q-172 0 -271 112t-99 306zM319 428q0 -215 170 -215q141 0 216 149q30 59 48.5 143t18.5 159q0 213 -170 213 q-68 0 -123 -38.5t-90 -111.5q-31 -60 -50.5 -143.5t-19.5 -155.5zM410 1294l41 236h211l-41 -236h-211zM737 1294l41 236h211l-41 -236h-211z" />
<glyph unicode="&#x4e8;" horiz-adv-x="1306" d="M119 502q0 195 62 402t159 333q98 129 234 200.5t284 71.5q197 0 330 -133q63 -63 98 -170t35 -235q0 -202 -60.5 -405.5t-158.5 -332.5t-234 -200.5t-284 -71.5q-215 0 -340 145.5t-125 395.5zM377 555q0 -157 68 -245.5t188 -88.5q119 0 218.5 91.5t156.5 251t57 351.5 q0 155 -68 244.5t-186 89.5q-99 0 -187 -63t-145 -176q-47 -94 -74.5 -215.5t-27.5 -239.5z" />
<glyph unicode="&#x4e9;" horiz-adv-x="1026" d="M76 389q0 152 44.5 287.5t120 232t181.5 153t225 56.5q172 0 271.5 -112t99.5 -306q0 -137 -44.5 -278.5t-117.5 -237.5q-78 -102 -184.5 -157.5t-225.5 -55.5q-172 0 -271 112t-99 306zM319 428q0 -215 170 -215q141 0 216 149q30 59 48.5 143t18.5 159q0 213 -170 213 q-68 0 -123 -38.5t-90 -111.5q-31 -60 -50.5 -143.5t-19.5 -155.5z" />
<glyph unicode="&#x4ea;" horiz-adv-x="1306" d="M119 502q0 195 62 402t159 333q98 129 234 200.5t284 71.5q197 0 330 -133q63 -63 98 -170t35 -235q0 -202 -60.5 -405.5t-158.5 -332.5t-234 -200.5t-284 -71.5q-215 0 -340 145.5t-125 395.5zM377 555q0 -157 68 -245.5t188 -88.5q119 0 218.5 91.5t156.5 251t57 351.5 q0 155 -68 244.5t-186 89.5q-99 0 -187 -63t-145 -176q-47 -94 -74.5 -215.5t-27.5 -239.5zM614 1675l41 236h211l-41 -236h-211zM942 1675l41 236h211l-41 -236h-211z" />
<glyph unicode="&#x4eb;" horiz-adv-x="1026" d="M76 389q0 152 44.5 287.5t120 232t181.5 153t225 56.5q172 0 271.5 -112t99.5 -306q0 -137 -44.5 -278.5t-117.5 -237.5q-78 -102 -184.5 -157.5t-225.5 -55.5q-172 0 -271 112t-99 306zM319 428q0 -215 170 -215q141 0 216 149q30 59 48.5 143t18.5 159q0 213 -170 213 q-68 0 -123 -38.5t-90 -111.5q-31 -60 -50.5 -143.5t-19.5 -155.5zM410 1294l41 236h211l-41 -236h-211zM737 1294l41 236h211l-41 -236h-211z" />
<glyph unicode="&#x4ec;" horiz-adv-x="1241" d="M119 504h252q5 -108 28 -162q56 -115 189 -115q127 0 223.5 109t146.5 305h-432l45 260h424q3 164 -58 253t-177 89q-129 0 -217 -98q-47 -61 -86 -156h-252q25 87 50.5 142.5t70.5 117.5q92 125 218.5 192.5t268.5 67.5q258 0 371.5 -209.5t50.5 -568.5 q-63 -357 -248 -563.5t-442 -206.5q-245 0 -352 191q-40 71 -56.5 147t-17.5 205zM592 1675l41 236h211l-41 -236h-211zM920 1675l41 236h210l-41 -236h-210z" />
<glyph unicode="&#x4ed;" horiz-adv-x="946" d="M76 397h237q-8 -86 28 -138t103 -52q152 0 220 246h-226l41 233h215q0 191 -145 191q-63 0 -106.5 -42t-77.5 -135h-238q24 84 45 132t55 94q66 92 164 142t209 50q200 0 285.5 -156t36.5 -432q-47 -269 -179.5 -414t-330.5 -145q-173 0 -259 109.5t-77 316.5zM375 1294 l41 236h211l-41 -236h-211zM702 1294l41 236h211l-41 -236h-211z" />
<glyph unicode="&#x4ee;" horiz-adv-x="1120" d="M115 0l362 578l-256 892h297l156 -593l334 593h284l-893 -1470h-284zM504 1675l26 152h580l-27 -152h-579z" />
<glyph unicode="&#x4ef;" d="M8 -434l41 229q28 -4 49 -4q74 0 109 32.5t69 131.5l-131 1135h263l51 -811l325 811h250l-495 -1072q-54 -117 -85.5 -181.5t-67 -123t-57.5 -82.5t-57.5 -43t-67 -22.5t-85.5 -3.5zM336 1294l26 152h580l-27 -152h-579z" />
<glyph unicode="&#x4f0;" horiz-adv-x="1120" d="M115 0l362 578l-256 892h297l156 -593l334 593h284l-893 -1470h-284zM524 1675l41 236h211l-41 -236h-211zM852 1675l41 236h211l-41 -236h-211z" />
<glyph unicode="&#x4f1;" d="M8 -434l41 229q28 -4 49 -4q74 0 109 32.5t69 131.5l-131 1135h263l51 -811l325 811h250l-495 -1072q-54 -117 -85.5 -181.5t-67 -123t-57.5 -82.5t-57.5 -43t-67 -22.5t-85.5 -3.5zM356 1294l41 236h211l-41 -236h-211zM684 1294l41 236h211l-41 -236h-211z" />
<glyph unicode="&#x4f2;" horiz-adv-x="1120" d="M115 0l362 578l-256 892h297l156 -593l334 593h284l-893 -1470h-284zM393 1675l209 299h258l-297 -299h-170zM778 1675l209 299h258l-299 -299h-168z" />
<glyph unicode="&#x4f3;" d="M8 -434l41 229q28 -4 49 -4q74 0 109 32.5t69 131.5l-131 1135h263l51 -811l325 811h250l-495 -1072q-54 -117 -85.5 -181.5t-67 -123t-57.5 -82.5t-57.5 -43t-67 -22.5t-85.5 -3.5zM225 1294l209 299h258l-297 -299h-170zM610 1294l209 299h258l-299 -299h-168z" />
<glyph unicode="&#x4f4;" horiz-adv-x="1007" d="M47 791q0 42 10 104l101 575h252l-101 -567q-2 -8 -2 -22q0 -55 54 -88t149 -33q174 0 227 153l99 557h251l-258 -1470h-251l104 592q-16 -18 -34 -31.5t-33.5 -22.5t-38 -15t-36 -9t-39.5 -4.5t-37 -2t-40 0t-37 0.5q-164 0 -252 71.5t-88 211.5zM381 1632l41 236h211 l-41 -236h-211zM709 1632l41 236h211l-41 -236h-211z" />
<glyph unicode="&#x4f5;" horiz-adv-x="856" d="M37 582q0 29 6 59l80 449h233l-80 -443q-6 -18 -6 -37q0 -75 136 -75q53 0 95.5 30.5t61.5 81.5l80 443h234l-193 -1090h-233l65 381q-11 -11 -23.5 -19t-29.5 -13t-29 -8t-34.5 -4t-33 -1.5t-38.5 0t-37 0.5q-29 0 -60.5 7t-66.5 25.5t-63 45.5t-46 70.5t-18 97.5z M258 1241l41 236h211l-41 -236h-211zM586 1241l41 236h211l-41 -236h-211z" />
<glyph unicode="&#x4f8;" horiz-adv-x="1488" d="M66 0l258 1470h251l-94 -532h289q175 0 257 -131.5t44 -349.5q-37 -207 -161 -332t-294 -125h-550zM360 252h201q119 0 178.5 48.5t81.5 162.5q20 114 -16.5 168.5t-132.5 54.5h-234zM713 1675l41 236h211l-41 -236h-211zM1040 1675l41 236h211l-41 -236h-211zM1059 0 l258 1470h252l-258 -1470h-252z" />
<glyph unicode="&#x4f9;" horiz-adv-x="1406" d="M47 0l193 1090h229l-74 -416h158q59 0 109 -6.5t84.5 -16t64 -25.5t46.5 -28.5t33 -32.5t21.5 -30.5t14 -28.5t10.5 -21q31 -67 16 -157q-22 -138 -143 -230q-73 -57 -158 -77.5t-243 -20.5h-361zM315 217h172q99 0 152.5 31t65.5 104q12 62 -29.5 88.5t-132.5 26.5h-185 zM598 1294l41 236h211l-41 -236h-211zM926 1294l41 236h211l-41 -236h-211zM999 0l193 1090h233l-192 -1090h-234z" />
<glyph unicode="&#xe3f;" horiz-adv-x="1212" d="M66 0l256 1470h354l29 170h169l-30 -170h65q149 0 230.5 -76.5t81.5 -217.5q0 -266 -207 -383q73 -43 104 -99.5t31 -148.5q0 -106 -38 -208.5t-107 -178.5q-80 -89 -168 -123t-248 -35l-29 -170h-170l31 170h-354zM352 254h111l69 393h-112zM463 895h112l56 322h-111z M633 254h29q107 0 170 74t63 182q0 64 -41 100.5t-113 36.5h-41zM743 895h17q95 0 153 56.5t58 150.5q0 59 -39.5 87t-122.5 28h-8z" />
<glyph unicode="&#x1e0c;" horiz-adv-x="1212" d="M66 0l256 1470h534q188 0 287.5 -122t99.5 -353q0 -189 -49 -369t-133.5 -318.5t-208.5 -223t-264 -84.5h-522zM356 254h246q109 0 197.5 102t135 259.5t46.5 330.5q0 138 -52 204.5t-161 66.5h-244zM367 -410l41 236h233l-41 -236h-233z" />
<glyph unicode="&#x1e0d;" horiz-adv-x="1026" d="M76 369q0 205 65 377.5t177 272t245 99.5q86 0 139.5 -41t90.5 -135l92 528h235l-256 -1470h-231l26 143q-61 -89 -132 -130.5t-162 -41.5q-137 0 -213 104.5t-76 293.5zM264 -410l41 236h234l-41 -236h-234zM322 428q0 -107 37.5 -164t109.5 -57q117 0 195.5 129 t78.5 321q0 213 -153 213q-79 0 -141.5 -65.5t-94.5 -166t-32 -210.5z" />
<glyph unicode="&#x1e0e;" horiz-adv-x="1212" d="M66 0l256 1470h534q188 0 287.5 -122t99.5 -353q0 -189 -49 -369t-133.5 -318.5t-208.5 -223t-264 -84.5h-522zM201 -369l26 152h580l-27 -152h-579zM356 254h246q109 0 197.5 102t135 259.5t46.5 330.5q0 138 -52 204.5t-161 66.5h-244z" />
<glyph unicode="&#x1e0f;" horiz-adv-x="1026" d="M76 369q0 205 65 377.5t177 272t245 99.5q86 0 139.5 -41t90.5 -135l92 528h235l-256 -1470h-231l26 143q-61 -89 -132 -130.5t-162 -41.5q-137 0 -213 104.5t-76 293.5zM96 -369l27 152h579l-26 -152h-580zM322 428q0 -107 37.5 -164t109.5 -57q117 0 195.5 129 t78.5 321q0 213 -153 213q-79 0 -141.5 -65.5t-94.5 -166t-32 -210.5z" />
<glyph unicode="&#x1e24;" horiz-adv-x="1212" d="M57 0l256 1470h252l-96 -557h471l96 557h252l-256 -1470h-252l115 659h-471l-115 -659h-252zM356 -410l41 236h234l-41 -236h-234z" />
<glyph unicode="&#x1e25;" horiz-adv-x="1026" d="M47 0l256 1470h236l-93 -530q103 178 297 178q117 0 184.5 -73t67.5 -199q0 -48 -8 -92l-131 -754h-235l114 662q10 62 10 92q0 59 -32 91t-90 32q-87 0 -149.5 -67.5t-82.5 -184.5l-108 -625h-236zM262 -410l41 236h234l-41 -236h-234z" />
<glyph unicode="&#x1e26;" horiz-adv-x="1212" d="M57 0l256 1470h252l-96 -557h471l96 557h252l-256 -1470h-252l115 659h-471l-115 -659h-252zM561 1626l41 236h197l-41 -236h-197zM899 1626l41 236h197l-41 -236h-197z" />
<glyph unicode="&#x1e27;" horiz-adv-x="1026" d="M47 0l256 1470h236l-93 -530q103 178 297 178q117 0 184.5 -73t67.5 -199q0 -48 -8 -92l-131 -754h-235l114 662q10 62 10 92q0 59 -32 91t-90 32q-87 0 -149.5 -67.5t-82.5 -184.5l-108 -625h-236zM467 1626l41 236h197l-41 -236h-197zM805 1626l41 236h196l-41 -236 h-196z" />
<glyph unicode="&#x1e2a;" horiz-adv-x="1212" d="M57 0l256 1470h252l-96 -557h471l96 557h252l-256 -1470h-252l115 659h-471l-115 -659h-252zM211 -164h111q24 -52 61 -76t115 -24q79 0 121.5 24t70.5 76h129q-53 -123 -143 -190.5t-215 -67.5q-234 0 -250 258z" />
<glyph unicode="&#x1e2b;" horiz-adv-x="1026" d="M47 0l256 1470h236l-93 -530q103 178 297 178q117 0 184.5 -73t67.5 -199q0 -48 -8 -92l-131 -754h-235l114 662q10 62 10 92q0 59 -32 91t-90 32q-87 0 -149.5 -67.5t-82.5 -184.5l-108 -625h-236zM117 -164h110q24 -52 61 -76t115 -24q79 0 122 24t71 76h129 q-53 -123 -143 -190.5t-215 -67.5q-234 0 -250 258z" />
<glyph unicode="&#x1e36;" horiz-adv-x="1026" d="M66 0l256 1470h251l-208 -1204h600l-47 -266h-852zM303 -410l41 236h234l-41 -236h-234z" />
<glyph unicode="&#x1e37;" horiz-adv-x="466" d="M-16 -410l41 236h233l-41 -236h-233zM55 0l256 1470h236l-256 -1470h-236z" />
<glyph unicode="&#x1e38;" horiz-adv-x="1026" d="M66 0l256 1470h251l-208 -1204h600l-47 -266h-852zM190 1667l27 152h580l-27 -152h-580zM303 -410l41 236h234l-41 -236h-234z" />
<glyph unicode="&#x1e39;" horiz-adv-x="466" d="M-16 -410l41 236h233l-41 -236h-233zM55 0l256 1470h236l-256 -1470h-236zM172 1667l27 152h579l-26 -152h-580z" />
<glyph unicode="&#x1e42;" horiz-adv-x="1398" d="M55 0l256 1470h383v-1167l420 1167h365l-256 -1470h-236l217 1247l-444 -1247h-252v1247l-217 -1247h-236zM451 -410l41 236h233l-41 -236h-233z" />
<glyph unicode="&#x1e43;" horiz-adv-x="1492" d="M45 0l191 1090h225l-29 -166q66 105 134 149.5t161 44.5q86 0 131.5 -37t83.5 -137q71 95 133 134.5t144 39.5q113 0 180 -74t67 -198q0 -48 -8 -92l-131 -754h-235l114 662q8 58 8 83q0 132 -102 132q-75 0 -125 -58t-69 -166l-115 -653h-236l115 655q12 65 12 109 q0 113 -114 113q-147 0 -185 -213l-114 -664h-236zM498 -410l41 236h233l-41 -236h-233z" />
<glyph unicode="&#x1e44;" horiz-adv-x="1212" d="M55 0l256 1470h264l304 -1032l178 1032h235l-256 -1470h-252l-311 1055l-182 -1055h-236zM713 1626l41 236h233l-41 -236h-233z" />
<glyph unicode="&#x1e45;" horiz-adv-x="1026" d="M47 0l191 1090h225l-29 -166q71 104 141 149t164 45q120 0 188 -72t68 -200q0 -48 -8 -92l-131 -754h-235l114 662q10 62 10 92q0 59 -32 91t-90 32q-87 0 -149.5 -67.5t-82.5 -184.5l-108 -625h-236zM557 1266l41 235h233l-40 -235h-234z" />
<glyph unicode="&#x1e46;" horiz-adv-x="1212" d="M55 0l256 1470h264l304 -1032l178 1032h235l-256 -1470h-252l-311 1055l-182 -1055h-236zM356 -410l41 236h234l-41 -236h-234z" />
<glyph unicode="&#x1e47;" horiz-adv-x="1026" d="M47 0l191 1090h225l-29 -166q71 104 141 149t164 45q120 0 188 -72t68 -200q0 -48 -8 -92l-131 -754h-235l114 662q10 62 10 92q0 59 -32 91t-90 32q-87 0 -149.5 -67.5t-82.5 -184.5l-108 -625h-236zM264 -410l41 236h234l-41 -236h-234z" />
<glyph unicode="&#x1e58;" horiz-adv-x="1212" d="M66 0l256 1470h610q149 0 231 -85t82 -240q0 -143 -67.5 -264.5t-186.5 -175.5q60 -37 83.5 -77.5t23.5 -107.5q0 -53 -6 -101t-33 -198q-12 -71 -12 -117q0 -25 7 -39t27 -26l-6 -39h-280l-2 55q-1 37 23.5 205.5t23.5 190.5q0 69 -37.5 96.5t-130.5 27.5h-260 l-101 -575h-245zM457 823h295q119 0 176 69t57 183q0 69 -37.5 105.5t-109.5 36.5h-314zM674 1626l41 236h233l-41 -236h-233z" />
<glyph unicode="&#x1e59;" horiz-adv-x="653" d="M45 0l191 1090h225l-35 -195q82 129 142.5 176t146.5 47q3 0 8.5 -0.5t16 -1.5t20.5 -2l-51 -291q-23 4 -60 4q-114 0 -180.5 -64t-89.5 -196l-98 -567h-236zM385 1266l41 235h233l-41 -235h-233z" />
<glyph unicode="&#x1e5a;" horiz-adv-x="1212" d="M66 0l256 1470h610q149 0 231 -85t82 -240q0 -143 -67.5 -264.5t-186.5 -175.5q60 -37 83.5 -77.5t23.5 -107.5q0 -53 -6 -101t-33 -198q-12 -71 -12 -117q0 -25 7 -39t27 -26l-6 -39h-280l-2 55q-1 37 23.5 205.5t23.5 190.5q0 69 -37.5 96.5t-130.5 27.5h-260 l-101 -575h-245zM317 -410l41 236h234l-41 -236h-234zM457 823h295q119 0 176 69t57 183q0 69 -37.5 105.5t-109.5 36.5h-314z" />
<glyph unicode="&#x1e5b;" horiz-adv-x="653" d="M-25 -410l41 236h234l-41 -236h-234zM45 0l191 1090h225l-35 -195q82 129 142.5 176t146.5 47q3 0 8.5 -0.5t16 -1.5t20.5 -2l-51 -291q-23 4 -60 4q-114 0 -180.5 -64t-89.5 -196l-98 -567h-236z" />
<glyph unicode="&#x1e5c;" horiz-adv-x="1212" d="M66 0l256 1470h610q149 0 231 -85t82 -240q0 -143 -67.5 -264.5t-186.5 -175.5q60 -37 83.5 -77.5t23.5 -107.5q0 -53 -6 -101t-33 -198q-12 -71 -12 -117q0 -25 7 -39t27 -26l-6 -39h-280l-2 55q-1 37 23.5 205.5t23.5 190.5q0 69 -37.5 96.5t-130.5 27.5h-260 l-101 -575h-245zM317 -410l41 236h234l-41 -236h-234zM457 823h295q119 0 176 69t57 183q0 69 -37.5 105.5t-109.5 36.5h-314zM506 1667l26 152h580l-27 -152h-579z" />
<glyph unicode="&#x1e5d;" horiz-adv-x="653" d="M-25 -410l41 236h234l-41 -236h-234zM45 0l191 1090h225l-35 -195q82 129 142.5 176t146.5 47q3 0 8.5 -0.5t16 -1.5t20.5 -2l-51 -291q-23 4 -60 4q-114 0 -180.5 -64t-89.5 -196l-98 -567h-236zM221 1335l27 152h579l-26 -152h-580z" />
<glyph unicode="&#x1e62;" horiz-adv-x="1120" d="M74 332q0 39 10 121h242q-4 -46 -4 -56q0 -88 58 -135t165 -47q127 0 203.5 60.5t76.5 160.5q0 54 -40.5 87t-147.5 65l-123 37q-101 30 -163.5 60t-96.5 70t-45.5 83t-11.5 110q0 156 67 283.5t192.5 202.5t284.5 75q193 0 297.5 -102t104.5 -268q0 -48 -8 -105h-240v43 q0 86 -53 132t-152 46q-110 0 -179 -59t-69 -154q0 -46 23.5 -71.5t81.5 -44.5l278 -88q135 -43 194.5 -113.5t59.5 -187.5q0 -247 -163 -411.5t-418 -164.5q-199 0 -311.5 100.5t-112.5 270.5zM303 -410l41 236h234l-41 -236h-234z" />
<glyph unicode="&#x1e63;" d="M45 264q0 22 4 84h242q-2 -16 -2 -41q0 -57 43 -88t121 -31t128 35.5t50 91.5q0 72 -176 107q-310 58 -310 264q0 192 127.5 312t315.5 120q332 0 332 -291q0 -40 -2 -69h-232v37q0 106 -137 106q-72 0 -116 -32.5t-44 -86.5q0 -69 174 -104q161 -32 238.5 -97.5 t77.5 -170.5q0 -188 -130.5 -313.5t-338.5 -125.5q-170 0 -267.5 78t-97.5 215zM217 -410l41 236h234l-41 -236h-234z" />
<glyph unicode="&#x1e6c;" horiz-adv-x="1026" d="M172 1210l45 260h981l-45 -260h-365l-210 -1210h-252l211 1210h-365zM264 -410l41 236h234l-41 -236h-234z" />
<glyph unicode="&#x1e6d;" horiz-adv-x="559" d="M106 139q0 41 9 84l114 662h-120l34 205h123l51 294h236l-51 -294h145l-35 -205h-147l-103 -592q-6 -27 -6 -47q0 -22 20 -31.5t66 -9.5q2 0 52 4l-39 -217l-142 -4q-107 0 -157 36.5t-50 114.5zM127 -410l41 236h233l-41 -236h-233z" />
<glyph unicode="&#x1e6e;" horiz-adv-x="1026" d="M98 -369l27 152h580l-27 -152h-580zM172 1210l45 260h981l-45 -260h-365l-210 -1210h-252l211 1210h-365z" />
<glyph unicode="&#x1e6f;" horiz-adv-x="559" d="M-39 -369l27 152h579l-26 -152h-580zM106 139q0 41 9 84l114 662h-120l34 205h123l51 294h236l-51 -294h145l-35 -205h-147l-103 -592q-6 -27 -6 -47q0 -22 20 -31.5t66 -9.5q2 0 52 4l-39 -217l-142 -4q-107 0 -157 36.5t-50 114.5z" />
<glyph unicode="&#x1e80;" horiz-adv-x="1585" d="M221 0v1470h273v-800v-287l358 1087h260v-1087l387 1087h256l-596 -1470h-227v1157l-391 -1157h-320zM721 1872h258l113 -258h-170z" />
<glyph unicode="&#x1e81;" horiz-adv-x="1306" d="M145 0v1090h254v-793l265 793h237v-793l277 793h241l-446 -1090h-242v805l-282 -805h-304zM528 1532h258l107 -299h-170z" />
<glyph unicode="&#x1e82;" horiz-adv-x="1585" d="M221 0v1470h273v-800v-287l358 1087h260v-1087l387 1087h256l-596 -1470h-227v1157l-391 -1157h-320zM920 1614l204 258h258l-292 -258h-170z" />
<glyph unicode="&#x1e83;" horiz-adv-x="1306" d="M145 0v1090h254v-793l265 793h237v-793l277 793h241l-446 -1090h-242v805l-282 -805h-304zM721 1233l211 299h258l-299 -299h-170z" />
<glyph unicode="&#x1e84;" horiz-adv-x="1585" d="M221 0v1470h273v-800v-287l358 1087h260v-1087l387 1087h256l-596 -1470h-227v1157l-391 -1157h-320zM741 1626l41 236h197l-41 -236h-197zM1079 1626l41 236h197l-41 -236h-197z" />
<glyph unicode="&#x1e85;" horiz-adv-x="1306" d="M145 0v1090h254v-793l265 793h237v-793l277 793h241l-446 -1090h-242v805l-282 -805h-304zM545 1266l41 235h196l-41 -235h-196zM883 1266l41 235h196l-41 -235h-196z" />
<glyph unicode="&#x1e92;" horiz-adv-x="1026" d="M-20 0l45 260l790 950h-608l45 260h924l-43 -241l-801 -969h637l-47 -260h-942zM268 -410l41 236h234l-41 -236h-234z" />
<glyph unicode="&#x1e93;" horiz-adv-x="839" d="M-29 0l39 223l570 637h-426l39 230h725l-41 -236l-560 -618h469l-43 -236h-772zM170 -410l41 236h233l-41 -236h-233z" />
<glyph unicode="&#x1e97;" horiz-adv-x="559" d="M106 139q0 41 9 84l114 662h-120l34 205h123l51 294h236l-51 -294h145l-35 -205h-147l-103 -592q-6 -27 -6 -47q0 -22 20 -31.5t66 -9.5q2 0 52 4l-39 -217l-142 -4q-107 0 -157 36.5t-50 114.5zM195 1540l41 236h196l-41 -236h-196zM532 1540l41 236h197l-41 -236h-197z " />
<glyph unicode="&#x1ea0;" horiz-adv-x="1212" d="M-29 0l688 1470h291l168 -1470h-274l-25 303h-444l-137 -303h-267zM356 -410l41 236h234l-41 -236h-234zM485 557h308l-48 588z" />
<glyph unicode="&#x1ea1;" d="M31 207q0 167 89.5 285.5t237.5 144.5l220 39q100 18 100 117q0 96 -127 96q-74 0 -114.5 -34.5t-65.5 -117.5h-226q60 208 164 294.5t291 86.5q152 0 235 -64.5t83 -183.5q0 -27 -7 -67l-102 -590q-10 -65 -10 -100q0 -53 32 -70l-8 -43h-254q-2 33 -2 59q0 31 4 70 q-85 -87 -155 -122.5t-156 -35.5q-107 0 -168 63t-61 173zM217 -410l41 236h234l-41 -236h-234zM272 272q0 -44 25 -70t68 -26q86 0 158 63t87 152l25 139q-27 -21 -62 -33t-108 -26q-101 -22 -147 -69t-46 -130z" />
<glyph unicode="&#x1ea2;" horiz-adv-x="1212" d="M-29 0l688 1470h291l168 -1470h-274l-25 303h-444l-137 -303h-267zM485 557h308l-48 588zM629 1759q35 189 270 189q104 0 158.5 -38.5t42.5 -103.5q-6 -39 -32.5 -66t-90.5 -61q-52 -29 -66.5 -40t-17.5 -25l-8 -49h-127l10 55q6 37 33 61t96 58v-2q73 43 76 69 q5 22 -21.5 37t-72.5 15q-70 0 -99 -29l2 2q-15 -13 -28 -72h-125z" />
<glyph unicode="&#x1ea3;" d="M31 207q0 167 89.5 285.5t237.5 144.5l220 39q100 18 100 117q0 96 -127 96q-74 0 -114.5 -34.5t-65.5 -117.5h-226q60 208 164 294.5t291 86.5q152 0 235 -64.5t83 -183.5q0 -27 -7 -67l-102 -590q-10 -65 -10 -100q0 -53 32 -70l-8 -43h-254q-2 33 -2 59q0 31 4 70 q-85 -87 -155 -122.5t-156 -35.5q-107 0 -168 63t-61 173zM272 272q0 -44 25 -70t68 -26q86 0 158 63t87 152l25 139q-27 -21 -62 -33t-108 -26q-101 -22 -147 -69t-46 -130zM420 1378q35 189 270 189q104 0 158.5 -38.5t42.5 -103.5q-6 -39 -32.5 -66t-90.5 -61 q-52 -29 -66.5 -40t-17.5 -25l-8 -49h-127l10 55q6 37 33 61t96 58v-2q73 43 76 69q5 22 -21.5 37t-72.5 15q-70 0 -99 -29l2 2q-15 -13 -28 -72h-125z" />
<glyph unicode="&#x1ea4;" horiz-adv-x="1212" d="M-29 0l688 1470h291l168 -1470h-274l-25 303h-444l-137 -303h-267zM485 557h308l-48 588zM514 1614l256 258h211l166 -258h-191l-104 127l-147 -127h-191zM797 1913l204 258h259l-293 -258h-170z" />
<glyph unicode="&#x1ea5;" d="M31 207q0 167 89.5 285.5t237.5 144.5l220 39q100 18 100 117q0 96 -127 96q-74 0 -114.5 -34.5t-65.5 -117.5h-226q60 208 164 294.5t291 86.5q152 0 235 -64.5t83 -183.5q0 -27 -7 -67l-102 -590q-10 -65 -10 -100q0 -53 32 -70l-8 -43h-254q-2 33 -2 59q0 31 4 70 q-85 -87 -155 -122.5t-156 -35.5q-107 0 -168 63t-61 173zM272 272q0 -44 25 -70t68 -26q86 0 158 63t87 152l25 139q-27 -21 -62 -33t-108 -26q-101 -22 -147 -69t-46 -130zM303 1233l256 258h211l166 -258h-191l-104 127l-147 -127h-191zM586 1532l205 258h258l-293 -258 h-170z" />
<glyph unicode="&#x1ea6;" horiz-adv-x="1212" d="M-29 0l688 1470h291l168 -1470h-274l-25 303h-444l-137 -303h-267zM485 557h308l-48 588zM514 1614l256 258h211l166 -258h-191l-104 127l-147 -127h-191zM596 2171h258l115 -258h-170z" />
<glyph unicode="&#x1ea7;" d="M31 207q0 167 89.5 285.5t237.5 144.5l220 39q100 18 100 117q0 96 -127 96q-74 0 -114.5 -34.5t-65.5 -117.5h-226q60 208 164 294.5t291 86.5q152 0 235 -64.5t83 -183.5q0 -27 -7 -67l-102 -590q-10 -65 -10 -100q0 -53 32 -70l-8 -43h-254q-2 33 -2 59q0 31 4 70 q-85 -87 -155 -122.5t-156 -35.5q-107 0 -168 63t-61 173zM272 272q0 -44 25 -70t68 -26q86 0 158 63t87 152l25 139q-27 -21 -62 -33t-108 -26q-101 -22 -147 -69t-46 -130zM303 1233l256 258h211l166 -258h-191l-104 127l-147 -127h-191zM385 1790h258l115 -258h-170z" />
<glyph unicode="&#x1ea8;" horiz-adv-x="1212" d="M-29 0l688 1470h291l168 -1470h-274l-25 303h-444l-137 -303h-267zM485 557h308l-48 588zM514 1614l256 258h211l166 -258h-191l-104 127l-147 -127h-191zM766 2089q15 82 83 125t185 43q104 0 159 -35t44 -92q-6 -35 -32 -59.5t-91 -55.5q-50 -24 -64.5 -34.5 t-17.5 -22.5l-6 -45h-127l8 49q6 34 33 56t94 53v-3q73 37 76 62q3 21 -23 34t-73 13q-69 0 -96 -27v2q-19 -19 -27 -63h-125z" />
<glyph unicode="&#x1ea9;" d="M31 207q0 167 89.5 285.5t237.5 144.5l220 39q100 18 100 117q0 96 -127 96q-74 0 -114.5 -34.5t-65.5 -117.5h-226q60 208 164 294.5t291 86.5q152 0 235 -64.5t83 -183.5q0 -27 -7 -67l-102 -590q-10 -65 -10 -100q0 -53 32 -70l-8 -43h-254q-2 33 -2 59q0 31 4 70 q-85 -87 -155 -122.5t-156 -35.5q-107 0 -168 63t-61 173zM272 272q0 -44 25 -70t68 -26q86 0 158 63t87 152l25 139q-27 -21 -62 -33t-108 -26q-101 -22 -147 -69t-46 -130zM303 1233l256 258h211l166 -258h-191l-104 127l-147 -127h-191zM555 1708q15 82 83 125t185 43 q104 0 159 -35t44 -92q-6 -35 -32 -59.5t-91 -55.5q-50 -24 -64.5 -34.5t-17.5 -22.5l-6 -45h-127l8 49q6 34 33 56t94 53v-2q73 37 76 61q3 21 -23 34t-73 13q-69 0 -96 -27v3q-19 -19 -27 -64h-125z" />
<glyph unicode="&#x1eaa;" horiz-adv-x="1212" d="M-29 0l688 1470h291l168 -1470h-274l-25 303h-444l-137 -303h-267zM485 557h308l-48 588zM514 1614l256 258h211l166 -258h-191l-104 127l-147 -127h-191zM578 1933q46 131 104.5 191.5t140.5 60.5q14 0 107.5 -37t105.5 -37q61 0 94 82h109q-82 -245 -225 -245 q-19 0 -117 36.5t-119 36.5q-58 0 -94 -88h-106z" />
<glyph unicode="&#x1eab;" d="M31 207q0 167 89.5 285.5t237.5 144.5l220 39q100 18 100 117q0 96 -127 96q-74 0 -114.5 -34.5t-65.5 -117.5h-226q60 208 164 294.5t291 86.5q152 0 235 -64.5t83 -183.5q0 -27 -7 -67l-102 -590q-10 -65 -10 -100q0 -53 32 -70l-8 -43h-254q-2 33 -2 59q0 31 4 70 q-85 -87 -155 -122.5t-156 -35.5q-107 0 -168 63t-61 173zM272 272q0 -44 25 -70t68 -26q86 0 158 63t87 152l25 139q-27 -21 -62 -33t-108 -26q-101 -22 -147 -69t-46 -130zM303 1233l256 258h211l166 -258h-191l-104 127l-147 -127h-191zM367 1552q46 131 104.5 191.5 t140.5 60.5q14 0 107.5 -36.5t105.5 -36.5q62 0 95 81h108q-82 -245 -225 -245q-19 0 -117 36.5t-119 36.5q-58 0 -94 -88h-106z" />
<glyph unicode="&#x1eac;" horiz-adv-x="1212" d="M-29 0l688 1470h291l168 -1470h-274l-25 303h-444l-137 -303h-267zM356 -410l41 236h234l-41 -236h-234zM485 557h308l-48 588zM512 1614l256 258h211l166 -258h-191l-104 127l-148 -127h-190z" />
<glyph unicode="&#x1ead;" d="M31 207q0 167 89.5 285.5t237.5 144.5l220 39q100 18 100 117q0 96 -127 96q-74 0 -114.5 -34.5t-65.5 -117.5h-226q60 208 164 294.5t291 86.5q152 0 235 -64.5t83 -183.5q0 -27 -7 -67l-102 -590q-10 -65 -10 -100q0 -53 32 -70l-8 -43h-254q-2 33 -2 59q0 31 4 70 q-85 -87 -155 -122.5t-156 -35.5q-107 0 -168 63t-61 173zM217 -410l41 236h234l-41 -236h-234zM272 272q0 -44 25 -70t68 -26q86 0 158 63t87 152l25 139q-27 -21 -62 -33t-108 -26q-101 -22 -147 -69t-46 -130zM324 1233l243 299h211l140 -299h-191l-78 168l-135 -168 h-190z" />
<glyph unicode="&#x1eae;" horiz-adv-x="1212" d="M-29 0l688 1470h291l168 -1470h-274l-25 303h-444l-137 -303h-267zM485 557h308l-48 588zM571 1872h111q24 -52 62 -76t116 -24t120.5 24t70.5 76h129q-53 -123 -143.5 -190.5t-215.5 -67.5q-234 0 -250 258zM801 1931l203 258h258l-291 -258h-170z" />
<glyph unicode="&#x1eaf;" d="M31 207q0 167 89.5 285.5t237.5 144.5l220 39q100 18 100 117q0 96 -127 96q-74 0 -114.5 -34.5t-65.5 -117.5h-226q60 208 164 294.5t291 86.5q152 0 235 -64.5t83 -183.5q0 -27 -7 -67l-102 -590q-10 -65 -10 -100q0 -53 32 -70l-8 -43h-254q-2 33 -2 59q0 31 4 70 q-85 -87 -155 -122.5t-156 -35.5q-107 0 -168 63t-61 173zM272 272q0 -44 25 -70t68 -26q86 0 158 63t87 152l25 139q-27 -21 -62 -33t-108 -26q-101 -22 -147 -69t-46 -130zM360 1491h111q24 -52 62 -76t116 -24t120.5 24t70.5 76h129q-53 -123 -143.5 -190.5t-215.5 -67.5 q-234 0 -250 258zM590 1550l203 258h258l-291 -258h-170z" />
<glyph unicode="&#x1eb0;" horiz-adv-x="1212" d="M-29 0l688 1470h291l168 -1470h-274l-25 303h-444l-137 -303h-267zM485 557h308l-48 588zM571 1872h111q24 -52 62 -76t116 -24t120.5 24t70.5 76h129q-53 -123 -143.5 -190.5t-215.5 -67.5q-234 0 -250 258zM600 2189h258l113 -258h-170z" />
<glyph unicode="&#x1eb1;" d="M31 207q0 167 89.5 285.5t237.5 144.5l220 39q100 18 100 117q0 96 -127 96q-74 0 -114.5 -34.5t-65.5 -117.5h-226q60 208 164 294.5t291 86.5q152 0 235 -64.5t83 -183.5q0 -27 -7 -67l-102 -590q-10 -65 -10 -100q0 -53 32 -70l-8 -43h-254q-2 33 -2 59q0 31 4 70 q-85 -87 -155 -122.5t-156 -35.5q-107 0 -168 63t-61 173zM272 272q0 -44 25 -70t68 -26q86 0 158 63t87 152l25 139q-27 -21 -62 -33t-108 -26q-101 -22 -147 -69t-46 -130zM360 1491h111q24 -52 62 -76t116 -24t120.5 24t70.5 76h129q-53 -123 -143.5 -190.5t-215.5 -67.5 q-234 0 -250 258zM389 1808h258l113 -258h-170z" />
<glyph unicode="&#x1eb2;" horiz-adv-x="1212" d="M-29 0l688 1470h291l168 -1470h-274l-25 303h-444l-137 -303h-267zM485 557h308l-48 588zM571 1872h111q24 -52 62 -76t116 -24t120.5 24t70.5 76h129q-53 -123 -143.5 -190.5t-215.5 -67.5q-234 0 -250 258zM672 2028q28 167 266 167q104 0 159 -35t44 -92 q-6 -35 -32 -59t-91 -55q-49 -25 -63.5 -35.5t-16.5 -22.5l-8 -45h-127l8 50q6 34 32.5 55.5t94.5 52.5v-2q73 37 76 61q5 20 -22 34t-74 14q-70 0 -97 -27v2q-15 -15 -24 -63h-125z" />
<glyph unicode="&#x1eb3;" d="M31 207q0 167 89.5 285.5t237.5 144.5l220 39q100 18 100 117q0 96 -127 96q-74 0 -114.5 -34.5t-65.5 -117.5h-226q60 208 164 294.5t291 86.5q152 0 235 -64.5t83 -183.5q0 -27 -7 -67l-102 -590q-10 -65 -10 -100q0 -53 32 -70l-8 -43h-254q-2 33 -2 59q0 31 4 70 q-85 -87 -155 -122.5t-156 -35.5q-107 0 -168 63t-61 173zM272 272q0 -44 25 -70t68 -26q86 0 158 63t87 152l25 139q-27 -21 -62 -33t-108 -26q-101 -22 -147 -69t-46 -130zM360 1491h111q24 -52 62 -76t116 -24t120.5 24t70.5 76h129q-53 -123 -143.5 -190.5t-215.5 -67.5 q-234 0 -250 258zM461 1647q14 82 81.5 125t184.5 43q104 0 159 -35t44 -92q-6 -35 -32 -59.5t-91 -55.5q-50 -25 -64.5 -35t-15.5 -22l-8 -46h-127l8 50q6 34 32.5 55.5t94.5 52.5v-2q73 37 76 62q5 20 -22 33.5t-74 13.5q-70 0 -97 -27v2q-15 -15 -24 -63h-125z" />
<glyph unicode="&#x1eb4;" horiz-adv-x="1212" d="M-29 0l688 1470h291l168 -1470h-274l-25 303h-444l-137 -303h-267zM485 557h308l-48 588zM571 1872h111q24 -52 62 -76t116 -24t120.5 24t70.5 76h129q-53 -123 -143.5 -190.5t-215.5 -67.5q-234 0 -250 258zM580 1950q46 131 104.5 191.5t140.5 60.5q14 0 107.5 -37 t105.5 -37q62 0 95 82h108q-83 -246 -225 -246q-19 0 -117 37t-119 37q-58 0 -94 -88h-106z" />
<glyph unicode="&#x1eb5;" d="M31 207q0 167 89.5 285.5t237.5 144.5l220 39q100 18 100 117q0 96 -127 96q-74 0 -114.5 -34.5t-65.5 -117.5h-226q60 208 164 294.5t291 86.5q152 0 235 -64.5t83 -183.5q0 -27 -7 -67l-102 -590q-10 -65 -10 -100q0 -53 32 -70l-8 -43h-254q-2 33 -2 59q0 31 4 70 q-85 -87 -155 -122.5t-156 -35.5q-107 0 -168 63t-61 173zM272 272q0 -44 25 -70t68 -26q86 0 158 63t87 152l25 139q-27 -21 -62 -33t-108 -26q-101 -22 -147 -69t-46 -130zM360 1491h111q24 -52 62 -76t116 -24t120.5 24t70.5 76h129q-53 -123 -143.5 -190.5t-215.5 -67.5 q-234 0 -250 258zM369 1569q46 131 104.5 191.5t140.5 60.5q14 0 107.5 -37t105.5 -37q62 0 95 82h108q-82 -246 -225 -246q-19 0 -117 37t-119 37q-58 0 -94 -88h-106z" />
<glyph unicode="&#x1eb6;" horiz-adv-x="1212" d="M-29 0l688 1470h291l168 -1470h-274l-25 303h-444l-137 -303h-267zM356 -410l41 236h234l-41 -236h-234zM485 557h308l-48 588zM569 1872h111q24 -52 62 -76t116 -24t120.5 24t70.5 76h129q-53 -123 -143.5 -190.5t-215.5 -67.5q-234 0 -250 258z" />
<glyph unicode="&#x1eb7;" d="M31 207q0 167 89.5 285.5t237.5 144.5l220 39q100 18 100 117q0 96 -127 96q-74 0 -114.5 -34.5t-65.5 -117.5h-226q60 208 164 294.5t291 86.5q152 0 235 -64.5t83 -183.5q0 -27 -7 -67l-102 -590q-10 -65 -10 -100q0 -53 32 -70l-8 -43h-254q-2 33 -2 59q0 31 4 70 q-85 -87 -155 -122.5t-156 -35.5q-107 0 -168 63t-61 173zM217 -410l41 236h234l-41 -236h-234zM272 272q0 -44 25 -70t68 -26q86 0 158 63t87 152l25 139q-27 -21 -62 -33t-108 -26q-101 -22 -147 -69t-46 -130zM387 1475q0 32 2 57h111v-12q0 -69 34.5 -100t112.5 -31 q82 0 125 31t74 112h108q-83 -299 -344 -299q-107 0 -165 62.5t-58 179.5z" />
<glyph unicode="&#x1eb8;" horiz-adv-x="1120" d="M66 0l256 1470h886l-45 -260h-641l-53 -309h588l-45 -260h-588l-66 -381h668l-45 -260h-915zM311 -410l41 236h234l-41 -236h-234z" />
<glyph unicode="&#x1eb9;" d="M57 367q0 211 70 383t193.5 270t275.5 98q164 0 251 -102.5t87 -296.5q0 -72 -19 -201l-8 -51h-612q-6 -47 -6 -80q0 -89 43 -137.5t121 -48.5q120 0 176 118h241q-82 -182 -196 -265t-264 -83q-172 0 -262.5 101.5t-90.5 294.5zM217 -410l41 236h234l-41 -236h-234z M334 653h364l2 54q3 80 -39 128t-108 48q-78 0 -131 -55t-88 -175z" />
<glyph unicode="&#x1eba;" horiz-adv-x="1120" d="M66 0l256 1470h886l-45 -260h-641l-53 -309h588l-45 -260h-588l-66 -381h668l-45 -260h-915zM588 1759q35 189 270 189q104 0 158.5 -38.5t42.5 -103.5q-6 -39 -32.5 -66t-90.5 -61q-52 -29 -66.5 -40t-17.5 -25l-8 -49h-127l10 55q6 37 33 61t96 58v-2q73 43 76 69 q5 22 -21.5 37t-72.5 15q-70 0 -99 -29l2 2q-15 -13 -28 -72h-125z" />
<glyph unicode="&#x1ebb;" d="M57 367q0 211 70 383t193.5 270t275.5 98q164 0 251 -102.5t87 -296.5q0 -72 -19 -201l-8 -51h-612q-6 -47 -6 -80q0 -89 43 -137.5t121 -48.5q120 0 176 118h241q-82 -182 -196 -265t-264 -83q-172 0 -262.5 101.5t-90.5 294.5zM334 653h364l2 54q3 80 -39 128t-108 48 q-78 0 -131 -55t-88 -175zM420 1378q35 189 270 189q104 0 158.5 -38.5t42.5 -103.5q-6 -39 -32.5 -66t-90.5 -61q-52 -29 -66.5 -40t-17.5 -25l-8 -49h-127l10 55q6 37 33 61t96 58v-2q73 43 76 69q5 22 -21.5 37t-72.5 15q-70 0 -99 -29l2 2q-15 -13 -28 -72h-125z" />
<glyph unicode="&#x1ebc;" horiz-adv-x="1120" d="M66 0l256 1470h886l-45 -260h-641l-53 -309h588l-45 -260h-588l-66 -381h668l-45 -260h-915zM481 1614q46 131 105 191.5t141 60.5q14 0 107.5 -37t105.5 -37q61 0 94 82h109q-83 -246 -225 -246q-19 0 -117 37t-119 37q-58 0 -94 -88h-107z" />
<glyph unicode="&#x1ebd;" d="M57 367q0 211 70 383t193.5 270t275.5 98q164 0 251 -102.5t87 -296.5q0 -72 -19 -201l-8 -51h-612q-6 -47 -6 -80q0 -89 43 -137.5t121 -48.5q120 0 176 118h241q-82 -182 -196 -265t-264 -83q-172 0 -262.5 101.5t-90.5 294.5zM313 1253q46 131 105 191.5t141 60.5 q14 0 107.5 -36.5t105.5 -36.5q32 0 54.5 19t39.5 62h109q-82 -245 -225 -245q-19 0 -117 36.5t-119 36.5q-58 0 -94 -88h-107zM334 653h364l2 54q3 80 -39 128t-108 48q-78 0 -131 -55t-88 -175z" />
<glyph unicode="&#x1ebe;" horiz-adv-x="1120" d="M66 0l256 1470h886l-45 -260h-641l-53 -309h588l-45 -260h-588l-66 -381h668l-45 -260h-915zM473 1614l256 258h211l166 -258h-191l-104 127l-147 -127h-191zM756 1913l205 258h258l-293 -258h-170z" />
<glyph unicode="&#x1ebf;" d="M57 367q0 211 70 383t193.5 270t275.5 98q164 0 251 -102.5t87 -296.5q0 -72 -19 -201l-8 -51h-612q-6 -47 -6 -80q0 -89 43 -137.5t121 -48.5q120 0 176 118h241q-82 -182 -196 -265t-264 -83q-172 0 -262.5 101.5t-90.5 294.5zM305 1233l256 258h211l166 -258h-190 l-105 127l-147 -127h-191zM334 653h364l2 54q3 80 -39 128t-108 48q-78 0 -131 -55t-88 -175zM588 1532l205 258h258l-293 -258h-170z" />
<glyph unicode="&#x1ec0;" horiz-adv-x="1120" d="M66 0l256 1470h886l-45 -260h-641l-53 -309h588l-45 -260h-588l-66 -381h668l-45 -260h-915zM473 1614l256 258h211l166 -258h-191l-104 127l-147 -127h-191zM555 2171h258l115 -258h-170z" />
</font>
</defs>
</svg>
