<?xml version="1.0" standalone="no"?>
<!DOCTYPE svg PUBLIC "-//W3C//DTD SVG 1.1//EN" "http://www.w3.org/Graphics/SVG/1.1/DTD/svg11.dtd" >
<svg xmlns="http://www.w3.org/2000/svg">
<metadata></metadata>
<defs>
<font id="texgyreherosbold_italic" horiz-adv-x="1138" >
<font-face units-per-em="2048" ascent="1606" descent="-442" />
<missing-glyph horiz-adv-x="569" />
<glyph unicode="IJ" horiz-adv-x="1671" d="M41 0l317 1493h308l-318 -1493h-307zM596 295q0 70 14 133l27 125h307l-29 -135q-8 -36 -8 -70q0 -49 37.5 -79.5t97.5 -30.5q165 0 203 174l232 1081h307l-232 -1081q-48 -227 -191.5 -332t-379.5 -105q-180 0 -282.5 85.5t-102.5 234.5z" />
<glyph unicode="ij" horiz-adv-x="1107" d="M41 0l235 1106h287l-235 -1106h-287zM307 1249l55 269h287l-55 -269h-287zM385 -436l49 227q11 -8 51 -8q46 0 70.5 20.5t34.5 69.5l262 1233h287l-277 -1299q-29 -134 -119.5 -193.5t-265.5 -59.5q-56 0 -92 10zM883 1249l55 269h287l-56 -269h-286z" />
<glyph unicode="fk" horiz-adv-x="1837" d="M102 0l191 893h-158l41 190h156l28 134q31 143 115.5 209.5t235.5 66.5l157 -6l-45 -215q-73 8 -86 8q-76 0 -94 -88l-25 -109h170l-40 -190h-168l-191 -893h-287zM737 0l318 1493h286l-174 -817l457 430h326l-475 -422l264 -684h-336l-162 489l-139 -127l-78 -362h-287z " />
<glyph unicode="ff" horiz-adv-x="1302" d="M102 0l191 893h-158l41 190h156l28 134q31 143 115.5 209.5t235.5 66.5l157 -6l-45 -215q-73 8 -86 8q-76 0 -94 -88l-25 -109h349l28 134q31 143 115.5 209.5t235.5 66.5l157 -6l-45 -215q-73 8 -86 8q-76 0 -94 -88l-25 -109h170l-41 -190h-168l-190 -893h-287l191 893 h-348l-191 -893h-287z" />
<glyph unicode="fi" horiz-adv-x="1251" d="M102 0l191 893h-158l41 190h156l28 134q31 143 115.5 209.5t235.5 66.5l157 -6l-45 -215q-73 8 -86 8q-76 0 -94 -88l-25 -109h170l-40 -190h-168l-191 -893h-287zM737 0l236 1106h287l-236 -1106h-287zM1004 1249l55 269h287l-56 -269h-286z" />
<glyph unicode="fl" horiz-adv-x="1251" d="M102 0l191 893h-158l41 190h156l28 134q31 143 115.5 209.5t235.5 66.5l157 -6l-45 -215q-73 8 -86 8q-76 0 -94 -88l-25 -109h170l-40 -190h-168l-191 -893h-287zM737 0l318 1493h286l-317 -1493h-287z" />
<glyph unicode="ffi" horiz-adv-x="1886" d="M102 0l191 893h-158l41 190h156l28 134q31 143 115.5 209.5t235.5 66.5l157 -6l-45 -215q-73 8 -86 8q-76 0 -94 -88l-25 -109h349l28 134q31 143 115.5 209.5t235.5 66.5l157 -6l-45 -215q-73 8 -86 8q-76 0 -94 -88l-25 -109h170l-41 -190h-168l-190 -893h-287l191 893 h-348l-191 -893h-287zM1372 0l236 1106h286l-235 -1106h-287zM1638 1249l56 269h286l-55 -269h-287z" />
<glyph unicode="ffl" horiz-adv-x="1886" d="M102 0l191 893h-158l41 190h156l28 134q31 143 115.5 209.5t235.5 66.5l157 -6l-45 -215q-73 8 -86 8q-76 0 -94 -88l-25 -109h349l28 134q31 143 115.5 209.5t235.5 66.5l157 -6l-45 -215q-73 8 -86 8q-76 0 -94 -88l-25 -109h170l-41 -190h-168l-190 -893h-287l191 893 h-348l-191 -893h-287zM1372 0l318 1493h286l-317 -1493h-287z" />
<glyph unicode=" "  horiz-adv-x="569" />
<glyph unicode="&#x09;" horiz-adv-x="569" />
<glyph unicode="&#xa0;" horiz-adv-x="569" />
<glyph unicode="!" horiz-adv-x="681" d="M106 0l64 299h307l-63 -299h-308zM283 424l49 633l92 430h307l-92 -430l-219 -633h-137z" />
<glyph unicode="&#x22;" horiz-adv-x="970" d="M281 1227l57 266h283l-58 -266l-141 -264h-115zM764 1227l57 266h283l-57 -266l-142 -264h-114z" />
<glyph unicode="#" d="M-14 -66l170 418h-158l43 205h199l127 311h-203l45 205h242l145 354h217l-147 -354h211l145 354h217l-147 -354h178l-43 -205h-217l-127 -311h202l-43 -205h-243l-172 -418h-215l170 418h-209l-172 -418h-215zM455 557h211l127 311h-209z" />
<glyph unicode="$" d="M39 303q0 53 16 121h267q-3 -59 -3 -68q0 -153 134 -180l94 436q-338 85 -338 361q0 190 142.5 323t373.5 156l23 111h139l-25 -111q342 -32 342 -332q0 -44 -10 -100h-262q6 59 6 82q0 58 -31.5 96t-87.5 47l-88 -411q190 -58 275.5 -141t85.5 -208q0 -217 -150.5 -359 t-396.5 -169l-45 -215h-140l48 215q-179 19 -274 108t-95 238zM475 1026q0 -102 127 -152l78 371q-97 -19 -151 -77t-54 -142zM592 176q98 23 152.5 83.5t54.5 146.5q0 122 -121 172z" />
<glyph unicode="%" horiz-adv-x="1820" d="M182 987q0 113 64.5 217.5t170.5 168t222 63.5q136 0 224.5 -83.5t88.5 -211.5q0 -116 -64 -220.5t-170.5 -167.5t-225.5 -63q-132 0 -221 85t-89 212zM340 -41l1126 1493h158l-1128 -1493h-156zM387 1026q0 -57 43.5 -96t106.5 -39q83 0 147 62.5t64 144.5 q0 58 -43.5 97.5t-108.5 39.5q-82 0 -145.5 -63.5t-63.5 -145.5zM997 256q0 113 64.5 217.5t170.5 168t222 63.5q136 0 224.5 -83.5t88.5 -211.5q0 -116 -64 -220.5t-170.5 -167.5t-225.5 -63q-132 0 -221 85t-89 212zM1202 295q0 -57 43.5 -96t106.5 -39q83 0 147 62.5 t64 144.5q0 58 -43.5 97.5t-108.5 39.5q-82 0 -145.5 -63.5t-63.5 -145.5z" />
<glyph unicode="&#x26;" horiz-adv-x="1478" d="M100 319q0 167 104.5 283.5t325.5 218.5q-108 152 -108 250q0 107 63.5 202t170 151.5t227.5 56.5q140 0 226.5 -66.5t86.5 -175.5q0 -130 -72.5 -229.5t-253.5 -206.5l168 -281q52 47 79 100t44 142h232q-17 -113 -84 -233.5t-158 -202.5l192 -328h-327l-76 123 q-141 -101 -228.5 -135.5t-205.5 -34.5q-191 0 -298.5 97t-107.5 269zM381 383q0 -80 53.5 -136.5t128.5 -56.5q52 0 109 26t159 95l-202 342l-107 -59q-75 -43 -108 -92.5t-33 -118.5zM702 1130q0 -26 12 -52.5t62 -114.5q164 85 164 213q0 39 -27.5 61.5t-76.5 22.5 q-59 0 -96.5 -36.5t-37.5 -93.5z" />
<glyph unicode="'" horiz-adv-x="487" d="M281 1227l57 266h283l-58 -266l-143 -264h-113z" />
<glyph unicode="(" horiz-adv-x="681" d="M90 250q0 310 134.5 608t426.5 635h205q-290 -397 -406 -674.5t-116 -589.5q0 -141 26 -279.5t93 -359.5h-205q-158 365 -158 660z" />
<glyph unicode=")" horiz-adv-x="681" d="M-125 -410q299 404 413.5 677t114.5 585q0 144 -26.5 280.5t-97.5 360.5h204q164 -360 164 -662q0 -318 -138 -614t-429 -627h-205z" />
<glyph unicode="*" horiz-adv-x="796" d="M215 1188l76 141l207 -74l49 238h147l-51 -238l240 74l14 -143l-238 -72l97 -192l-138 -88l-96 192l-178 -192l-100 88l178 192z" />
<glyph unicode="+" horiz-adv-x="1196" d="M152 410v204h372v373h205v-373h373v-204h-373v-373h-205v373h-372z" />
<glyph unicode="," horiz-adv-x="569" d="M-27 -356l25 114q187 34 227 242h-176l64 299h307l-60 -281q-29 -168 -123.5 -258.5t-263.5 -115.5z" />
<glyph unicode="-" horiz-adv-x="681" d="M61 424l60 276h557l-60 -276h-557z" />
<glyph unicode="." horiz-adv-x="569" d="M49 0l64 299h307l-64 -299h-307z" />
<glyph unicode="/" horiz-adv-x="569" d="M-84 -29l739 1491h138l-740 -1491h-137z" />
<glyph unicode="0" d="M90 389q0 155 46.5 367t111.5 352q83 181 221 278t311 97q184 0 290 -108.5t106 -297.5q0 -155 -46.5 -368t-111.5 -353q-85 -183 -222.5 -278.5t-316.5 -95.5q-181 0 -285 109t-104 298zM383 403q0 -78 42.5 -125t113.5 -47q91 0 147.5 65t99.5 218q41 146 69 309 t28 258q0 78 -43 125t-115 47q-107 0 -180 -116q-51 -82 -106.5 -333.5t-55.5 -400.5z" />
<glyph unicode="1" d="M270 1001l41 191q376 0 500 260h190l-309 -1452h-286l212 1001h-348z" />
<glyph unicode="2" d="M-20 0q52 203 146.5 320t309.5 247q167 100 240.5 153t124.5 107q110 113 110 263q0 77 -46.5 120t-129.5 43q-106 0 -173 -79t-87 -228h-274q40 258 190.5 397.5t388.5 139.5q199 0 311.5 -93.5t112.5 -259.5q0 -198 -133 -356q-50 -59 -117.5 -112t-193.5 -132 q-186 -117 -251 -167.5t-103 -106.5h614l-53 -256h-987z" />
<glyph unicode="3" d="M61 338q0 41 13 117h278l2 -66q2 -76 49 -117t136 -41q102 0 175.5 80t73.5 189q-3 91 -68 127.5t-218 36.5l41 192h24q140 0 221.5 67t81.5 187q0 63 -44 103t-113 40q-100 0 -153.5 -58.5t-86.5 -199.5h-264q49 253 185.5 370.5t369.5 117.5q195 0 302.5 -80.5 t107.5 -228.5q0 -120 -60 -212.5t-184 -168.5q147 -90 147 -252q0 -119 -41 -221t-116.5 -177t-188.5 -118t-250 -43q-199 0 -309.5 93.5t-110.5 262.5z" />
<glyph unicode="4" d="M35 322l51 241l721 889h338l-191 -893h152l-51 -237h-150l-69 -322h-287l69 322h-583zM291 559h377l133 623z" />
<glyph unicode="5" d="M45 317q0 40 10 91h283q-4 -36 -4 -46q0 -60 49 -95.5t131 -35.5q126 0 204.5 90.5t78.5 243.5q0 91 -48 146t-135 55q-65 0 -118.5 -28.5t-87.5 -80.5h-258l296 795h785l-55 -256h-607l-108 -289q134 88 270 88q165 0 262 -105t97 -276q0 -178 -83.5 -323t-229 -227 t-322.5 -82q-185 0 -297.5 91.5t-112.5 243.5z" />
<glyph unicode="6" d="M94 365q0 187 60.5 421.5t142.5 368.5q201 328 528 328q173 0 273 -84t100 -230q0 -29 -2 -47h-266q-13 70 -51.5 100.5t-112.5 30.5q-63 0 -108 -20.5t-82 -72.5t-65 -125t-60 -193q149 114 305 114q161 0 252.5 -91t91.5 -251q0 -124 -45 -239.5t-123 -202 t-189.5 -138.5t-236.5 -52q-188 0 -300 102t-112 281zM360 399q0 -78 50.5 -123t130.5 -45q114 0 190 89.5t76 230.5q0 78 -46.5 127t-121.5 49q-115 0 -197 -95.5t-82 -232.5z" />
<glyph unicode="7" d="M186 0q123 372 294 639.5t470 556.5h-723l56 256h1026l-47 -225l-215 -221q-226 -251 -357 -482t-213 -524h-291z" />
<glyph unicode="8" d="M43 332q0 148 78.5 260t249.5 199q-72 56 -102.5 106.5t-30.5 116.5q0 126 73.5 234t199 171.5t271.5 63.5q180 0 293 -88t113 -228q0 -114 -64.5 -205t-199.5 -171q97 -59 135.5 -114t38.5 -145q0 -148 -79 -274t-219.5 -201t-310.5 -75q-206 0 -326 92t-120 258z M336 383q0 -70 55 -111t141 -41q122 0 197.5 79t75.5 210q0 76 -50 116t-137 40q-121 0 -201.5 -82.5t-80.5 -210.5zM487 1024q0 -69 48.5 -111.5t126.5 -42.5q107 0 183.5 69t76.5 167q0 66 -52 106.5t-137 40.5q-103 0 -174.5 -66.5t-71.5 -162.5z" />
<glyph unicode="9" d="M63 299q0 19 9 68h276q-2 -10 -2 -25q0 -49 45 -80t117 -31q123 0 193 94.5t116 299.5q-87 -74 -151 -101.5t-150 -27.5q-160 0 -253 96t-93 262q0 180 78 324.5t214 224.5t302 80q184 0 294.5 -114.5t110.5 -305.5q0 -185 -56 -389.5t-150 -368.5q-187 -323 -531 -323 q-164 0 -266.5 88t-102.5 229zM446 897q0 -80 45.5 -122t122.5 -42q124 0 207.5 98t83.5 246q0 86 -51 131t-139 45q-115 0 -192 -101t-77 -255z" />
<glyph unicode=":" horiz-adv-x="681" d="M104 0l64 299h307l-63 -299h-308zM268 766l64 299h307l-64 -299h-307z" />
<glyph unicode=";" horiz-adv-x="681" d="M29 -356l24 114q188 34 228 242h-177l64 299h307l-59 -281q-29 -168 -123.5 -258.5t-263.5 -115.5zM268 766l64 299h307l-64 -299h-307z" />
<glyph unicode="&#x3c;" horiz-adv-x="1196" d="M209 434v156l770 649v-266l-545 -461l545 -461v-266z" />
<glyph unicode="=" horiz-adv-x="1196" d="M152 223v205h950v-205h-950zM152 596v205h950v-205h-950z" />
<glyph unicode="&#x3e;" horiz-adv-x="1196" d="M209 51l545 461l-545 461v266l770 -649v-156l-770 -649v266z" />
<glyph unicode="?" horiz-adv-x="1251" d="M250 985q120 539 590 539q210 0 326 -101t116 -264q0 -82 -28.5 -167t-75.5 -146q-68 -87 -238 -191q-105 -65 -134.5 -103.5t-51.5 -139.5h-250q11 117 77 210.5t210 194.5q68 48 109.5 85.5t60 71t23.5 57.5t5 61q0 78 -52 128t-134 50q-104 0 -176.5 -75t-98.5 -210 h-278zM391 0l64 299h307l-64 -299h-307z" />
<glyph unicode="@" horiz-adv-x="1996" d="M68 371q0 175 64 347.5t180 316.5t266.5 255t336 173.5t375.5 62.5q203 0 373 -81t269.5 -225.5t99.5 -320.5q0 -103 -29 -205t-78.5 -187t-116 -158.5t-140.5 -124.5t-153.5 -80t-152.5 -29q-174 0 -221 143q-152 -149 -326 -149q-124 0 -202 77.5t-78 200.5 q0 108 63 230t159 219t216 161t227 64q77 0 122.5 -32.5t76.5 -108.5l55 120h184l-278 -573q-36 -76 -38 -91q-2 -9 -1 -20q0 -32 22 -51.5t58 -19.5q67 0 145.5 54t143 136.5t108 189.5t43.5 205t-47 187.5t-127.5 155t-194.5 104.5t-241 39q-232 0 -426.5 -98.5 t-329.5 -284.5q-96 -132 -149.5 -283t-53.5 -289q0 -225 174 -368.5t447 -143.5q95 0 191 19t243 65l25 -161q-230 -93 -506 -93q-179 0 -326.5 49t-246 135.5t-152 206.5t-53.5 261zM739 440q0 -72 38 -116.5t100 -44.5q64 0 139 50t135 123t100.5 160.5t40.5 157.5 q0 63 -39.5 103t-103.5 40q-63 0 -137 -45.5t-133.5 -113.5t-99.5 -154t-40 -160z" />
<glyph unicode="A" horiz-adv-x="1478" d="M-29 0l834 1493h354l199 -1493h-314l-36 301h-557l-166 -301h-314zM592 557h387l-72 580z" />
<glyph unicode="B" horiz-adv-x="1478" d="M86 0l317 1493h666q195 0 302.5 -87.5t107.5 -236.5q0 -106 -61.5 -202t-178.5 -172q78 -61 111.5 -124.5t33.5 -148.5q0 -91 -45 -190t-120 -172q-86 -83 -196.5 -121.5t-264.5 -38.5h-672zM449 256h364q131 0 199.5 67.5t68.5 178.5q0 72 -45.5 106.5t-140.5 34.5h-365 zM584 899h336q129 0 191.5 59.5t62.5 151.5q0 66 -44 96.5t-139 30.5h-336z" />
<glyph unicode="C" horiz-adv-x="1478" d="M139 494q0 218 68.5 409.5t185.5 326t277.5 211.5t339.5 77q238 0 385 -118.5t147 -309.5q0 -27 -8 -103h-289q0 268 -270 268q-246 0 -387 -223q-144 -224 -144 -479q0 -315 304 -315q312 0 397 272h293q-67 -260 -258.5 -397.5t-474.5 -137.5q-264 0 -415 137t-151 382 z" />
<glyph unicode="D" horiz-adv-x="1478" d="M76 0l317 1493h584q278 0 404 -121.5t126 -390.5q0 -181 -60 -362t-169 -332q-113 -155 -254.5 -221t-364.5 -66h-583zM438 256h275q134 0 217 48t149 163q53 91 88 232t35 262q0 276 -280 276h-277z" />
<glyph unicode="E" horiz-adv-x="1366" d="M80 0l317 1493h1082l-56 -256h-774l-71 -338h714l-53 -256h-715l-82 -387h809l-55 -256h-1116z" />
<glyph unicode="F" horiz-adv-x="1251" d="M70 0l317 1493h1049l-56 -256h-741l-72 -338h656l-56 -256h-653l-137 -643h-307z" />
<glyph unicode="G" horiz-adv-x="1593" d="M139 549q0 187 69.5 363.5t188 310t287 214.5t354.5 81q250 0 403.5 -120.5t153.5 -314.5q0 -9 -4 -67h-282q-12 115 -97 177t-231 62q-154 0 -277.5 -87.5t-191.5 -238.5t-68 -335q0 -157 99.5 -256.5t251.5 -99.5q94 0 179 32t155.5 103.5t103.5 173.5h-340l55 256h598 l-172 -803h-184l16 193q-112 -120 -221 -169t-254 -49q-271 0 -431.5 154t-160.5 420z" />
<glyph unicode="H" horiz-adv-x="1478" d="M57 0l318 1493h307l-119 -559h590l119 559h309l-317 -1493h-308l144 678h-592l-143 -678h-308z" />
<glyph unicode="I" horiz-adv-x="569" d="M47 0l318 1493h307l-318 -1493h-307z" />
<glyph unicode="J" d="M43 295q0 70 14 133l27 125h307l-29 -135q-8 -36 -8 -70q0 -49 37.5 -79.5t97.5 -30.5q165 0 203 174l232 1081h307l-232 -1081q-48 -227 -191.5 -332t-379.5 -105q-180 0 -282.5 85.5t-102.5 234.5z" />
<glyph unicode="K" horiz-adv-x="1478" d="M70 0l317 1493h307l-139 -655l725 655h365l-740 -653l481 -840h-366l-354 643l-187 -164l-102 -479h-307z" />
<glyph unicode="L" horiz-adv-x="1251" d="M82 0l317 1493h308l-263 -1237h715l-55 -256h-1022z" />
<glyph unicode="M" horiz-adv-x="1705" d="M53 0l318 1493h485v-1147l520 1147h449l-318 -1493h-290l270 1268l-551 -1268h-322v1268l-270 -1268h-291z" />
<glyph unicode="N" horiz-adv-x="1478" d="M57 0l318 1493h307l393 -1055l223 1055h291l-317 -1493h-303l-394 1071l-227 -1071h-291z" />
<glyph unicode="O" horiz-adv-x="1593" d="M137 547q0 176 66.5 351.5t187.5 318.5q252 301 629 301q281 0 437.5 -154.5t156.5 -431.5q0 -180 -65.5 -352.5t-184.5 -313.5q-132 -155 -283 -223t-350 -68q-275 0 -434.5 152.5t-159.5 419.5zM442 590q0 -166 90.5 -259t247.5 -93q146 0 267.5 87t191.5 238t70 332 q0 169 -87 264.5t-241 95.5q-149 0 -273.5 -92t-195 -245t-70.5 -328z" />
<glyph unicode="P" horiz-adv-x="1366" d="M74 0l317 1493h631q206 0 316 -96t110 -250q0 -118 -44 -230.5t-119 -197t-182 -136t-226 -51.5h-383l-113 -532h-307zM549 788h313q132 0 206.5 78t74.5 209q0 72 -51 117t-134 45h-315z" />
<glyph unicode="Q" horiz-adv-x="1593" d="M143 549q0 177 66 352t184 316q127 154 281 227.5t346 73.5q281 0 440.5 -157t159.5 -433q0 -188 -81 -378t-212 -317l131 -155l-190 -166l-142 166q-184 -103 -391 -103q-273 0 -432.5 153.5t-159.5 420.5zM449 590q0 -166 88 -259t241 -93q105 0 183 38l-127 150 l192 166l133 -160q72 91 114 214t42 247q0 170 -89 266t-247 96q-145 0 -267.5 -91t-192.5 -244t-70 -330z" />
<glyph unicode="R" horiz-adv-x="1478" d="M82 0l317 1493h772q160 0 257.5 -86.5t97.5 -220.5q0 -154 -80.5 -265.5t-261.5 -199.5q159 -53 159 -168q0 -69 -57 -375q-6 -30 -6 -53q0 -43 37 -70l-12 -55h-326q-16 52 -16 84v7q0 72 53 263q24 99 24 125q0 113 -174 113h-352l-125 -592h-307zM569 848h371 q126 0 203.5 68t77.5 178q0 143 -226 143h-344z" />
<glyph unicode="S" horiz-adv-x="1366" d="M78 379q0 35 8 90h299q-4 -36 -4 -47q0 -88 76.5 -136t216.5 -48q161 0 254.5 57.5t93.5 159.5q0 69 -50.5 99.5t-197.5 61.5l-201 41q-183 37 -264.5 110t-81.5 200q0 113 47 213.5t131.5 175.5t209 118.5t272.5 43.5q244 0 380 -93.5t136 -259.5q0 -46 -17 -127h-286 q4 36 4 47q0 83 -69.5 126.5t-200.5 43.5q-139 0 -220.5 -57.5t-81.5 -155.5q0 -58 51.5 -89t196.5 -60l224 -45q323 -66 323 -293q0 -263 -186.5 -421.5t-511.5 -158.5q-257 0 -404 106.5t-147 297.5z" />
<glyph unicode="T" horiz-adv-x="1251" d="M209 1237l55 256h1196l-55 -256h-434l-264 -1237h-308l265 1237h-455z" />
<glyph unicode="U" horiz-adv-x="1478" d="M166 365q0 73 22 180l203 948h307l-211 -989q-10 -41 -10 -92q0 -82 66 -128t186 -46q140 0 219.5 64t108.5 202l211 989h307l-211 -989q-56 -257 -241 -393t-451 -136q-232 0 -369 105.5t-137 284.5z" />
<glyph unicode="V" horiz-adv-x="1366" d="M285 1493h309l92 -1124l565 1124h310l-824 -1493h-260z" />
<glyph unicode="W" horiz-adv-x="1933" d="M262 1493h320v-1118l458 1118h318v-1122l461 1122h325l-731 -1493h-285v1137l-485 -1137h-276z" />
<glyph unicode="X" horiz-adv-x="1366" d="M-37 0l635 752l-297 741h365l161 -483l375 483h359l-621 -731l320 -762h-367l-184 510l-387 -510h-359z" />
<glyph unicode="Y" horiz-adv-x="1366" d="M291 1493h342l168 -645l424 645h342l-672 -940l-119 -553h-307l119 553z" />
<glyph unicode="Z" horiz-adv-x="1251" d="M-20 0l55 256l971 981h-764l55 256h1122l-55 -256l-971 -981h764l-55 -256h-1122z" />
<glyph unicode="[" horiz-adv-x="681" d="M-35 -410l404 1903h497l-45 -205h-231l-316 -1493h232l-43 -205h-498z" />
<glyph unicode="\" horiz-adv-x="569" d="M201 1452h151l150 -1499h-154z" />
<glyph unicode="]" horiz-adv-x="681" d="M-133 -410l45 205h231l316 1493h-232l43 205h498l-403 -1903h-498z" />
<glyph unicode="^" horiz-adv-x="1196" d="M162 553l522 870h256l166 -870h-232l-118 614l-365 -614h-229z" />
<glyph unicode="_" d="M-233 -387l30 141h1229l-31 -141h-1228z" />
<glyph unicode="`" horiz-adv-x="681" d="M227 1540h320l76 -315h-205z" />
<glyph unicode="a" d="M23 236q0 152 109.5 261.5t301.5 139.5l119 18q28 4 61 9t45 7l27 4.5t21.5 5.5t14.5 6.5t19 10.5q31 15 50.5 46t19.5 63q0 46 -35.5 67t-113.5 21q-99 0 -151.5 -35t-78.5 -119h-268q43 200 173.5 291.5t371.5 91.5q191 0 292 -65.5t101 -181.5q0 -37 -12 -93 l-129 -614q-7 -28 -7 -43q0 -43 43 -92l-8 -35h-313q-14 32 -14 55q0 29 8 70q-89 -80 -167 -111.5t-171 -31.5q-143 0 -226 70t-83 184zM315 299q0 -49 38 -68.5t116 -19.5q103 0 175.5 68.5t98.5 193.5l11 49q-28 -15 -37.5 -18t-59.5 -10l-135 -23q-207 -36 -207 -172z " />
<glyph unicode="b" horiz-adv-x="1251" d="M39 0l317 1493h287l-113 -530q133 161 340 161q163 0 261 -116t98 -308q0 -190 -84.5 -356.5t-223.5 -264t-294 -97.5q-199 0 -275 145l-26 -127h-287zM428 428q0 -102 50.5 -159.5t133.5 -57.5q132 0 228 128.5t96 313.5q0 112 -48.5 177t-131.5 65q-87 0 -162.5 -63 t-120.5 -171t-45 -233z" />
<glyph unicode="c" d="M78 367q0 145 56.5 299t148.5 264q159 194 450 194q180 0 294 -98t114 -246q0 -23 -8 -88h-275q-3 119 -41 161t-127 42q-98 0 -172.5 -71.5t-110.5 -181t-36 -234.5q0 -104 46 -150.5t140 -46.5q89 0 140 34t96 138h274q-63 -202 -203 -301.5t-342 -99.5 q-212 0 -328 106t-116 279z" />
<glyph unicode="d" horiz-adv-x="1251" d="M82 393q0 107 28.5 213.5t82.5 199t126.5 164t166 113t194.5 41.5q105 0 171 -39t101 -122l113 530h287l-318 -1493h-286l26 127q-139 -145 -336 -145q-162 0 -259 110t-97 301zM375 436q0 -108 49 -166.5t133 -58.5q132 0 226 130t94 321q0 107 -49 170t-132 63 q-84 0 -158 -62.5t-118.5 -169t-44.5 -227.5z" />
<glyph unicode="e" d="M51 393q0 144 44 275t124.5 233t203.5 162.5t271 60.5q199 0 316.5 -116t117.5 -289q0 -117 -34 -242h-744q-2 -19 -2 -78q0 -85 53.5 -136.5t141.5 -51.5q70 0 132.5 30t90.5 70h283q-81 -151 -230 -240t-332 -89q-194 0 -315 111.5t-121 299.5zM387 668h451v30 q0 105 -45.5 151t-133.5 46q-103 0 -171 -54t-101 -173z" />
<glyph unicode="f" horiz-adv-x="681" d="M102 0l191 893h-158l41 190h156l28 134q31 143 115.5 209.5t235.5 66.5l157 -6l-45 -215q-73 8 -86 8q-76 0 -94 -88l-25 -109h170l-40 -190h-168l-191 -893h-287z" />
<glyph unicode="g" horiz-adv-x="1251" d="M-29 -197q0 27 6 64h295l-2 -25q0 -44 50.5 -74t125.5 -30q112 0 194.5 62.5t104.5 162.5l35 164q-97 -81 -169.5 -113t-166.5 -32q-157 0 -259.5 103.5t-102.5 270.5q0 199 79 375t220.5 284.5t310.5 108.5q179 0 260 -188l37 170h273l-244 -1143 q-41 -196 -202.5 -302.5t-416.5 -106.5q-201 0 -314.5 66t-113.5 183zM375 426q0 -104 47.5 -159.5t128.5 -55.5q138 0 235 124.5t97 309.5q0 114 -51.5 182t-137.5 68q-83 0 -156.5 -64t-118 -173t-44.5 -232z" />
<glyph unicode="h" horiz-adv-x="1251" d="M55 0l318 1493h286l-118 -555q82 97 170.5 141.5t197.5 44.5q134 0 215.5 -74.5t81.5 -195.5q0 -54 -12 -113l-158 -741h-286l137 641q8 42 12 98q0 75 -38.5 115.5t-110.5 40.5q-99 0 -174 -74t-101 -198l-133 -623h-287z" />
<glyph unicode="i" horiz-adv-x="569" d="M55 0l236 1106h287l-236 -1106h-287zM322 1249l55 269h287l-56 -269h-286z" />
<glyph unicode="j" horiz-adv-x="569" d="M-170 -436l49 227q11 -8 51 -8q46 0 70.5 20.5t34.5 69.5l262 1233h287l-277 -1299q-29 -134 -119.5 -193.5t-265.5 -59.5q-56 0 -92 10zM328 1249l55 269h287l-56 -269h-286z" />
<glyph unicode="k" d="M39 0l317 1493h287l-174 -817l457 430h325l-475 -422l264 -684h-335l-162 489l-140 -127l-77 -362h-287z" />
<glyph unicode="l" horiz-adv-x="569" d="M55 0l318 1493h286l-317 -1493h-287z" />
<glyph unicode="m" horiz-adv-x="1820" d="M41 0l235 1106h285l-35 -166q91 100 171 142t180 42q95 0 163 -45.5t90 -122.5q85 88 172 128t191 40q138 0 214.5 -68t76.5 -190q0 -41 -17 -125l-157 -741h-287l147 696q11 53 11 84q0 55 -31 85t-88 30q-97 0 -163 -60.5t-89 -170.5l-141 -664h-287l152 709q6 35 6 67 q0 54 -35 86.5t-94 32.5q-89 0 -154 -62t-88 -169l-141 -664h-287z" />
<glyph unicode="n" horiz-adv-x="1251" d="M47 0l236 1106h286l-37 -168q83 98 171 142t202 44q137 0 219 -73.5t82 -196.5q0 -54 -12 -113l-158 -741h-286l137 641q7 31 12 100q0 74 -39 114t-112 40q-104 0 -179.5 -73t-101.5 -199l-133 -623h-287z" />
<glyph unicode="o" horiz-adv-x="1251" d="M88 377q0 211 85 381.5t240 268t351 97.5q211 0 332 -109.5t121 -299.5q0 -214 -85 -380.5t-240 -259.5t-355 -93q-205 0 -327 105t-122 290zM381 434q0 -107 56.5 -165t150.5 -58q142 0 239 129.5t97 314.5q0 109 -55.5 174.5t-149.5 65.5q-139 0 -238.5 -134 t-99.5 -327z" />
<glyph unicode="p" horiz-adv-x="1251" d="M-59 -446l329 1552h287l-35 -164q141 182 346 182q163 0 259 -114.5t96 -309.5q0 -202 -79.5 -367.5t-215.5 -258t-299 -92.5q-207 0 -275 165l-127 -593h-286zM426 428q0 -103 49.5 -160t132.5 -57q134 0 228 129t94 322q0 106 -48.5 169.5t-131.5 63.5 q-87 0 -161.5 -62.5t-118.5 -170t-44 -234.5z" />
<glyph unicode="q" horiz-adv-x="1251" d="M70 385q0 140 46 274t124.5 237t192 165.5t241.5 62.5q211 0 272 -182l35 164h287l-330 -1552h-287l127 593q-140 -165 -346 -165q-164 0 -263 108t-99 295zM362 430q0 -104 50 -161.5t135 -57.5q135 0 230 130t95 323q0 106 -49.5 168.5t-132.5 62.5q-87 0 -162.5 -62.5 t-120.5 -170t-45 -232.5z" />
<glyph unicode="r" horiz-adv-x="796" d="M47 0l236 1106h286l-47 -217q72 112 166 173.5t193 61.5q18 0 34 -2l-61 -291q-56 9 -88 9q-254 0 -307 -252l-125 -588h-287z" />
<glyph unicode="s" d="M47 289q0 20 8 61h281q5 -139 217 -139q97 0 153 25t56 73q-2 25 -32.5 43.5t-125.5 48.5l-162 52q-264 84 -264 254q0 82 36.5 157t102.5 133t168.5 92.5t225.5 34.5q193 0 303 -79.5t110 -217.5q0 -31 -10 -77h-276q6 27 6 38q0 50 -48 78.5t-132 28.5 q-82 0 -131.5 -30t-49.5 -79q0 -31 27.5 -50t105.5 -42l197 -57q130 -37 191 -94t61 -146q0 -195 -151 -305t-414 -110q-203 0 -328 84t-125 223z" />
<glyph unicode="t" horiz-adv-x="681" d="M131 154q0 36 10 84l138 655h-142l41 190h141l64 297h287l-64 -297h160l-41 -190h-160l-121 -578q-12 -53 -12 -69q0 -23 21.5 -37t56.5 -14q24 0 68 6l-41 -201q-110 -8 -172 -8q-234 0 -234 162z" />
<glyph unicode="u" horiz-adv-x="1251" d="M104 252q0 50 13 113l157 741h287l-137 -641q-8 -35 -12 -100q0 -75 39.5 -114.5t115.5 -39.5q100 0 174.5 73.5t100.5 198.5l133 623h287l-236 -1106h-287l33 154q-80 -89 -168 -130.5t-201 -41.5q-135 0 -217 73.5t-82 196.5z" />
<glyph unicode="v" d="M182 1106h303l62 -809l401 809h303l-616 -1106h-301z" />
<glyph unicode="w" horiz-adv-x="1593" d="M164 1106h307v-774l326 774h295v-774l333 774h297l-540 -1106h-308v778l-339 -778h-295z" />
<glyph unicode="x" d="M-49 0l477 561l-227 545h344l104 -334l252 334h344l-485 -545l252 -561h-344l-121 344l-252 -344h-344z" />
<glyph unicode="y" d="M-6 -440l47 223q23 -4 57 -4q106 0 169 51.5t63 138.5l-158 1137h315l74 -805l400 805h294l-733 -1307q-45 -81 -88 -129.5t-97 -75t-110 -35t-143 -8.5q-50 0 -90 9z" />
<glyph unicode="z" horiz-adv-x="1024" d="M-39 0l49 231l684 643h-510l49 232h863l-49 -232l-680 -643h561l-49 -231h-918z" />
<glyph unicode="{" horiz-adv-x="796" d="M90 457l41 188h33q133 0 160 129l92 432q29 138 110.5 212.5t202.5 74.5h156l-43 -203h-76q-57 0 -79.5 -22t-37.5 -94l-84 -400q-23 -110 -80 -160.5t-168 -62.5q86 -14 124 -45t38 -96q0 -32 -10 -84l-86 -400q-10 -44 -10 -82q0 -51 80 -51h71l-43 -203h-157 q-89 0 -144 57.5t-55 149.5q0 44 8 80l92 430q11 57 11 70q0 72 -111 78z" />
<glyph unicode="|" horiz-adv-x="573" d="M213 -410v1903h205v-1903h-205z" />
<glyph unicode="}" horiz-adv-x="796" d="M-23 -410l43 203h78q57 0 79.5 22.5t37.5 94.5l84 399q23 110 80 160.5t168 62.5q-85 13 -123.5 44t-38.5 98q0 32 10 84l86 399q5 22 11 82q0 51 -80 51h-74l43 203h160q89 0 143.5 -57t54.5 -150q0 -44 -8 -80l-92 -430q-10 -52 -10 -69q0 -72 110 -78l37 -2l-41 -189 h-35q-132 0 -159 -129l-92 -432q-29 -138 -110.5 -212.5t-203.5 -74.5h-158z" />
<glyph unicode="~" horiz-adv-x="1196" d="M117 346q79 297 325 297q96 0 156 -51l100 -86q34 -30 57.5 -41t57.5 -10q58 0 86.5 28.5t50.5 106.5h158q-35 -146 -118 -222.5t-206 -76.5q-98 0 -157 53l-99 86q-57 49 -114 49q-59 0 -88.5 -28.5t-49.5 -104.5h-159z" />
<glyph unicode="&#xa1;" horiz-adv-x="681" d="M23 -381l92 430l219 633h137l-49 -633l-92 -430h-307zM276 807l64 299h307l-63 -299h-308z" />
<glyph unicode="&#xa2;" d="M80 352q0 129 48 277.5t124 257.5q150 214 420 235l39 176h135l-39 -178q148 -19 242 -113t94 -227q0 -23 -8 -88h-275q0 93 -22 136.5t-80 62.5l-150 -709q63 15 106.5 62.5t80.5 138.5h274q-56 -188 -193 -303.5t-317 -124.5l-43 -209h-135l45 213 q-159 27 -252.5 129.5t-93.5 263.5zM373 391q0 -85 23 -130.5t79 -70.5l148 701q-77 -21 -135 -100.5t-86.5 -184.5t-28.5 -215z" />
<glyph unicode="&#xa3;" d="M18 164q160 94 227.5 179t67.5 192q0 41 -10 112h-182l24 113h123q-33 95 -43 136.5t-10 82.5q0 93 44 181t119.5 155t183 108t226.5 41q206 0 312 -91t106 -269q0 -45 -8 -113h-268q2 20 2 53q0 191 -191 191q-94 0 -163.5 -65.5t-69.5 -153.5q0 -5 12.5 -60t27 -118.5 t17.5 -77.5h285l-25 -113h-250q5 -34 5 -53q0 -109 -70.5 -204.5t-239.5 -213.5q98 44 137 56t85 12q34 0 133 -19q85 -16 135 -16q101 0 233 59l37 -223q-97 -51 -169 -71.5t-148 -20.5q-33 0 -191.5 30.5t-199.5 30.5q-57 0 -109.5 -12.5t-126.5 -44.5z" />
<glyph unicode="&#xa4;" d="M-27 291l244 201q-41 103 -12 239q13 64 44.5 128t67.5 108l-157 200l164 136l157 -201q124 67 254 67q138 0 226 -67l243 201l107 -136l-244 -200q45 -99 18 -236q-29 -136 -118 -239l157 -201l-163 -135l-158 200q-117 -67 -254 -67q-131 0 -225 67l-244 -200zM434 731 q-22 -98 22 -164.5t138 -66.5t167 66t95 165q20 98 -26 162.5t-140 64.5t-164.5 -64.5t-91.5 -162.5z" />
<glyph unicode="&#xa5;" d="M137 369l27 123h299l22 106h-299l25 123h287l-262 721h284l174 -520l383 520h279l-547 -721h285l-27 -123h-295l-22 -106h294l-26 -123h-295l-78 -369h-287l78 369h-299z" />
<glyph unicode="&#xa6;" horiz-adv-x="573" d="M213 352h205v-762h-205v762zM213 731v762h205v-762h-205z" />
<glyph unicode="&#xa7;" d="M33 -121q0 53 18 121h268q-6 -52 -6 -70q0 -112 133 -112q78 0 131.5 43.5t53.5 107.5q0 41 -18.5 62.5t-94.5 68.5l-307 205q-53 35 -82 88t-29 113q0 121 52.5 198t207.5 173q-77 80 -77 196q0 79 38 153.5t103.5 130.5t160.5 90t203 34q165 0 258 -70t93 -194 q0 -27 -15 -103h-260q2 14 2 37q0 59 -33 90t-94 31q-66 0 -109.5 -36.5t-43.5 -90.5q0 -32 34.5 -68.5t110.5 -83.5l230 -143q141 -88 141 -232q0 -137 -61.5 -222t-204.5 -138q98 -79 98 -203t-71.5 -231t-196.5 -171.5t-273 -64.5q-166 0 -263 78.5t-97 212.5zM367 616 q0 -35 17 -58.5t62 -51.5l256 -158q72 34 103 70.5t31 87.5q0 37 -20.5 63t-74.5 58l-260 155q-114 -60 -114 -166z" />
<glyph unicode="&#xa8;" horiz-adv-x="681" d="M199 1266l51 235h258l-51 -235h-258zM598 1266l51 235h258l-51 -235h-258z" />
<glyph unicode="&#xa9;" horiz-adv-x="1509" d="M72 696q0 193 95.5 358t259.5 261t357 96q145 0 277 -57t228 -153t153 -228t57 -277q0 -193 -96 -357t-261 -259.5t-358 -95.5t-357 95.5t-259.5 259.5t-95.5 357zM193 696q0 -161 79 -297.5t215 -215.5t297 -79t298 79t216.5 215.5t79.5 297.5t-79.5 298t-216.5 216.5 t-298 79.5q-121 0 -230.5 -47t-188.5 -126.5t-125.5 -189.5t-46.5 -231zM389 567q-3 149 60.5 270.5t175 189t247.5 67.5q134 0 219.5 -62.5t88.5 -161.5q0 -7 -6 -69h-187q3 131 -137 131q-125 0 -193 -101q-72 -104 -69 -227q3 -143 155 -143q164 0 199 135h191 q-32 -145 -141 -221t-275 -76q-151 0 -238 71t-90 197z" />
<glyph unicode="&#xaa;" horiz-adv-x="757" d="M115 537l35 163h579l-33 -163h-581zM193 948q0 98 67 165t182 87l70 12q71 10 104.5 22t42.5 26.5t9 42.5q0 51 -90 51q-59 0 -91 -20.5t-47 -69.5h-161q52 229 329 229q109 0 171.5 -39t62.5 -108q0 -24 -6 -58l-80 -368q-2 -10 -2 -27q0 -25 24 -55l-4 -21h-188 q-8 16 -8 33q0 13 4 33q-56 -50 -107.5 -72.5t-112.5 -22.5q-78 0 -123.5 43t-45.5 117zM371 989q0 -61 86 -61q63 0 107 41t59 114l10 47q-18 -8 -33 -12l-25 -4l-81 -14q-59 -11 -91 -39.5t-32 -71.5z" />
<glyph unicode="&#xab;" d="M195 446l49 234l407 305l-51 -240l-246 -182l168 -182l-49 -234zM631 446l49 234l407 305l-51 -240l-245 -182l167 -182l-49 -234z" />
<glyph unicode="&#xac;" horiz-adv-x="1196" d="M152 596v205h950v-475h-205v270h-745z" />
<glyph unicode="&#xad;" horiz-adv-x="681" d="M61 424l60 276h557l-60 -276h-557z" />
<glyph unicode="&#xae;" horiz-adv-x="1509" d="M72 696q0 193 95.5 358t259.5 261t357 96q145 0 277 -57t228 -153t153 -228t57 -277q0 -193 -96 -357t-261 -259.5t-358 -95.5t-357 95.5t-259.5 259.5t-95.5 357zM193 696q0 -161 79 -297.5t215 -215.5t297 -79t298 79t216.5 215.5t79.5 297.5t-79.5 298t-216.5 216.5 t-298 79.5q-121 0 -230.5 -47t-188.5 -126.5t-125.5 -189.5t-46.5 -231zM381 311l164 770h436q94 0 150.5 -45.5t58.5 -117.5q2 -75 -35.5 -131t-122.5 -101q63 -26 66 -82q0 -41 -29 -188q-2 -8 -2 -23q0 -17 23 -31l-13 -51h-200q-15 41 -15 54q-2 31 27 139q12 50 12 57 q-3 43 -84 43h-176l-61 -293h-199zM676 762h186q59 0 95 28t36 74q-3 60 -112 60h-172z" />
<glyph unicode="&#xaf;" horiz-adv-x="681" d="M223 1300l35 164h614l-34 -164h-615z" />
<glyph unicode="&#xb0;" horiz-adv-x="819" d="M283 1165q26 122 129.5 207.5t224.5 85.5q122 0 189.5 -86t41.5 -207q-26 -122 -129.5 -207.5t-224.5 -85.5q-122 0 -189.5 86t-41.5 207zM397 1165q-15 -74 26 -126t114 -52q74 0 138 52.5t79 125.5t-26.5 125.5t-115.5 52.5t-137 -52.5t-78 -125.5z" />
<glyph unicode="&#xb1;" horiz-adv-x="1196" d="M152 0v205h950v-205h-950zM152 614v205h372v373h205v-373h373v-205h-373v-225h-205v225h-372z" />
<glyph unicode="&#xb2;" horiz-adv-x="681" d="M121 688q28 110 80.5 173t173.5 132q150 87 195 128t57 100q11 56 -11.5 86t-74.5 30q-51 0 -86 -33.5t-49 -95.5l-5 -28h-165q4 25 6 32q26 124 114.5 191t223.5 67q131 0 188.5 -62t32.5 -179q-18 -81 -67 -133.5t-175 -130.5q-107 -65 -121.5 -75t-62.5 -56h338 l-33 -146h-559z" />
<glyph unicode="&#xb3;" horiz-adv-x="681" d="M176 922h166q-9 -61 12.5 -90t77.5 -29q49 0 87.5 30.5t49.5 77.5q11 54 -22.5 83.5t-106.5 29.5h-28l24 113h21q136 0 157 104q9 44 -11.5 71t-63.5 27q-55 0 -85.5 -31.5t-45.5 -103.5h-160q36 140 117 203t208 63q118 0 176.5 -57.5t38.5 -152.5q-24 -104 -129 -160 q109 -59 82 -187q-25 -114 -118 -181.5t-222 -67.5q-133 0 -191.5 67.5t-33.5 190.5z" />
<glyph unicode="&#xb4;" horiz-adv-x="681" d="M418 1225l209 315h319l-323 -315h-205z" />
<glyph unicode="&#xb5;" horiz-adv-x="1251" d="M-59 -451l331 1557h287l-145 -682q-15 -73 -15 -94q0 -59 42 -93t114 -34q103 0 175.5 57t94.5 154l148 692h287l-170 -799q-15 -64 -15 -102q0 -47 43 -47q16 0 43 8l-37 -176q-73 -37 -151 -37q-70 0 -107.5 25t-62.5 88q-74 -63 -137.5 -88t-151.5 -25 q-69 0 -113 17.5t-82 60.5l-102 -482h-276z" />
<glyph unicode="&#xb6;" d="M166 891q0 107 43 215.5t114 194t171 139t206 53.5h619l-31 -150h-90l-369 -1734h-200l368 1734h-127l-368 -1734h-201l199 938q-154 7 -244 100t-90 244z" />
<glyph unicode="&#xb7;" horiz-adv-x="569" d="M160 512q0 63 45 108.5t108 45.5t108.5 -45.5t45.5 -108.5t-45.5 -108.5t-108.5 -45.5t-108 45.5t-45 108.5z" />
<glyph unicode="&#xb8;" horiz-adv-x="681" d="M-109 -412l62 105q66 -32 108.5 -41.5t92.5 -9.5q60 0 99.5 21.5t39.5 57.5q0 32 -25.5 56t-64.5 24h-103l123 203h123l-74 -119h68q60 0 95.5 -39.5t35.5 -97.5q0 -99 -84.5 -159t-222.5 -60q-69 0 -128 12.5t-145 46.5z" />
<glyph unicode="&#xb9;" horiz-adv-x="681" d="M283 1206l24 111q209 0 279 135h114l-163 -766h-172l110 520h-192z" />
<glyph unicode="&#xba;" horiz-adv-x="747" d="M106 537l35 163h617l-35 -163h-617zM205 1036q0 192 115 324.5t292 132.5q126 0 198.5 -65t72.5 -179q0 -198 -117 -328t-297 -130q-122 0 -193 65.5t-71 179.5zM383 1065q0 -66 32.5 -105.5t86.5 -39.5q83 0 143 85.5t60 202.5q0 66 -32.5 106t-86.5 40q-83 0 -143 -85 t-60 -204z" />
<glyph unicode="&#xbb;" d="M129 147l51 240l246 182l-168 183l49 233l279 -299l-49 -235zM553 147l51 240l246 182l-168 183l49 233l279 -299l-49 -235z" />
<glyph unicode="&#xbc;" horiz-adv-x="1708" d="M236 -51l1187 1515h179l-1188 -1515h-178zM305 1206l25 111q208 0 278 135h115l-164 -766h-172l111 520h-193zM928 168l28 133l398 465h196l-98 -463h82l-29 -135h-82l-34 -168h-172l34 168h-323zM1090 303h190l63 295z" />
<glyph unicode="&#xbd;" horiz-adv-x="1708" d="M182 -51l1188 1515h178l-1188 -1515h-178zM305 1206l25 111q208 0 278 135h115l-164 -766h-172l111 520h-193zM942 0q26 109 78.5 172t173.5 133q151 86 195.5 126.5t56.5 100.5q12 55 -10.5 86t-75.5 31q-51 0 -87 -34t-48 -95l-2 -28h-166q4 28 4 32q28 124 115.5 191 t222.5 67q131 0 187.5 -62t31.5 -179q-17 -81 -66 -134.5t-172 -127.5q-98 -60 -115.5 -72.5t-70.5 -61.5h338l-31 -145h-559z" />
<glyph unicode="&#xbe;" horiz-adv-x="1708" d="M244 922h166q-9 -61 12.5 -90t77.5 -29q49 0 87.5 30.5t49.5 77.5q11 54 -22.5 83.5t-106.5 29.5h-29l25 113h20q137 0 158 104q9 44 -12 71t-64 27q-55 0 -85.5 -31.5t-45.5 -103.5h-160q36 140 117 203t209 63q118 0 176.5 -57.5t38.5 -152.5q-24 -104 -129 -160 q109 -59 82 -187q-25 -114 -118 -181.5t-222 -67.5q-133 0 -191.5 67.5t-33.5 190.5zM301 -51l1188 1515h178l-1188 -1515h-178zM928 168l28 133l398 465h196l-98 -463h82l-29 -135h-82l-34 -168h-172l34 168h-323zM1090 303h190l63 295z" />
<glyph unicode="&#xbf;" horiz-adv-x="1251" d="M41 -53q0 82 28.5 167t75.5 146q68 87 238 191q105 65 134.5 103.5t51.5 139.5h250q-11 -117 -77 -210.5t-210 -194.5q-68 -48 -109.5 -85.5t-60 -71t-23.5 -57.5t-5 -61q0 -78 52 -128t134 -50q104 0 176.5 75t98.5 210h278q-120 -539 -590 -539q-210 0 -326 101 t-116 264zM561 807l64 299h307l-64 -299h-307z" />
<glyph unicode="&#xc0;" horiz-adv-x="1478" d="M-29 0l834 1493h354l199 -1493h-314l-36 301h-557l-166 -301h-314zM592 557h387l-72 580zM631 1886h352l131 -276h-213z" />
<glyph unicode="&#xc1;" horiz-adv-x="1478" d="M-29 0l834 1493h354l199 -1493h-314l-36 301h-557l-166 -301h-314zM592 557h387l-72 580zM899 1610l250 276h352l-389 -276h-213z" />
<glyph unicode="&#xc2;" horiz-adv-x="1478" d="M-29 0l834 1493h354l199 -1493h-314l-36 301h-557l-166 -301h-314zM592 557h387l-72 580zM616 1614l342 270h265l176 -270h-176l-168 108l-252 -108h-187z" />
<glyph unicode="&#xc3;" horiz-adv-x="1478" d="M-29 0l834 1493h354l199 -1493h-314l-36 301h-557l-166 -301h-314zM592 557h387l-72 580zM639 1628q35 115 100 177.5t148 62.5q38 0 66 -6.5t79 -28.5l103 -43q11 -4 23 -10t16.5 -7.5t11.5 -3t16 -0.5q68 0 111 105h110q-35 -126 -107 -188t-165 -62q-63 0 -104 23 l-103 51q-62 28 -90 28q-54 0 -104 -98h-111z" />
<glyph unicode="&#xc4;" horiz-adv-x="1478" d="M-29 0l834 1493h354l199 -1493h-314l-36 301h-557l-166 -301h-314zM592 557h387l-72 580zM684 1632l51 236h258l-51 -236h-258zM1083 1632l52 236h258l-52 -236h-258z" />
<glyph unicode="&#xc5;" horiz-adv-x="1478" d="M-29 0l834 1493h354l199 -1493h-314l-36 301h-557l-166 -301h-314zM592 557h387l-72 580zM836 1724q0 97 76.5 171.5t174.5 74.5q70 0 116 -45.5t46 -114.5q0 -96 -76.5 -170.5t-175.5 -74.5q-70 0 -115.5 45t-45.5 114zM944 1749q0 -31 22 -51.5t56 -20.5q46 0 81.5 34 t35.5 77q0 31 -21 50.5t-53 19.5q-46 0 -83.5 -33.5t-37.5 -75.5z" />
<glyph unicode="&#xc6;" horiz-adv-x="2048" d="M-80 0l860 1493h1399l-53 -256h-752l-74 -338h695l-53 -256h-695l-82 -387h791l-55 -256h-1098l65 311h-448l-174 -311h-326zM553 567h371l143 670h-135z" />
<glyph unicode="&#xc7;" horiz-adv-x="1478" d="M139 494q0 218 68.5 409.5t185.5 326t277.5 211.5t339.5 77q238 0 385 -118.5t147 -309.5q0 -27 -8 -103h-289q0 268 -270 268q-246 0 -387 -223q-144 -224 -144 -479q0 -315 304 -315q312 0 397 272h293q-62 -242 -233 -378t-425 -155l-57 -92h68q60 0 95.5 -39.5 t35.5 -97.5q0 -99 -84.5 -159t-223.5 -60q-69 0 -127.5 12.5t-144.5 46.5l61 105q66 -32 108.5 -41.5t92.5 -9.5q60 0 99.5 21.5t39.5 57.5q0 32 -25.5 56t-64.5 24h-102l106 176q-243 12 -380.5 148t-137.5 369z" />
<glyph unicode="&#xc8;" horiz-adv-x="1366" d="M80 0l317 1493h1082l-56 -256h-774l-71 -338h714l-53 -256h-715l-82 -387h809l-55 -256h-1116zM586 1886h352l131 -276h-213z" />
<glyph unicode="&#xc9;" horiz-adv-x="1366" d="M80 0l317 1493h1082l-56 -256h-774l-71 -338h714l-53 -256h-715l-82 -387h809l-55 -256h-1116zM854 1610l250 276h352l-389 -276h-213z" />
<glyph unicode="&#xca;" horiz-adv-x="1366" d="M80 0l317 1493h1082l-56 -256h-774l-71 -338h714l-53 -256h-715l-82 -387h809l-55 -256h-1116zM571 1614l342 270h265l176 -270h-176l-168 108l-252 -108h-187z" />
<glyph unicode="&#xcb;" horiz-adv-x="1366" d="M80 0l317 1493h1082l-56 -256h-774l-71 -338h714l-53 -256h-715l-82 -387h809l-55 -256h-1116zM639 1632l51 236h258l-51 -236h-258zM1038 1632l52 236h258l-52 -236h-258z" />
<glyph unicode="&#xcc;" horiz-adv-x="569" d="M47 0l318 1493h307l-318 -1493h-307zM213 1886h352l131 -276h-213z" />
<glyph unicode="&#xcd;" horiz-adv-x="569" d="M47 0l318 1493h307l-318 -1493h-307zM389 1610l250 276h352l-389 -276h-213z" />
<glyph unicode="&#xce;" horiz-adv-x="569" d="M47 0l318 1493h307l-318 -1493h-307zM152 1614l342 270h264l176 -270h-176l-168 108l-252 -108h-186z" />
<glyph unicode="&#xcf;" horiz-adv-x="569" d="M47 0l318 1493h307l-318 -1493h-307zM219 1632l51 236h258l-51 -236h-258zM618 1632l52 236h258l-51 -236h-259z" />
<glyph unicode="&#xd0;" horiz-adv-x="1478" d="M68 698l34 164h156l135 631h584q278 0 404 -121.5t126 -390.5q0 -181 -60 -362t-169 -332q-113 -155 -254.5 -221t-364.5 -66h-583l149 698h-157zM438 256h275q134 0 217 48t149 163q53 91 88 232t35 262q0 276 -280 276h-277l-80 -375h357l-35 -164h-355z" />
<glyph unicode="&#xd1;" horiz-adv-x="1478" d="M57 0l318 1493h307l393 -1055l223 1055h291l-317 -1493h-303l-394 1071l-227 -1071h-291zM639 1628q35 115 100 177.5t148 62.5q38 0 66 -6.5t79 -28.5l103 -43q11 -4 23 -10t16.5 -7.5t11.5 -3t16 -0.5q68 0 111 105h110q-35 -126 -107 -188t-165 -62q-63 0 -104 23 l-103 51q-62 28 -90 28q-54 0 -104 -98h-111z" />
<glyph unicode="&#xd2;" horiz-adv-x="1593" d="M137 547q0 176 66.5 351.5t187.5 318.5q252 301 629 301q281 0 437.5 -154.5t156.5 -431.5q0 -180 -65.5 -352.5t-184.5 -313.5q-132 -155 -283 -223t-350 -68q-275 0 -434.5 152.5t-159.5 419.5zM442 590q0 -166 90.5 -259t247.5 -93q146 0 267.5 87t191.5 238t70 332 q0 169 -87 264.5t-241 95.5q-149 0 -273.5 -92t-195 -245t-70.5 -328zM662 1886h352l131 -276h-213z" />
<glyph unicode="&#xd3;" horiz-adv-x="1593" d="M137 547q0 176 66.5 351.5t187.5 318.5q252 301 629 301q281 0 437.5 -154.5t156.5 -431.5q0 -180 -65.5 -352.5t-184.5 -313.5q-132 -155 -283 -223t-350 -68q-275 0 -434.5 152.5t-159.5 419.5zM442 590q0 -166 90.5 -259t247.5 -93q146 0 267.5 87t191.5 238t70 332 q0 169 -87 264.5t-241 95.5q-149 0 -273.5 -92t-195 -245t-70.5 -328zM932 1610l250 276h352l-389 -276h-213z" />
<glyph unicode="&#xd4;" horiz-adv-x="1593" d="M137 547q0 176 66.5 351.5t187.5 318.5q252 301 629 301q281 0 437.5 -154.5t156.5 -431.5q0 -180 -65.5 -352.5t-184.5 -313.5q-132 -155 -283 -223t-350 -68q-275 0 -434.5 152.5t-159.5 419.5zM442 590q0 -166 90.5 -259t247.5 -93q146 0 267.5 87t191.5 238t70 332 q0 169 -87 264.5t-241 95.5q-149 0 -273.5 -92t-195 -245t-70.5 -328zM649 1614l342 270h264l177 -270h-177l-168 108l-251 -108h-187z" />
<glyph unicode="&#xd5;" horiz-adv-x="1593" d="M137 547q0 176 66.5 351.5t187.5 318.5q252 301 629 301q281 0 437.5 -154.5t156.5 -431.5q0 -180 -65.5 -352.5t-184.5 -313.5q-132 -155 -283 -223t-350 -68q-275 0 -434.5 152.5t-159.5 419.5zM442 590q0 -166 90.5 -259t247.5 -93q146 0 267.5 87t191.5 238t70 332 q0 169 -87 264.5t-241 95.5q-149 0 -273.5 -92t-195 -245t-70.5 -328zM670 1628q35 115 100 177.5t148 62.5q38 0 66 -6.5t79 -28.5l102 -43q11 -4 23 -10t16.5 -7.5t12 -3t16.5 -0.5q67 0 110 105h111q-35 -126 -107 -188t-165 -62q-64 0 -105 23l-102 51q-62 28 -90 28 q-55 0 -105 -98h-110z" />
<glyph unicode="&#xd6;" horiz-adv-x="1593" d="M137 547q0 176 66.5 351.5t187.5 318.5q252 301 629 301q281 0 437.5 -154.5t156.5 -431.5q0 -180 -65.5 -352.5t-184.5 -313.5q-132 -155 -283 -223t-350 -68q-275 0 -434.5 152.5t-159.5 419.5zM442 590q0 -166 90.5 -259t247.5 -93q146 0 267.5 87t191.5 238t70 332 q0 169 -87 264.5t-241 95.5q-149 0 -273.5 -92t-195 -245t-70.5 -328zM715 1632l51 236h258l-51 -236h-258zM1114 1632l51 236h258l-51 -236h-258z" />
<glyph unicode="&#xd7;" horiz-adv-x="1196" d="M219 248l262 264l-262 264l143 144l265 -263l264 263l143 -144l-262 -264l262 -264l-143 -144l-264 263l-265 -263z" />
<glyph unicode="&#xd8;" horiz-adv-x="1593" d="M27 113l172 151q-62 127 -62 283q0 176 66.5 351.5t187.5 318.5q252 301 629 301q276 0 434 -152l162 145l113 -131l-175 -153q60 -129 60 -295q0 -180 -65.5 -352.5t-184.5 -313.5q-132 -155 -283 -223t-350 -68q-271 0 -430 150l-162 -143zM442 590q0 -46 11 -103 l768 674q-88 94 -240 94q-149 0 -273.5 -92t-195 -245t-70.5 -328zM535 330q92 -92 245 -92q146 0 267.5 87t191.5 238t70 332q0 45 -11 106z" />
<glyph unicode="&#xd9;" horiz-adv-x="1478" d="M166 365q0 73 22 180l203 948h307l-211 -989q-10 -41 -10 -92q0 -82 66 -128t186 -46q140 0 219.5 64t108.5 202l211 989h307l-211 -989q-56 -257 -241 -393t-451 -136q-232 0 -369 105.5t-137 284.5zM631 1886h352l131 -276h-213z" />
<glyph unicode="&#xda;" horiz-adv-x="1478" d="M166 365q0 73 22 180l203 948h307l-211 -989q-10 -41 -10 -92q0 -82 66 -128t186 -46q140 0 219.5 64t108.5 202l211 989h307l-211 -989q-56 -257 -241 -393t-451 -136q-232 0 -369 105.5t-137 284.5zM899 1610l250 276h352l-389 -276h-213z" />
<glyph unicode="&#xdb;" horiz-adv-x="1478" d="M166 365q0 73 22 180l203 948h307l-211 -989q-10 -41 -10 -92q0 -82 66 -128t186 -46q140 0 219.5 64t108.5 202l211 989h307l-211 -989q-56 -257 -241 -393t-451 -136q-232 0 -369 105.5t-137 284.5zM616 1614l342 270h265l176 -270h-176l-168 108l-252 -108h-187z" />
<glyph unicode="&#xdc;" horiz-adv-x="1478" d="M166 365q0 73 22 180l203 948h307l-211 -989q-10 -41 -10 -92q0 -82 66 -128t186 -46q140 0 219.5 64t108.5 202l211 989h307l-211 -989q-56 -257 -241 -393t-451 -136q-232 0 -369 105.5t-137 284.5zM684 1632l51 236h258l-51 -236h-258zM1083 1632l52 236h258l-52 -236 h-258z" />
<glyph unicode="&#xdd;" horiz-adv-x="1366" d="M291 1493h342l168 -645l424 645h342l-672 -940l-119 -553h-307l119 553zM858 1610l250 276h352l-389 -276h-213z" />
<glyph unicode="&#xde;" horiz-adv-x="1366" d="M74 0l317 1493h307l-53 -246h326q204 0 314 -96t110 -250q0 -159 -74 -299.5t-206.5 -227.5t-289.5 -87h-383l-61 -287h-307zM496 543h313q131 0 206 76.5t75 209.5q0 72 -51 117t-134 45h-313z" />
<glyph unicode="&#xdf;" horiz-adv-x="1251" d="M55 0l244 1143q34 160 182 255t363 95q187 0 300 -83t113 -218q0 -120 -67.5 -215t-181.5 -135q95 -22 147.5 -94t52.5 -181q0 -162 -82 -304.5t-214.5 -226t-278.5 -83.5q-47 0 -139 14l49 230h28q82 0 149 26.5t108.5 71.5t64 101t22.5 118q0 201 -231 201h-31l41 194 q126 0 198.5 63t72.5 158q0 63 -49 98.5t-134 35.5q-172 0 -207 -164l-233 -1100h-287z" />
<glyph unicode="&#xe0;" d="M23 236q0 152 109.5 261.5t301.5 139.5l119 18q28 4 61 9t45 7l27 4.5t21.5 5.5t14.5 6.5t19 10.5q31 15 50.5 46t19.5 63q0 46 -35.5 67t-113.5 21q-99 0 -151.5 -35t-78.5 -119h-268q43 200 173.5 291.5t371.5 91.5q191 0 292 -65.5t101 -181.5q0 -37 -12 -93 l-129 -614q-7 -28 -7 -43q0 -43 43 -92l-8 -35h-313q-14 32 -14 55q0 29 8 70q-89 -80 -167 -111.5t-171 -31.5q-143 0 -226 70t-83 184zM315 299q0 -49 38 -68.5t116 -19.5q103 0 175.5 68.5t98.5 193.5l11 49q-28 -15 -37.5 -18t-59.5 -10l-135 -23q-207 -36 -207 -172z M438 1540h320l76 -315h-205z" />
<glyph unicode="&#xe1;" d="M23 236q0 152 109.5 261.5t301.5 139.5l119 18q28 4 61 9t45 7l27 4.5t21.5 5.5t14.5 6.5t19 10.5q31 15 50.5 46t19.5 63q0 46 -35.5 67t-113.5 21q-99 0 -151.5 -35t-78.5 -119h-268q43 200 173.5 291.5t371.5 91.5q191 0 292 -65.5t101 -181.5q0 -37 -12 -93 l-129 -614q-7 -28 -7 -43q0 -43 43 -92l-8 -35h-313q-14 32 -14 55q0 29 8 70q-89 -80 -167 -111.5t-171 -31.5q-143 0 -226 70t-83 184zM315 299q0 -49 38 -68.5t116 -19.5q103 0 175.5 68.5t98.5 193.5l11 49q-28 -15 -37.5 -18t-59.5 -10l-135 -23q-207 -36 -207 -172z M627 1225l209 315h319l-324 -315h-204z" />
<glyph unicode="&#xe2;" d="M23 236q0 152 109.5 261.5t301.5 139.5l119 18q28 4 61 9t45 7l27 4.5t21.5 5.5t14.5 6.5t19 10.5q31 15 50.5 46t19.5 63q0 46 -35.5 67t-113.5 21q-99 0 -151.5 -35t-78.5 -119h-268q43 200 173.5 291.5t371.5 91.5q191 0 292 -65.5t101 -181.5q0 -37 -12 -93 l-129 -614q-7 -28 -7 -43q0 -43 43 -92l-8 -35h-313q-14 32 -14 55q0 29 8 70q-89 -80 -167 -111.5t-171 -31.5q-143 0 -226 70t-83 184zM315 299q0 -49 38 -68.5t116 -19.5q103 0 175.5 68.5t98.5 193.5l11 49q-28 -15 -37.5 -18t-59.5 -10l-135 -23q-207 -36 -207 -172z M383 1225l287 315h260l145 -315h-180l-135 157l-201 -157h-176z" />
<glyph unicode="&#xe3;" d="M23 236q0 152 109.5 261.5t301.5 139.5l119 18q28 4 61 9t45 7l27 4.5t21.5 5.5t14.5 6.5t19 10.5q31 15 50.5 46t19.5 63q0 46 -35.5 67t-113.5 21q-99 0 -151.5 -35t-78.5 -119h-268q43 200 173.5 291.5t371.5 91.5q191 0 292 -65.5t101 -181.5q0 -37 -12 -93 l-129 -614q-7 -28 -7 -43q0 -43 43 -92l-8 -35h-313q-14 32 -14 55q0 29 8 70q-89 -80 -167 -111.5t-171 -31.5q-143 0 -226 70t-83 184zM315 299q0 -49 38 -68.5t116 -19.5q103 0 175.5 68.5t98.5 193.5l11 49q-28 -15 -37.5 -18t-59.5 -10l-135 -23q-207 -36 -207 -172z M362 1262q35 115 99.5 177t148.5 62q39 0 67.5 -6.5t78.5 -28.5l102 -43l22.5 -10t17.5 -7t11.5 -2.5t16.5 -0.5q67 0 110 104h111q-35 -126 -107.5 -188t-165.5 -62q-63 0 -104 23l-102 51q-64 29 -90 29q-55 0 -105 -98h-111z" />
<glyph unicode="&#xe4;" d="M23 236q0 152 109.5 261.5t301.5 139.5l119 18q28 4 61 9t45 7l27 4.5t21.5 5.5t14.5 6.5t19 10.5q31 15 50.5 46t19.5 63q0 46 -35.5 67t-113.5 21q-99 0 -151.5 -35t-78.5 -119h-268q43 200 173.5 291.5t371.5 91.5q191 0 292 -65.5t101 -181.5q0 -37 -12 -93 l-129 -614q-7 -28 -7 -43q0 -43 43 -92l-8 -35h-313q-14 32 -14 55q0 29 8 70q-89 -80 -167 -111.5t-171 -31.5q-143 0 -226 70t-83 184zM315 299q0 -49 38 -68.5t116 -19.5q103 0 175.5 68.5t98.5 193.5l11 49q-28 -15 -37.5 -18t-59.5 -10l-135 -23q-207 -36 -207 -172z M408 1266l51 235h258l-51 -235h-258zM807 1266l51 235h258l-51 -235h-258z" />
<glyph unicode="&#xe5;" d="M23 236q0 152 109.5 261.5t301.5 139.5l119 18q28 4 61 9t45 7l27 4.5t21.5 5.5t14.5 6.5t19 10.5q31 15 50.5 46t19.5 63q0 46 -35.5 67t-113.5 21q-99 0 -151.5 -35t-78.5 -119h-268q43 200 173.5 291.5t371.5 91.5q191 0 292 -65.5t101 -181.5q0 -37 -12 -93 l-129 -614q-7 -28 -7 -43q0 -43 43 -92l-8 -35h-313q-14 32 -14 55q0 29 8 70q-89 -80 -167 -111.5t-171 -31.5q-143 0 -226 70t-83 184zM315 299q0 -49 38 -68.5t116 -19.5q103 0 175.5 68.5t98.5 193.5l11 49q-28 -15 -37.5 -18t-59.5 -10l-135 -23q-207 -36 -207 -172z M555 1339q0 97 77 171.5t175 74.5q70 0 116 -45.5t46 -114.5q0 -96 -76.5 -170.5t-175.5 -74.5q-70 0 -116 45t-46 114zM666 1364q0 -31 21 -51.5t54 -20.5q46 0 81.5 34t35.5 77q0 31 -21 50.5t-53 19.5q-46 0 -82 -33t-36 -76z" />
<glyph unicode="&#xe6;" horiz-adv-x="1820" d="M31 231q0 155 109.5 265.5t301.5 140.5l117 18q29 5 61.5 9.5t45 6.5t27.5 4.5t22 5.5t15 6.5t20 10.5q30 15 49.5 45.5t19.5 63.5q0 46 -35.5 67t-113.5 21q-99 0 -151.5 -35t-78.5 -119h-268q43 208 175.5 295.5t373.5 87.5q233 0 330 -100q149 100 338 100 q193 0 310.5 -116.5t117.5 -288.5q0 -120 -37 -256h-742q-14 -62 -14 -105q5 -59 61.5 -103t141.5 -44q71 0 135 30t92 70h283q-78 -145 -234.5 -237t-337.5 -92q-135 0 -231 53t-139 151q-107 -115 -204 -159.5t-239 -44.5q-152 0 -236.5 63.5t-84.5 185.5zM324 299 q0 -49 37 -68.5t112 -19.5q107 0 180 67.5t99 192.5l10 49q-5 -2 -14.5 -7t-12.5 -6l-10.5 -3.5t-14.5 -3.5t-18 -2.5t-26 -3.5l-136 -23q-206 -36 -206 -172zM1081 653h443v56q0 89 -45.5 137.5t-128.5 48.5q-99 0 -168 -62t-101 -180z" />
<glyph unicode="&#xe7;" d="M78 367q0 145 56.5 299t148.5 264q159 194 450 194q180 0 294 -98t114 -246q0 -23 -8 -88h-275q-3 119 -41 161t-127 42q-98 0 -172.5 -71.5t-110.5 -181t-36 -234.5q0 -104 46 -150.5t140 -46.5q89 0 140 34t96 138h274q-58 -182 -176.5 -280.5t-290.5 -116.5l-61 -101 h67q60 0 95.5 -39.5t35.5 -97.5q0 -99 -84.5 -159t-222.5 -60q-69 0 -127.5 12.5t-144.5 46.5l61 105q66 -32 108.5 -41.5t92.5 -9.5q60 0 99.5 21.5t39.5 57.5q0 32 -25.5 56t-64.5 24h-102l110 183q-191 12 -295 115.5t-104 267.5z" />
<glyph unicode="&#xe8;" d="M51 393q0 144 44 275t124.5 233t203.5 162.5t271 60.5q199 0 316.5 -116t117.5 -289q0 -117 -34 -242h-744q-2 -19 -2 -78q0 -85 53.5 -136.5t141.5 -51.5q70 0 132.5 30t90.5 70h283q-81 -151 -230 -240t-332 -89q-194 0 -315 111.5t-121 299.5zM387 668h451v30 q0 105 -45.5 151t-133.5 46q-103 0 -171 -54t-101 -173zM457 1540h319l76 -315h-205z" />
<glyph unicode="&#xe9;" d="M51 393q0 144 44 275t124.5 233t203.5 162.5t271 60.5q199 0 316.5 -116t117.5 -289q0 -117 -34 -242h-744q-2 -19 -2 -78q0 -85 53.5 -136.5t141.5 -51.5q70 0 132.5 30t90.5 70h283q-81 -151 -230 -240t-332 -89q-194 0 -315 111.5t-121 299.5zM387 668h451v30 q0 105 -45.5 151t-133.5 46q-103 0 -171 -54t-101 -173zM645 1225l209 315h320l-324 -315h-205z" />
<glyph unicode="&#xea;" d="M51 393q0 144 44 275t124.5 233t203.5 162.5t271 60.5q199 0 316.5 -116t117.5 -289q0 -117 -34 -242h-744q-2 -19 -2 -78q0 -85 53.5 -136.5t141.5 -51.5q70 0 132.5 30t90.5 70h283q-81 -151 -230 -240t-332 -89q-194 0 -315 111.5t-121 299.5zM387 668h451v30 q0 105 -45.5 151t-133.5 46q-103 0 -171 -54t-101 -173zM401 1225l287 315h260l146 -315h-181l-135 157l-200 -157h-177z" />
<glyph unicode="&#xeb;" d="M51 393q0 144 44 275t124.5 233t203.5 162.5t271 60.5q199 0 316.5 -116t117.5 -289q0 -117 -34 -242h-744q-2 -19 -2 -78q0 -85 53.5 -136.5t141.5 -51.5q70 0 132.5 30t90.5 70h283q-81 -151 -230 -240t-332 -89q-194 0 -315 111.5t-121 299.5zM387 668h451v30 q0 105 -45.5 151t-133.5 46q-103 0 -171 -54t-101 -173zM426 1266l51 235h258l-51 -235h-258zM825 1266l52 235h258l-52 -235h-258z" />
<glyph unicode="&#xec;" horiz-adv-x="569" d="M55 0l236 1106h287l-236 -1106h-287zM209 1540h319l76 -315h-205z" />
<glyph unicode="&#xed;" horiz-adv-x="569" d="M55 0l236 1106h287l-236 -1106h-287zM317 1225l209 315h320l-324 -315h-205z" />
<glyph unicode="&#xee;" horiz-adv-x="569" d="M55 0l236 1106h287l-236 -1106h-287zM113 1225l286 315h260l146 -315h-180l-136 157l-200 -157h-176z" />
<glyph unicode="&#xef;" horiz-adv-x="569" d="M55 0l236 1106h287l-236 -1106h-287zM137 1266l51 235h258l-51 -235h-258zM537 1266l51 235h258l-51 -235h-258z" />
<glyph unicode="&#xf0;" horiz-adv-x="1251" d="M94 393q-2 126 37 249t110.5 222t181 160t236.5 61q50 0 88.5 -11.5t96.5 -43.5q-76 130 -199 217l-199 -92l-84 88l181 84l-144 94l144 103q14 -6 36.5 -16l31.5 -14t28.5 -14t41.5 -24.5t56 -36.5l213 92l88 -88l-190 -84q199 -148 282.5 -291.5t83.5 -340.5 q0 -152 -47 -284.5t-131.5 -230t-210.5 -154t-276 -56.5q-214 0 -334.5 109t-120.5 302zM389 451q0 -122 56.5 -181t146.5 -59q146 0 239 125t93 332q0 107 -61 161t-152 54q-143 0 -232.5 -124.5t-89.5 -307.5z" />
<glyph unicode="&#xf1;" horiz-adv-x="1251" d="M47 0l236 1106h286l-37 -168q83 98 171 142t202 44q137 0 219 -73.5t82 -196.5q0 -54 -12 -113l-158 -741h-286l137 641q7 31 12 100q0 74 -39 114t-112 40q-104 0 -179.5 -73t-101.5 -199l-133 -623h-287zM438 1262q35 115 99.5 177t148.5 62q38 0 66 -6.5t79 -28.5 l103 -43q10 -4 22.5 -10t17 -7.5t11.5 -2.5t16 0q68 0 111 104h111q-35 -126 -107.5 -188t-165.5 -62q-63 0 -104 23l-103 51q-64 29 -90 29q-54 0 -104 -98h-111z" />
<glyph unicode="&#xf2;" horiz-adv-x="1251" d="M88 377q0 211 85 381.5t240 268t351 97.5q211 0 332 -109.5t121 -299.5q0 -214 -85 -380.5t-240 -259.5t-355 -93q-205 0 -327 105t-122 290zM381 434q0 -107 56.5 -165t150.5 -58q142 0 239 129.5t97 314.5q0 109 -55.5 174.5t-149.5 65.5q-139 0 -238.5 -134 t-99.5 -327zM512 1540h319l76 -315h-205z" />
<glyph unicode="&#xf3;" horiz-adv-x="1251" d="M88 377q0 211 85 381.5t240 268t351 97.5q211 0 332 -109.5t121 -299.5q0 -214 -85 -380.5t-240 -259.5t-355 -93q-205 0 -327 105t-122 290zM381 434q0 -107 56.5 -165t150.5 -58q142 0 239 129.5t97 314.5q0 109 -55.5 174.5t-149.5 65.5q-139 0 -238.5 -134 t-99.5 -327zM702 1225l209 315h320l-324 -315h-205z" />
<glyph unicode="&#xf4;" horiz-adv-x="1251" d="M88 377q0 211 85 381.5t240 268t351 97.5q211 0 332 -109.5t121 -299.5q0 -214 -85 -380.5t-240 -259.5t-355 -93q-205 0 -327 105t-122 290zM381 434q0 -107 56.5 -165t150.5 -58q142 0 239 129.5t97 314.5q0 109 -55.5 174.5t-149.5 65.5q-139 0 -238.5 -134 t-99.5 -327zM459 1225l286 315h261l145 -315h-180l-135 157l-201 -157h-176z" />
<glyph unicode="&#xf5;" horiz-adv-x="1251" d="M88 377q0 211 85 381.5t240 268t351 97.5q211 0 332 -109.5t121 -299.5q0 -214 -85 -380.5t-240 -259.5t-355 -93q-205 0 -327 105t-122 290zM381 434q0 -107 56.5 -165t150.5 -58q142 0 239 129.5t97 314.5q0 109 -55.5 174.5t-149.5 65.5q-139 0 -238.5 -134 t-99.5 -327zM438 1262q35 115 99.5 177t148.5 62q38 0 66 -6.5t79 -28.5l103 -43q10 -4 22.5 -10t17 -7.5t11.5 -2.5t16 0q68 0 111 104h111q-35 -126 -107.5 -188t-165.5 -62q-63 0 -104 23l-103 51q-64 29 -90 29q-54 0 -104 -98h-111z" />
<glyph unicode="&#xf6;" horiz-adv-x="1251" d="M88 377q0 211 85 381.5t240 268t351 97.5q211 0 332 -109.5t121 -299.5q0 -214 -85 -380.5t-240 -259.5t-355 -93q-205 0 -327 105t-122 290zM381 434q0 -107 56.5 -165t150.5 -58q142 0 239 129.5t97 314.5q0 109 -55.5 174.5t-149.5 65.5q-139 0 -238.5 -134 t-99.5 -327zM483 1266l52 235h258l-52 -235h-258zM883 1266l51 235h258l-51 -235h-258z" />
<glyph unicode="&#xf7;" horiz-adv-x="1196" d="M152 410v204h950v-204h-950zM473 139q0 63 45.5 108.5t108.5 45.5t108 -45.5t45 -108.5q0 -64 -45 -108.5t-108 -44.5t-108.5 44.5t-45.5 108.5zM473 885q0 64 45.5 108.5t108.5 44.5t108 -44.5t45 -108.5q0 -63 -45 -108.5t-108 -45.5t-108.5 45.5t-45.5 108.5z" />
<glyph unicode="&#xf8;" horiz-adv-x="1251" d="M20 113l105 88q-37 82 -37 176q0 211 85 381.5t240 268t351 97.5q203 0 321 -100l103 88l100 -119l-108 -92q37 -81 37 -186q0 -214 -85 -380.5t-240 -259.5t-355 -93q-195 0 -318 96l-98 -84zM381 434l2 -12l481 412q-55 61 -145 61q-139 0 -238.5 -134t-99.5 -327z M440 266q52 -55 148 -55q142 0 239 129.5t97 314.5v25z" />
<glyph unicode="&#xf9;" horiz-adv-x="1251" d="M104 252q0 50 13 113l157 741h287l-137 -641q-8 -35 -12 -100q0 -75 39.5 -114.5t115.5 -39.5q100 0 174.5 73.5t100.5 198.5l133 623h287l-236 -1106h-287l33 154q-80 -89 -168 -130.5t-201 -41.5q-135 0 -217 73.5t-82 196.5zM512 1540h319l76 -315h-205z" />
<glyph unicode="&#xfa;" horiz-adv-x="1251" d="M104 252q0 50 13 113l157 741h287l-137 -641q-8 -35 -12 -100q0 -75 39.5 -114.5t115.5 -39.5q100 0 174.5 73.5t100.5 198.5l133 623h287l-236 -1106h-287l33 154q-80 -89 -168 -130.5t-201 -41.5q-135 0 -217 73.5t-82 196.5zM702 1225l209 315h320l-324 -315h-205z " />
<glyph unicode="&#xfb;" horiz-adv-x="1251" d="M104 252q0 50 13 113l157 741h287l-137 -641q-8 -35 -12 -100q0 -75 39.5 -114.5t115.5 -39.5q100 0 174.5 73.5t100.5 198.5l133 623h287l-236 -1106h-287l33 154q-80 -89 -168 -130.5t-201 -41.5q-135 0 -217 73.5t-82 196.5zM459 1225l286 315h261l145 -315h-180 l-135 157l-201 -157h-176z" />
<glyph unicode="&#xfc;" horiz-adv-x="1251" d="M104 252q0 50 13 113l157 741h287l-137 -641q-8 -35 -12 -100q0 -75 39.5 -114.5t115.5 -39.5q100 0 174.5 73.5t100.5 198.5l133 623h287l-236 -1106h-287l33 154q-80 -89 -168 -130.5t-201 -41.5q-135 0 -217 73.5t-82 196.5zM483 1266l52 235h258l-52 -235h-258z M883 1266l51 235h258l-51 -235h-258z" />
<glyph unicode="&#xfd;" d="M-6 -440l47 223q23 -4 57 -4q106 0 169 51.5t63 138.5l-158 1137h315l74 -805l400 805h294l-733 -1307q-45 -81 -88 -129.5t-97 -75t-110 -35t-143 -8.5q-50 0 -90 9zM645 1225l209 315h320l-324 -315h-205z" />
<glyph unicode="&#xfe;" horiz-adv-x="1251" d="M-59 -446l411 1939h287l-117 -551q141 182 346 182q161 0 258 -115t97 -307q2 -141 -44.5 -273.5t-126 -230.5t-191 -157t-232.5 -59q-210 0 -273 178l-129 -606h-286zM428 442q0 -104 49 -167.5t131 -63.5q86 0 162 64.5t119.5 169t40.5 217.5q0 106 -49 169.5 t-131 63.5q-133 0 -227.5 -131t-94.5 -322z" />
<glyph unicode="&#xff;" d="M-6 -440l47 223q23 -4 57 -4q106 0 169 51.5t63 138.5l-158 1137h315l74 -805l400 805h294l-733 -1307q-45 -81 -88 -129.5t-97 -75t-110 -35t-143 -8.5q-50 0 -90 9zM426 1266l51 235h258l-51 -235h-258zM825 1266l52 235h258l-52 -235h-258z" />
<glyph unicode="&#x100;" horiz-adv-x="1478" d="M-29 0l834 1493h354l199 -1493h-314l-36 301h-557l-166 -301h-314zM592 557h387l-72 580zM707 1667l34 164h615l-35 -164h-614z" />
<glyph unicode="&#x101;" d="M23 236q0 152 109.5 261.5t301.5 139.5l119 18q28 4 61 9t45 7l27 4.5t21.5 5.5t14.5 6.5t19 10.5q31 15 50.5 46t19.5 63q0 46 -35.5 67t-113.5 21q-99 0 -151.5 -35t-78.5 -119h-268q43 200 173.5 291.5t371.5 91.5q191 0 292 -65.5t101 -181.5q0 -37 -12 -93 l-129 -614q-7 -28 -7 -43q0 -43 43 -92l-8 -35h-313q-14 32 -14 55q0 29 8 70q-89 -80 -167 -111.5t-171 -31.5q-143 0 -226 70t-83 184zM315 299q0 -49 38 -68.5t116 -19.5q103 0 175.5 68.5t98.5 193.5l11 49q-28 -15 -37.5 -18t-59.5 -10l-135 -23q-207 -36 -207 -172z M432 1300l35 164h614l-34 -164h-615z" />
<glyph unicode="&#x102;" horiz-adv-x="1478" d="M-29 0l834 1493h354l199 -1493h-314l-36 301h-557l-166 -301h-314zM592 557h387l-72 580zM745 1882h105q-4 -30 2.5 -50.5t17.5 -31t39 -16t47 -6t61 -0.5h15q100 0 161.5 23t90.5 81h102q-25 -114 -137 -189t-258 -75q-145 0 -218 80t-28 184z" />
<glyph unicode="&#x103;" d="M23 236q0 152 109.5 261.5t301.5 139.5l119 18q28 4 61 9t45 7l27 4.5t21.5 5.5t14.5 6.5t19 10.5q31 15 50.5 46t19.5 63q0 46 -35.5 67t-113.5 21q-99 0 -151.5 -35t-78.5 -119h-268q43 200 173.5 291.5t371.5 91.5q191 0 292 -65.5t101 -181.5q0 -37 -12 -93 l-129 -614q-7 -28 -7 -43q0 -43 43 -92l-8 -35h-313q-14 32 -14 55q0 29 8 70q-89 -80 -167 -111.5t-171 -31.5q-143 0 -226 70t-83 184zM315 299q0 -49 38 -68.5t116 -19.5q103 0 175.5 68.5t98.5 193.5l11 49q-28 -15 -37.5 -18t-59.5 -10l-135 -23q-207 -36 -207 -172z M510 1460q0 36 12 80h86v-16q0 -55 40 -86t112 -31q158 0 211 133h86q-22 -128 -118.5 -220.5t-215.5 -92.5q-95 0 -154 67.5t-59 165.5z" />
<glyph unicode="&#x104;" horiz-adv-x="1478" d="M-29 0l834 1493h354l199 -1493q-129 0 -238 -106q-57 -57 -57 -107q0 -74 96 -74h129l-31 -184h-137q-126 0 -194 41t-68 123q0 88 50.5 171t135.5 136l-36 301h-557l-166 -301h-314zM592 557h387l-72 580z" />
<glyph unicode="&#x105;" d="M23 236q0 152 109.5 261.5t301.5 139.5l119 18q28 4 61 9t45 7l27 4.5t21.5 5.5t14.5 6.5t19 10.5q31 15 50.5 46t19.5 63q0 46 -35.5 67t-113.5 21q-99 0 -151.5 -35t-78.5 -119h-268q43 200 173.5 291.5t371.5 91.5q191 0 292 -65.5t101 -181.5q0 -37 -12 -93 l-129 -614q-7 -28 -7 -43q0 -43 43 -92l-8 -35q-114 -3 -213 -86q-82 -69 -82 -127q0 -74 97 -74h129l-31 -184h-137q-126 0 -194.5 41t-68.5 123q0 87 51 170.5t136 136.5q-14 32 -14 55q0 29 8 70q-89 -80 -167 -111.5t-171 -31.5q-143 0 -226 70t-83 184zM315 299 q0 -49 38 -68.5t116 -19.5q103 0 175.5 68.5t98.5 193.5l11 49q-28 -15 -37.5 -18t-59.5 -10l-135 -23q-207 -36 -207 -172z" />
<glyph unicode="&#x106;" horiz-adv-x="1478" d="M139 494q0 218 68.5 409.5t185.5 326t277.5 211.5t339.5 77q238 0 385 -118.5t147 -309.5q0 -27 -8 -103h-289q0 268 -270 268q-246 0 -387 -223q-144 -224 -144 -479q0 -315 304 -315q312 0 397 272h293q-67 -260 -258.5 -397.5t-474.5 -137.5q-264 0 -415 137t-151 382 zM922 1610l249 276h353l-389 -276h-213z" />
<glyph unicode="&#x107;" d="M78 367q0 145 56.5 299t148.5 264q159 194 450 194q180 0 294 -98t114 -246q0 -23 -8 -88h-275q-3 119 -41 161t-127 42q-98 0 -172.5 -71.5t-110.5 -181t-36 -234.5q0 -104 46 -150.5t140 -46.5q89 0 140 34t96 138h274q-63 -202 -203 -301.5t-342 -99.5 q-212 0 -328 106t-116 279zM645 1225l209 315h320l-324 -315h-205z" />
<glyph unicode="&#x108;" horiz-adv-x="1478" d="M139 494q0 218 68.5 409.5t185.5 326t277.5 211.5t339.5 77q238 0 385 -118.5t147 -309.5q0 -27 -8 -103h-289q0 268 -270 268q-246 0 -387 -223q-144 -224 -144 -479q0 -315 304 -315q312 0 397 272h293q-67 -260 -258.5 -397.5t-474.5 -137.5q-264 0 -415 137t-151 382 zM639 1614l342 270h264l176 -270h-176l-168 108l-252 -108h-186z" />
<glyph unicode="&#x109;" d="M78 367q0 145 56.5 299t148.5 264q159 194 450 194q180 0 294 -98t114 -246q0 -23 -8 -88h-275q-3 119 -41 161t-127 42q-98 0 -172.5 -71.5t-110.5 -181t-36 -234.5q0 -104 46 -150.5t140 -46.5q89 0 140 34t96 138h274q-63 -202 -203 -301.5t-342 -99.5 q-212 0 -328 106t-116 279zM401 1225l287 315h260l146 -315h-181l-135 157l-200 -157h-177z" />
<glyph unicode="&#x10a;" horiz-adv-x="1478" d="M139 494q0 218 68.5 409.5t185.5 326t277.5 211.5t339.5 77q238 0 385 -118.5t147 -309.5q0 -27 -8 -103h-289q0 268 -270 268q-246 0 -387 -223q-144 -224 -144 -479q0 -315 304 -315q312 0 397 272h293q-67 -260 -258.5 -397.5t-474.5 -137.5q-264 0 -415 137t-151 382 zM889 1616l55 268h287l-55 -268h-287z" />
<glyph unicode="&#x10b;" d="M78 367q0 145 56.5 299t148.5 264q159 194 450 194q180 0 294 -98t114 -246q0 -23 -8 -88h-275q-3 119 -41 161t-127 42q-98 0 -172.5 -71.5t-110.5 -181t-36 -234.5q0 -104 46 -150.5t140 -46.5q89 0 140 34t96 138h274q-63 -202 -203 -301.5t-342 -99.5 q-212 0 -328 106t-116 279zM610 1249l56 269h286l-55 -269h-287z" />
<glyph unicode="&#x10c;" horiz-adv-x="1478" d="M139 494q0 218 68.5 409.5t185.5 326t277.5 211.5t339.5 77q238 0 385 -118.5t147 -309.5q0 -27 -8 -103h-289q0 268 -270 268q-246 0 -387 -223q-144 -224 -144 -479q0 -315 304 -315q312 0 397 272h293q-67 -260 -258.5 -397.5t-474.5 -137.5q-264 0 -415 137t-151 382 zM696 1884h176l168 -108l252 108h187l-342 -270h-265z" />
<glyph unicode="&#x10d;" d="M78 367q0 145 56.5 299t148.5 264q159 194 450 194q180 0 294 -98t114 -246q0 -23 -8 -88h-275q-3 119 -41 161t-127 42q-98 0 -172.5 -71.5t-110.5 -181t-36 -234.5q0 -104 46 -150.5t140 -46.5q89 0 140 34t96 138h274q-63 -202 -203 -301.5t-342 -99.5 q-212 0 -328 106t-116 279zM467 1540h180l135 -158l201 158h176l-287 -315h-260z" />
<glyph unicode="&#x10e;" horiz-adv-x="1478" d="M76 0l317 1493h584q278 0 404 -121.5t126 -390.5q0 -181 -60 -362t-169 -332q-113 -155 -254.5 -221t-364.5 -66h-583zM438 256h275q134 0 217 48t149 163q53 91 88 232t35 262q0 276 -280 276h-277zM668 1884h176l168 -108l252 108h186l-342 -270h-264z" />
<glyph unicode="&#x10f;" horiz-adv-x="1251" d="M82 393q0 107 28.5 213.5t82.5 199t126.5 164t166 113t194.5 41.5q105 0 171 -39t101 -122l113 530h287l-318 -1493h-286l26 127q-139 -145 -336 -145q-162 0 -259 110t-97 301zM375 436q0 -108 49 -166.5t133 -58.5q132 0 226 130t94 321q0 107 -49 170t-132 63 q-84 0 -158 -62.5t-118.5 -169t-44.5 -227.5zM1368 987l21 94q68 12 116.5 63t57.5 120h-138l50 229h249l-43 -197q-15 -120 -105.5 -210t-207.5 -99z" />
<glyph unicode="&#x110;" horiz-adv-x="1478" d="M68 698l34 164h156l135 631h584q278 0 404 -121.5t126 -390.5q0 -181 -60 -362t-169 -332q-113 -155 -254.5 -221t-364.5 -66h-583l149 698h-157zM438 256h275q134 0 217 48t149 163q53 91 88 232t35 262q0 276 -280 276h-277l-80 -375h357l-35 -164h-355z" />
<glyph unicode="&#x111;" horiz-adv-x="1251" d="M82 393q0 255 158 484q82 116 199 181.5t241 65.5q105 0 171 -39t101 -122l56 258h-287l29 137h286l29 135h287l-29 -135h123l-29 -137h-123l-260 -1221h-286l30 141q-137 -159 -340 -159q-162 0 -259 110t-97 301zM375 436q0 -108 49 -166.5t133 -58.5q132 0 226 130 t94 321q0 106 -49 169.5t-132 63.5q-84 0 -158 -62.5t-118.5 -169t-44.5 -227.5z" />
<glyph unicode="&#x112;" horiz-adv-x="1366" d="M80 0l317 1493h1082l-56 -256h-774l-71 -338h714l-53 -256h-715l-82 -387h809l-55 -256h-1116zM662 1667l34 164h615l-35 -164h-614z" />
<glyph unicode="&#x113;" d="M51 393q0 144 44 275t124.5 233t203.5 162.5t271 60.5q199 0 316.5 -116t117.5 -289q0 -117 -34 -242h-744q-2 -19 -2 -78q0 -85 53.5 -136.5t141.5 -51.5q70 0 132.5 30t90.5 70h283q-81 -151 -230 -240t-332 -89q-194 0 -315 111.5t-121 299.5zM387 668h451v30 q0 105 -45.5 151t-133.5 46q-103 0 -171 -54t-101 -173zM451 1300l34 164h615l-35 -164h-614z" />
<glyph unicode="&#x114;" horiz-adv-x="1366" d="M80 0l317 1493h1082l-56 -256h-774l-71 -338h714l-53 -256h-715l-82 -387h809l-55 -256h-1116zM700 1882h105q-4 -30 2.5 -50.5t17.5 -31t39 -16t47 -6t61 -0.5h15q101 0 162 23t90 81h102q-25 -114 -137 -189t-258 -75q-145 0 -218 80t-28 184z" />
<glyph unicode="&#x115;" d="M51 393q0 144 44 275t124.5 233t203.5 162.5t271 60.5q199 0 316.5 -116t117.5 -289q0 -117 -34 -242h-744q-2 -19 -2 -78q0 -85 53.5 -136.5t141.5 -51.5q70 0 132.5 30t90.5 70h283q-81 -151 -230 -240t-332 -89q-194 0 -315 111.5t-121 299.5zM387 668h451v30 q0 105 -45.5 151t-133.5 46q-103 0 -171 -54t-101 -173zM528 1460q0 32 13 80h86v-16q0 -56 39.5 -86.5t111.5 -30.5q158 0 211 133h86q-22 -128 -118.5 -220.5t-215.5 -92.5q-95 0 -154 67.5t-59 165.5z" />
<glyph unicode="&#x116;" horiz-adv-x="1366" d="M80 0l317 1493h1082l-56 -256h-774l-71 -338h714l-53 -256h-715l-82 -387h809l-55 -256h-1116zM823 1616l56 268h286l-55 -268h-287z" />
<glyph unicode="&#x117;" d="M51 393q0 144 44 275t124.5 233t203.5 162.5t271 60.5q199 0 316.5 -116t117.5 -289q0 -117 -34 -242h-744q-2 -19 -2 -78q0 -85 53.5 -136.5t141.5 -51.5q70 0 132.5 30t90.5 70h283q-81 -151 -230 -240t-332 -89q-194 0 -315 111.5t-121 299.5zM387 668h451v30 q0 105 -45.5 151t-133.5 46q-103 0 -171 -54t-101 -173zM610 1249l56 269h286l-55 -269h-287z" />
<glyph unicode="&#x118;" horiz-adv-x="1366" d="M80 0l317 1493h1082l-56 -256h-774l-71 -338h714l-53 -256h-715l-82 -387h809l-55 -256q-124 0 -235 -106q-58 -58 -58 -107q0 -74 96 -74h129l-30 -184h-137q-126 0 -194.5 41t-68.5 123q0 89 62.5 167t159.5 140h-840z" />
<glyph unicode="&#x119;" d="M51 393q0 144 44 275t124.5 233t203.5 162.5t271 60.5q199 0 316.5 -116t117.5 -289q0 -117 -34 -242h-744q-2 -19 -2 -78q0 -85 53.5 -136.5t141.5 -51.5q70 0 132.5 30t90.5 70h283q-47 -90 -121 -159.5t-166 -110.5q-99 -46 -164.5 -112t-65.5 -142q0 -74 97 -74h129 l-31 -184h-137q-126 0 -194 41t-68 123q0 156 194 289h-35q-194 0 -315 111.5t-121 299.5zM387 668h451v30q0 105 -45.5 151t-133.5 46q-103 0 -171 -54t-101 -173z" />
<glyph unicode="&#x11a;" horiz-adv-x="1366" d="M80 0l317 1493h1082l-56 -256h-774l-71 -338h714l-53 -256h-715l-82 -387h809l-55 -256h-1116zM631 1884h176l168 -108l252 108h186l-342 -270h-264z" />
<glyph unicode="&#x11b;" d="M51 393q0 144 44 275t124.5 233t203.5 162.5t271 60.5q199 0 316.5 -116t117.5 -289q0 -117 -34 -242h-744q-2 -19 -2 -78q0 -85 53.5 -136.5t141.5 -51.5q70 0 132.5 30t90.5 70h283q-81 -151 -230 -240t-332 -89q-194 0 -315 111.5t-121 299.5zM387 668h451v30 q0 105 -45.5 151t-133.5 46q-103 0 -171 -54t-101 -173zM467 1540h180l135 -158l201 158h176l-287 -315h-260z" />
<glyph unicode="&#x11c;" horiz-adv-x="1593" d="M139 549q0 187 69.5 363.5t188 310t287 214.5t354.5 81q250 0 403.5 -120.5t153.5 -314.5q0 -9 -4 -67h-282q-12 115 -97 177t-231 62q-154 0 -277.5 -87.5t-191.5 -238.5t-68 -335q0 -157 99.5 -256.5t251.5 -99.5q94 0 179 32t155.5 103.5t103.5 173.5h-340l55 256h598 l-172 -803h-184l16 193q-112 -120 -221 -169t-254 -49q-271 0 -431.5 154t-160.5 420zM668 1614l342 270h264l176 -270h-176l-168 108l-252 -108h-186z" />
<glyph unicode="&#x11d;" horiz-adv-x="1251" d="M-29 -197q0 27 6 64h295l-2 -25q0 -44 50.5 -74t125.5 -30q112 0 194.5 62.5t104.5 162.5l35 164q-97 -81 -169.5 -113t-166.5 -32q-157 0 -259.5 103.5t-102.5 270.5q0 199 79 375t220.5 284.5t310.5 108.5q179 0 260 -188l37 170h273l-244 -1143 q-41 -196 -202.5 -302.5t-416.5 -106.5q-201 0 -314.5 66t-113.5 183zM375 426q0 -104 47.5 -159.5t128.5 -55.5q138 0 235 124.5t97 309.5q0 114 -51.5 182t-137.5 68q-83 0 -156.5 -64t-118 -173t-44.5 -232zM459 1225l286 315h261l145 -315h-180l-135 157l-201 -157h-176 z" />
<glyph unicode="&#x11e;" horiz-adv-x="1593" d="M139 549q0 187 69.5 363.5t188 310t287 214.5t354.5 81q250 0 403.5 -120.5t153.5 -314.5q0 -9 -4 -67h-282q-12 115 -97 177t-231 62q-154 0 -277.5 -87.5t-191.5 -238.5t-68 -335q0 -157 99.5 -256.5t251.5 -99.5q94 0 179 32t155.5 103.5t103.5 173.5h-340l55 256h598 l-172 -803h-184l16 193q-112 -120 -221 -169t-254 -49q-271 0 -431.5 154t-160.5 420zM797 1882h104q-4 -30 2.5 -50.5t17.5 -31t39 -16t47 -6t61 -0.5h15q101 0 162 23t90 81h103q-25 -114 -137.5 -189t-258.5 -75q-145 0 -217.5 80t-27.5 184z" />
<glyph unicode="&#x11f;" horiz-adv-x="1251" d="M-29 -197q0 27 6 64h295l-2 -25q0 -44 50.5 -74t125.5 -30q112 0 194.5 62.5t104.5 162.5l35 164q-97 -81 -169.5 -113t-166.5 -32q-157 0 -259.5 103.5t-102.5 270.5q0 199 79 375t220.5 284.5t310.5 108.5q179 0 260 -188l37 170h273l-244 -1143 q-41 -196 -202.5 -302.5t-416.5 -106.5q-201 0 -314.5 66t-113.5 183zM375 426q0 -104 47.5 -159.5t128.5 -55.5q138 0 235 124.5t97 309.5q0 114 -51.5 182t-137.5 68q-83 0 -156.5 -64t-118 -173t-44.5 -232zM586 1460q0 36 12 80h86v-16q0 -55 40 -86t112 -31 q158 0 211 133h86q-22 -128 -118.5 -220.5t-215.5 -92.5q-95 0 -154 67.5t-59 165.5z" />
<glyph unicode="&#x120;" horiz-adv-x="1593" d="M139 549q0 187 69.5 363.5t188 310t287 214.5t354.5 81q250 0 403.5 -120.5t153.5 -314.5q0 -9 -4 -67h-282q-12 115 -97 177t-231 62q-154 0 -277.5 -87.5t-191.5 -238.5t-68 -335q0 -157 99.5 -256.5t251.5 -99.5q94 0 179 32t155.5 103.5t103.5 173.5h-340l55 256h598 l-172 -803h-184l16 193q-112 -120 -221 -169t-254 -49q-271 0 -431.5 154t-160.5 420zM918 1616l55 268h287l-56 -268h-286z" />
<glyph unicode="&#x121;" horiz-adv-x="1251" d="M-29 -197q0 27 6 64h295l-2 -25q0 -44 50.5 -74t125.5 -30q112 0 194.5 62.5t104.5 162.5l35 164q-97 -81 -169.5 -113t-166.5 -32q-157 0 -259.5 103.5t-102.5 270.5q0 199 79 375t220.5 284.5t310.5 108.5q179 0 260 -188l37 170h273l-244 -1143 q-41 -196 -202.5 -302.5t-416.5 -106.5q-201 0 -314.5 66t-113.5 183zM375 426q0 -104 47.5 -159.5t128.5 -55.5q138 0 235 124.5t97 309.5q0 114 -51.5 182t-137.5 68q-83 0 -156.5 -64t-118 -173t-44.5 -232zM668 1249l55 269h287l-56 -269h-286z" />
<glyph unicode="&#x122;" horiz-adv-x="1593" d="M139 549q0 187 69.5 363.5t188 310t287 214.5t354.5 81q250 0 403.5 -120.5t153.5 -314.5q0 -9 -4 -67h-282q-12 115 -97 177t-231 62q-154 0 -277.5 -87.5t-191.5 -238.5t-68 -335q0 -157 99.5 -256.5t251.5 -99.5q94 0 179 32t155.5 103.5t103.5 173.5h-340l55 256h598 l-172 -803h-184l16 193q-112 -120 -221 -169t-254 -49q-271 0 -431.5 154t-160.5 420zM453 -629l20 94q68 12 116.5 63t57.5 120h-137l49 229h250l-43 -196q-15 -120 -105.5 -210.5t-207.5 -99.5z" />
<glyph unicode="&#x123;" horiz-adv-x="1251" d="M-29 -197q0 27 6 64h295l-2 -25q0 -44 50.5 -74t125.5 -30q112 0 194.5 62.5t104.5 162.5l35 164q-97 -81 -169.5 -113t-166.5 -32q-157 0 -259.5 103.5t-102.5 270.5q0 199 79 375t220.5 284.5t310.5 108.5q179 0 260 -188l37 170h273l-244 -1143 q-41 -196 -202.5 -302.5t-416.5 -106.5q-201 0 -314.5 66t-113.5 183zM375 426q0 -104 47.5 -159.5t128.5 -55.5q138 0 235 124.5t97 309.5q0 114 -51.5 182t-137.5 68q-83 0 -156.5 -64t-118 -173t-44.5 -232zM674 1192l43 197q15 120 105.5 210t207.5 99l-20 -94 q-68 -12 -116.5 -63t-57.5 -120h137l-49 -229h-250z" />
<glyph unicode="&#x124;" horiz-adv-x="1478" d="M57 0l318 1493h307l-119 -559h590l119 559h309l-317 -1493h-308l144 678h-592l-143 -678h-308zM612 1614l342 270h265l176 -270h-176l-168 108l-252 -108h-187z" />
<glyph unicode="&#x125;" horiz-adv-x="1251" d="M55 0l318 1493h286l-118 -555q82 97 170.5 141.5t197.5 44.5q134 0 215.5 -74.5t81.5 -195.5q0 -54 -12 -113l-158 -741h-286l137 641q8 42 12 98q0 75 -38.5 115.5t-110.5 40.5q-99 0 -174 -74t-101 -198l-133 -623h-287zM496 1614l342 270h264l176 -270h-176l-168 108 l-252 -108h-186z" />
<glyph unicode="&#x126;" horiz-adv-x="1478" d="M57 0l240 1124h-154l29 140h154l49 229h307l-49 -229h590l49 229h309l-49 -229h154l-29 -140h-154l-239 -1124h-308l144 678h-592l-143 -678h-308zM563 934h590l41 190h-590z" />
<glyph unicode="&#x127;" horiz-adv-x="1370" d="M184 0l230 1077l-154 -45l31 148l153 43l58 270h286l-38 -182l215 61l-31 -145l-215 -64l-49 -225q82 97 170.5 141.5t197.5 44.5q134 0 215.5 -74.5t81.5 -195.5q0 -54 -12 -113l-158 -741h-286l137 641q8 42 12 98q0 75 -38.5 115.5t-110.5 40.5q-99 0 -174 -74 t-101 -198l-133 -623h-287z" />
<glyph unicode="&#x128;" horiz-adv-x="569" d="M47 0l318 1493h307l-318 -1493h-307zM174 1628q35 115 100 177.5t148 62.5q38 0 66 -6.5t79 -28.5l103 -43q11 -4 23 -10t16.5 -7.5t11.5 -3t16 -0.5q67 0 111 105h110q-35 -126 -107 -188t-165 -62q-63 0 -104 23l-103 51q-62 28 -90 28q-54 0 -104 -98h-111z" />
<glyph unicode="&#x129;" horiz-adv-x="569" d="M55 0l236 1106h287l-236 -1106h-287zM92 1262q35 115 99.5 177t148.5 62q38 0 66 -6.5t79 -28.5l103 -43q10 -4 22.5 -10t17 -7.5t11.5 -2.5t16 0q68 0 111 104h111q-35 -126 -107.5 -188t-165.5 -62q-63 0 -104 23l-103 51q-64 29 -90 29q-54 0 -104 -98h-111z" />
<glyph unicode="&#x12a;" horiz-adv-x="569" d="M47 0l318 1493h307l-318 -1493h-307zM242 1667l34 164h615l-35 -164h-614z" />
<glyph unicode="&#x12b;" horiz-adv-x="569" d="M55 0l236 1106h287l-236 -1106h-287zM162 1300l35 164h614l-35 -164h-614z" />
<glyph unicode="&#x12c;" horiz-adv-x="569" d="M47 0l318 1493h307l-318 -1493h-307zM281 1882h104q-4 -30 2.5 -50.5t17.5 -31t39 -16t47 -6t61 -0.5h15q101 0 162 23t90 81h103q-25 -114 -137.5 -189t-258.5 -75q-145 0 -217.5 80t-27.5 184z" />
<glyph unicode="&#x12d;" horiz-adv-x="569" d="M55 0l236 1106h287l-236 -1106h-287zM240 1460q0 36 12 80h86v-16q0 -56 39.5 -86.5t111.5 -30.5q158 0 211 133h86q-22 -128 -118 -220.5t-215 -92.5q-95 0 -154 67.5t-59 165.5z" />
<glyph unicode="&#x12e;" horiz-adv-x="569" d="M-104 -307q0 166 221 307h-70l318 1493h307l-318 -1493q-108 -21 -196 -106q-58 -58 -58 -107q0 -74 97 -74h129l-31 -184h-137q-126 0 -194 41t-68 123z" />
<glyph unicode="&#x12f;" horiz-adv-x="569" d="M-96 -307q0 166 221 307h-70l236 1106h287l-236 -1106q-100 -32 -174 -106q-59 -59 -59 -107q0 -74 96 -74h129l-31 -184h-137q-126 0 -194 41t-68 123zM326 1249l55 269h287l-56 -269h-286z" />
<glyph unicode="&#x130;" horiz-adv-x="569" d="M47 0l318 1493h307l-318 -1493h-307zM403 1616l56 268h286l-55 -268h-287z" />
<glyph unicode="&#x131;" horiz-adv-x="569" d="M55 0l236 1106h287l-236 -1106h-287z" />
<glyph unicode="&#x134;" d="M43 295q0 70 14 133l27 125h307l-29 -135q-8 -36 -8 -70q0 -49 37.5 -79.5t97.5 -30.5q165 0 203 174l232 1081h307l-232 -1081q-48 -227 -191.5 -332t-379.5 -105q-180 0 -282.5 85.5t-102.5 234.5zM711 1614l342 270h264l176 -270h-176l-168 108l-252 -108h-186z" />
<glyph unicode="&#x135;" horiz-adv-x="569" d="M-170 -436l49 227q11 -8 51 -8q46 0 70.5 20.5t34.5 69.5l262 1233h287l-277 -1299q-29 -134 -119.5 -193.5t-265.5 -59.5q-56 0 -92 10zM119 1225l287 315h260l145 -315h-180l-135 157l-201 -157h-176z" />
<glyph unicode="&#x136;" horiz-adv-x="1478" d="M70 0l317 1493h307l-139 -655l725 655h365l-740 -653l481 -840h-366l-354 643l-187 -164l-102 -479h-307zM367 -629l20 94q68 12 116.5 63t57.5 120h-137l49 229h250l-43 -196q-15 -120 -105.5 -210.5t-207.5 -99.5z" />
<glyph unicode="&#x137;" d="M39 0l317 1493h287l-174 -817l457 430h325l-475 -422l264 -684h-335l-162 489l-140 -127l-77 -362h-287zM225 -629l21 94q68 12 116.5 63t57.5 120h-137l49 229h250l-43 -196q-15 -120 -106 -210.5t-208 -99.5z" />
<glyph unicode="&#x139;" horiz-adv-x="1251" d="M82 0l317 1493h308l-263 -1237h715l-55 -256h-1022zM424 1610l250 276h352l-389 -276h-213z" />
<glyph unicode="&#x13a;" horiz-adv-x="569" d="M55 0l318 1493h286l-317 -1493h-287zM397 1610l250 276h352l-389 -276h-213z" />
<glyph unicode="&#x13b;" horiz-adv-x="1251" d="M82 0l317 1493h308l-263 -1237h715l-55 -256h-1022zM332 -629l20 94q68 12 116.5 63t57.5 120h-137l49 229h250l-43 -196q-15 -120 -105.5 -210.5t-207.5 -99.5z" />
<glyph unicode="&#x13c;" horiz-adv-x="569" d="M-59 -629l20 94q68 12 116.5 63t57.5 120h-137l49 229h250l-43 -196q-15 -120 -105.5 -210.5t-207.5 -99.5zM55 0l318 1493h286l-317 -1493h-287z" />
<glyph unicode="&#x13d;" horiz-adv-x="1251" d="M82 0l317 1493h308l-263 -1237h715l-55 -256h-1022zM723 987l20 94q68 12 117 63t58 120h-138l49 229h250l-43 -197q-15 -120 -105.5 -210t-207.5 -99z" />
<glyph unicode="&#x13e;" horiz-adv-x="569" d="M55 0l318 1493h286l-317 -1493h-287zM676 987l20 94q68 12 116.5 63t57.5 120h-137l49 229h250l-43 -197q-15 -120 -105.5 -210t-207.5 -99z" />
<glyph unicode="&#x13f;" horiz-adv-x="1251" d="M82 0l317 1493h308l-263 -1237h715l-55 -256h-1022zM854 633l55 268h287l-55 -268h-287z" />
<glyph unicode="&#x140;" horiz-adv-x="821" d="M55 0l318 1493h286l-317 -1493h-287zM600 633l55 268h287l-55 -268h-287z" />
<glyph unicode="&#x141;" horiz-adv-x="1466" d="M51 301l60 272l268 146l164 774h307l-129 -608l485 262l-57 -275l-485 -260l-76 -356h715l-56 -256h-1022l94 444z" />
<glyph unicode="&#x142;" horiz-adv-x="856" d="M68 393l53 252l248 158l147 690h287l-98 -459l266 168l-53 -252l-267 -168l-166 -782h-286l116 551z" />
<glyph unicode="&#x143;" horiz-adv-x="1478" d="M57 0l318 1493h307l393 -1055l223 1055h291l-317 -1493h-303l-394 1071l-227 -1071h-291zM899 1610l250 276h352l-389 -276h-213z" />
<glyph unicode="&#x144;" horiz-adv-x="1251" d="M47 0l236 1106h286l-37 -168q83 98 171 142t202 44q137 0 219 -73.5t82 -196.5q0 -54 -12 -113l-158 -741h-286l137 641q7 31 12 100q0 74 -39 114t-112 40q-104 0 -179.5 -73t-101.5 -199l-133 -623h-287zM702 1225l209 315h320l-324 -315h-205z" />
<glyph unicode="&#x145;" horiz-adv-x="1478" d="M57 0l318 1493h307l393 -1055l223 1055h291l-317 -1493h-303l-394 1071l-227 -1071h-291zM403 -629l21 94q68 12 116.5 63t57.5 120h-137l49 229h250l-43 -196q-15 -120 -106 -210.5t-208 -99.5z" />
<glyph unicode="&#x146;" horiz-adv-x="1251" d="M47 0l236 1106h286l-37 -168q83 98 171 142t202 44q137 0 219 -73.5t82 -196.5q0 -54 -12 -113l-158 -741h-286l137 641q7 31 12 100q0 74 -39 114t-112 40q-104 0 -179.5 -73t-101.5 -199l-133 -623h-287zM283 -629l20 94q68 12 116.5 63t57.5 120h-137l49 229h250 l-43 -196q-15 -120 -105.5 -210.5t-207.5 -99.5z" />
<glyph unicode="&#x147;" horiz-adv-x="1478" d="M57 0l318 1493h307l393 -1055l223 1055h291l-317 -1493h-303l-394 1071l-227 -1071h-291zM676 1884h176l168 -108l252 108h186l-342 -270h-264z" />
<glyph unicode="&#x148;" horiz-adv-x="1251" d="M47 0l236 1106h286l-37 -168q83 98 171 142t202 44q137 0 219 -73.5t82 -196.5q0 -54 -12 -113l-158 -741h-286l137 641q7 31 12 100q0 74 -39 114t-112 40q-104 0 -179.5 -73t-101.5 -199l-133 -623h-287zM524 1540h181l135 -158l200 158h177l-287 -315h-260z" />
<glyph unicode="&#x14a;" horiz-adv-x="1478" d="M57 0l318 1493h307l393 -1055l223 1055h291l-334 -1575q-48 -227 -191.5 -331.5t-379.5 -104.5q-180 0 -282.5 85t-102.5 234l311 54q0 -49 37.5 -80t97.5 -31q75 0 135.5 28.5t71.5 84.5l25 118l-402 1096l-227 -1071h-291z" />
<glyph unicode="&#x14b;" horiz-adv-x="1251" d="M47 0l236 1106h286l-37 -168q83 98 171 142t202 44q137 0 219 -73.5t82 -196.5q0 -54 -12 -113l-199 -934q-29 -134 -119.5 -193.5t-265.5 -59.5q-56 0 -92 10l49 227q11 -8 51 -8q46 0 70.5 20.5t34.5 69.5l164 768q7 31 12 100q0 74 -39 114t-112 40q-104 0 -179.5 -73 t-101.5 -199l-133 -623h-287z" />
<glyph unicode="&#x14c;" horiz-adv-x="1593" d="M137 547q0 176 66.5 351.5t187.5 318.5q252 301 629 301q281 0 437.5 -154.5t156.5 -431.5q0 -180 -65.5 -352.5t-184.5 -313.5q-132 -155 -283 -223t-350 -68q-275 0 -434.5 152.5t-159.5 419.5zM442 590q0 -166 90.5 -259t247.5 -93q146 0 267.5 87t191.5 238t70 332 q0 169 -87 264.5t-241 95.5q-149 0 -273.5 -92t-195 -245t-70.5 -328zM737 1667l35 164h614l-34 -164h-615z" />
<glyph unicode="&#x14d;" horiz-adv-x="1251" d="M88 377q0 211 85 381.5t240 268t351 97.5q211 0 332 -109.5t121 -299.5q0 -214 -85 -380.5t-240 -259.5t-355 -93q-205 0 -327 105t-122 290zM381 434q0 -107 56.5 -165t150.5 -58q142 0 239 129.5t97 314.5q0 109 -55.5 174.5t-149.5 65.5q-139 0 -238.5 -134 t-99.5 -327zM508 1300l35 164h614l-35 -164h-614z" />
<glyph unicode="&#x14e;" horiz-adv-x="1593" d="M137 547q0 176 66.5 351.5t187.5 318.5q252 301 629 301q281 0 437.5 -154.5t156.5 -431.5q0 -180 -65.5 -352.5t-184.5 -313.5q-132 -155 -283 -223t-350 -68q-275 0 -434.5 152.5t-159.5 419.5zM442 590q0 -166 90.5 -259t247.5 -93q146 0 267.5 87t191.5 238t70 332 q0 169 -87 264.5t-241 95.5q-149 0 -273.5 -92t-195 -245t-70.5 -328zM778 1882h105q-4 -30 2.5 -50.5t17.5 -31t39 -16t47 -6t61 -0.5h15q101 0 162 23t90 81h102q-25 -114 -137 -189t-258 -75q-145 0 -218 80t-28 184z" />
<glyph unicode="&#x14f;" horiz-adv-x="1251" d="M88 377q0 211 85 381.5t240 268t351 97.5q211 0 332 -109.5t121 -299.5q0 -214 -85 -380.5t-240 -259.5t-355 -93q-205 0 -327 105t-122 290zM381 434q0 -107 56.5 -165t150.5 -58q142 0 239 129.5t97 314.5q0 109 -55.5 174.5t-149.5 65.5q-139 0 -238.5 -134 t-99.5 -327zM586 1460q0 36 12 80h86v-16q0 -55 40 -86t112 -31q158 0 211 133h86q-22 -128 -118.5 -220.5t-215.5 -92.5q-95 0 -154 67.5t-59 165.5z" />
<glyph unicode="&#x150;" horiz-adv-x="1593" d="M137 547q0 176 66.5 351.5t187.5 318.5q252 301 629 301q281 0 437.5 -154.5t156.5 -431.5q0 -180 -65.5 -352.5t-184.5 -313.5q-132 -155 -283 -223t-350 -68q-275 0 -434.5 152.5t-159.5 419.5zM442 590q0 -166 90.5 -259t247.5 -93q146 0 267.5 87t191.5 238t70 332 q0 169 -87 264.5t-241 95.5q-149 0 -273.5 -92t-195 -245t-70.5 -328zM743 1612l211 315h258l-294 -315h-175zM1149 1612l211 315h258l-295 -315h-174z" />
<glyph unicode="&#x151;" horiz-adv-x="1251" d="M88 377q0 211 85 381.5t240 268t351 97.5q211 0 332 -109.5t121 -299.5q0 -214 -85 -380.5t-240 -259.5t-355 -93q-205 0 -327 105t-122 290zM381 434q0 -107 56.5 -165t150.5 -58q142 0 239 129.5t97 314.5q0 109 -55.5 174.5t-149.5 65.5q-139 0 -238.5 -134 t-99.5 -327zM508 1225l211 315h258l-295 -315h-174zM913 1225l211 315h258l-295 -315h-174z" />
<glyph unicode="&#x152;" horiz-adv-x="2048" d="M102 502q0 192 65.5 378t173.5 326t257 226t307 86q101 0 168.5 -30.5t124.5 -101.5l23 107h964l-55 -256h-668l-71 -338h610l-55 -256h-611l-82 -387h707l-53 -256h-1004l31 150q-87 -93 -163.5 -130.5t-178.5 -37.5q-221 0 -355.5 138.5t-134.5 381.5zM408 561 q0 -159 79 -238t222 -79q82 0 144 35t122 114l151 713q-29 78 -82 113.5t-139 35.5q-99 0 -191 -58t-159 -153t-107 -222.5t-40 -260.5z" />
<glyph unicode="&#x153;" horiz-adv-x="1933" d="M70 389q-3 199 82.5 367t242 268t348.5 100q121 0 218.5 -39t150.5 -108q70 69 176.5 108t222.5 39q192 0 309 -116.5t117 -288.5q0 -124 -36 -256h-742q-14 -62 -14 -107q5 -58 62 -101.5t141 -43.5q71 0 135 30t92 70h283q-78 -145 -234 -237t-336 -92 q-114 0 -207.5 40.5t-136.5 108.5q-80 -71 -193 -110t-237 -39q-206 0 -325 109t-119 298zM362 449q0 -107 55.5 -172.5t147.5 -65.5q142 0 239 129.5t97 314.5q0 109 -55.5 174.5t-149.5 65.5q-140 0 -237 -126.5t-97 -319.5zM1202 653h443v58q0 88 -46 136t-129 48 q-98 0 -167 -62t-101 -180z" />
<glyph unicode="&#x154;" horiz-adv-x="1478" d="M82 0l317 1493h772q160 0 257.5 -86.5t97.5 -220.5q0 -154 -80.5 -265.5t-261.5 -199.5q159 -53 159 -168q0 -69 -57 -375q-6 -30 -6 -53q0 -43 37 -70l-12 -55h-326q-16 52 -16 84q-3 69 53 270q24 99 24 125q0 113 -174 113h-352l-125 -592h-307zM569 848h371 q126 0 203.5 68t77.5 178q0 143 -226 143h-344zM852 1610l250 276h352l-389 -276h-213z" />
<glyph unicode="&#x155;" horiz-adv-x="796" d="M47 0l236 1106h286l-47 -217q72 112 166 173.5t193 61.5q18 0 34 -2l-61 -291q-56 9 -88 9q-254 0 -307 -252l-125 -588h-287zM492 1225l208 315h320l-324 -315h-204z" />
<glyph unicode="&#x156;" horiz-adv-x="1478" d="M82 0l317 1493h772q160 0 257.5 -86.5t97.5 -220.5q0 -154 -80.5 -265.5t-261.5 -199.5q159 -53 159 -168q0 -69 -57 -375q-6 -30 -6 -53q0 -43 37 -70l-12 -55h-326q-16 52 -16 84q-3 69 53 270q24 99 24 125q0 113 -174 113h-352l-125 -592h-307zM356 -629l21 94 q68 12 116.5 63t57.5 120h-137l49 229h250l-43 -196q-15 -120 -106 -210.5t-208 -99.5zM569 848h371q126 0 203.5 68t77.5 178q0 143 -226 143h-344z" />
<glyph unicode="&#x157;" horiz-adv-x="796" d="M-72 -629l21 94q68 12 116.5 63t57.5 120h-137l49 229h250l-43 -196q-15 -120 -106 -210.5t-208 -99.5zM47 0l236 1106h286l-47 -217q72 112 166 173.5t193 61.5q18 0 34 -2l-61 -291q-56 9 -88 9q-254 0 -307 -252l-125 -588h-287z" />
<glyph unicode="&#x158;" horiz-adv-x="1478" d="M82 0l317 1493h772q160 0 257.5 -86.5t97.5 -220.5q0 -154 -80.5 -265.5t-261.5 -199.5q159 -53 159 -168q0 -69 -57 -375q-6 -30 -6 -53q0 -43 37 -70l-12 -55h-326q-16 52 -16 84q-3 69 53 270q24 99 24 125q0 113 -174 113h-352l-125 -592h-307zM569 848h371 q126 0 203.5 68t77.5 178q0 143 -226 143h-344zM629 1884h176l168 -108l252 108h186l-342 -270h-264z" />
<glyph unicode="&#x159;" horiz-adv-x="796" d="M47 0l236 1106h286l-47 -217q72 112 166 173.5t193 61.5q18 0 34 -2l-61 -291q-56 9 -88 9q-254 0 -307 -252l-125 -588h-287zM313 1540h181l135 -158l200 158h177l-287 -315h-260z" />
<glyph unicode="&#x15a;" horiz-adv-x="1366" d="M78 379q0 35 8 90h299q-4 -36 -4 -47q0 -88 76.5 -136t216.5 -48q161 0 254.5 57.5t93.5 159.5q0 69 -50.5 99.5t-197.5 61.5l-201 41q-183 37 -264.5 110t-81.5 200q0 113 47 213.5t131.5 175.5t209 118.5t272.5 43.5q244 0 380 -93.5t136 -259.5q0 -46 -17 -127h-286 q4 36 4 47q0 83 -69.5 126.5t-200.5 43.5q-139 0 -220.5 -57.5t-81.5 -155.5q0 -58 51.5 -89t196.5 -60l224 -45q323 -66 323 -293q0 -263 -186.5 -421.5t-511.5 -158.5q-257 0 -404 106.5t-147 297.5zM799 1610l250 276h352l-389 -276h-213z" />
<glyph unicode="&#x15b;" d="M47 289q0 20 8 61h281q5 -139 217 -139q97 0 153 25t56 73q-2 25 -32.5 43.5t-125.5 48.5l-162 52q-264 84 -264 254q0 82 36.5 157t102.5 133t168.5 92.5t225.5 34.5q193 0 303 -79.5t110 -217.5q0 -31 -10 -77h-276q6 27 6 38q0 50 -48 78.5t-132 28.5 q-82 0 -131.5 -30t-49.5 -79q0 -31 27.5 -50t105.5 -42l197 -57q130 -37 191 -94t61 -146q0 -195 -151 -305t-414 -110q-203 0 -328 84t-125 223zM645 1225l209 315h320l-324 -315h-205z" />
<glyph unicode="&#x15c;" horiz-adv-x="1366" d="M78 379q0 35 8 90h299q-4 -36 -4 -47q0 -88 76.5 -136t216.5 -48q161 0 254.5 57.5t93.5 159.5q0 69 -50.5 99.5t-197.5 61.5l-201 41q-183 37 -264.5 110t-81.5 200q0 113 47 213.5t131.5 175.5t209 118.5t272.5 43.5q244 0 380 -93.5t136 -259.5q0 -46 -17 -127h-286 q4 36 4 47q0 83 -69.5 126.5t-200.5 43.5q-139 0 -220.5 -57.5t-81.5 -155.5q0 -58 51.5 -89t196.5 -60l224 -45q323 -66 323 -293q0 -263 -186.5 -421.5t-511.5 -158.5q-257 0 -404 106.5t-147 297.5zM516 1614l342 270h264l176 -270h-176l-168 108l-252 -108h-186z" />
<glyph unicode="&#x15d;" d="M47 289q0 20 8 61h281q5 -139 217 -139q97 0 153 25t56 73q-2 25 -32.5 43.5t-125.5 48.5l-162 52q-264 84 -264 254q0 82 36.5 157t102.5 133t168.5 92.5t225.5 34.5q193 0 303 -79.5t110 -217.5q0 -31 -10 -77h-276q6 27 6 38q0 50 -48 78.5t-132 28.5 q-82 0 -131.5 -30t-49.5 -79q0 -31 27.5 -50t105.5 -42l197 -57q130 -37 191 -94t61 -146q0 -195 -151 -305t-414 -110q-203 0 -328 84t-125 223zM401 1225l287 315h260l146 -315h-181l-135 157l-200 -157h-177z" />
<glyph unicode="&#x15e;" horiz-adv-x="1366" d="M78 379q0 35 8 90h299q-4 -36 -4 -47q0 -88 76.5 -136t216.5 -48q161 0 254.5 57.5t93.5 159.5q0 69 -50.5 99.5t-197.5 61.5l-201 41q-183 37 -264.5 110t-81.5 200q0 113 47 213.5t131.5 175.5t209 118.5t272.5 43.5q244 0 380 -93.5t136 -259.5q0 -46 -17 -127h-286 q4 36 4 47q0 83 -69.5 126.5t-200.5 43.5q-139 0 -220.5 -57.5t-81.5 -155.5q0 -58 51.5 -89t196.5 -60l224 -45q323 -66 323 -293q0 -249 -167 -405t-462 -173l-57 -92h68q60 0 95.5 -39.5t35.5 -97.5q0 -99 -84.5 -159t-223.5 -60q-69 0 -127.5 12.5t-144.5 46.5l62 105 q66 -32 108 -41.5t92 -9.5q60 0 100 21.5t40 57.5q0 32 -26 56t-65 24h-102l106 176q-233 11 -365 116.5t-132 285.5z" />
<glyph unicode="&#x15f;" d="M47 289q0 20 8 61h281q5 -139 217 -139q97 0 153 25t56 73q-2 25 -32.5 43.5t-125.5 48.5l-162 52q-264 84 -264 254q0 82 36.5 157t102.5 133t168.5 92.5t225.5 34.5q193 0 303 -79.5t110 -217.5q0 -31 -10 -77h-276q6 27 6 38q0 50 -48 78.5t-132 28.5 q-82 0 -131.5 -30t-49.5 -79q0 -31 27.5 -50t105.5 -42l197 -57q130 -37 191 -94t61 -146q0 -182 -132 -290.5t-364 -122.5l-61 -99h67q60 0 96 -39.5t36 -97.5q0 -99 -84.5 -159t-223.5 -60q-69 0 -127.5 12.5t-144.5 46.5l61 105q66 -32 108.5 -41.5t92.5 -9.5 q60 0 99.5 21.5t39.5 57.5q0 32 -25.5 56t-64.5 24h-102l110 183q-182 11 -290.5 93t-108.5 212z" />
<glyph unicode="&#x160;" horiz-adv-x="1366" d="M78 379q0 35 8 90h299q-4 -36 -4 -47q0 -88 76.5 -136t216.5 -48q161 0 254.5 57.5t93.5 159.5q0 69 -50.5 99.5t-197.5 61.5l-201 41q-183 37 -264.5 110t-81.5 200q0 113 47 213.5t131.5 175.5t209 118.5t272.5 43.5q244 0 380 -93.5t136 -259.5q0 -46 -17 -127h-286 q4 36 4 47q0 83 -69.5 126.5t-200.5 43.5q-139 0 -220.5 -57.5t-81.5 -155.5q0 -58 51.5 -89t196.5 -60l224 -45q323 -66 323 -293q0 -263 -186.5 -421.5t-511.5 -158.5q-257 0 -404 106.5t-147 297.5zM573 1884h177l168 -108l251 108h187l-342 -270h-264z" />
<glyph unicode="&#x161;" d="M47 289q0 20 8 61h281q5 -139 217 -139q97 0 153 25t56 73q-2 25 -32.5 43.5t-125.5 48.5l-162 52q-264 84 -264 254q0 82 36.5 157t102.5 133t168.5 92.5t225.5 34.5q193 0 303 -79.5t110 -217.5q0 -31 -10 -77h-276q6 27 6 38q0 50 -48 78.5t-132 28.5 q-82 0 -131.5 -30t-49.5 -79q0 -31 27.5 -50t105.5 -42l197 -57q130 -37 191 -94t61 -146q0 -195 -151 -305t-414 -110q-203 0 -328 84t-125 223zM467 1540h180l135 -158l201 158h176l-287 -315h-260z" />
<glyph unicode="&#x162;" horiz-adv-x="1251" d="M158 -412l61 105q66 -32 108.5 -41.5t92.5 -9.5q60 0 99.5 21.5t39.5 57.5q0 32 -25.5 56t-64.5 24h-102l120 199h-88l265 1237h-455l55 256h1196l-55 -256h-434l-264 -1237h-97l-71 -115h67q60 0 95.5 -39.5t35.5 -97.5q0 -99 -84.5 -159t-222.5 -60q-69 0 -127.5 12.5 t-144.5 46.5z" />
<glyph unicode="&#x163;" horiz-adv-x="681" d="M-68 -412l62 105q66 -32 108.5 -41.5t92.5 -9.5q60 0 99.5 21.5t39.5 57.5q0 32 -25.5 56t-64.5 24h-103l121 201q-131 28 -131 152q0 36 10 84l138 655h-142l41 190h141l64 297h287l-64 -297h160l-41 -190h-160l-121 -578q-12 -53 -12 -69q0 -23 21.5 -37t56.5 -14 q24 0 68 6l-41 -201q-102 -8 -158 -8l-66 -107h68q60 0 95.5 -39.5t35.5 -97.5q0 -99 -84.5 -159t-222.5 -60q-69 0 -128 12.5t-145 46.5z" />
<glyph unicode="&#x164;" horiz-adv-x="1251" d="M209 1237l55 256h1196l-55 -256h-434l-264 -1237h-308l265 1237h-455zM563 1884h176l168 -108l252 108h187l-342 -270h-265z" />
<glyph unicode="&#x165;" horiz-adv-x="681" d="M131 154q0 36 10 84l138 655h-142l41 190h141l64 297h287l-64 -297h160l-41 -190h-160l-121 -578q-12 -53 -12 -69q0 -23 21.5 -37t56.5 -14q24 0 68 6l-41 -201q-110 -8 -172 -8q-234 0 -234 162zM688 1167l21 95q68 12 116.5 62.5t57.5 119.5h-138l50 229h249l-43 -196 q-15 -120 -105.5 -210.5t-207.5 -99.5z" />
<glyph unicode="&#x168;" horiz-adv-x="1478" d="M166 365q0 73 22 180l203 948h307l-211 -989q-10 -41 -10 -92q0 -82 66 -128t186 -46q140 0 219.5 64t108.5 202l211 989h307l-211 -989q-56 -257 -241 -393t-451 -136q-232 0 -369 105.5t-137 284.5zM639 1628q35 115 100 177.5t148 62.5q38 0 66 -6.5t79 -28.5l103 -43 q11 -4 23 -10t16.5 -7.5t11.5 -3t16 -0.5q68 0 111 105h110q-35 -126 -107 -188t-165 -62q-63 0 -104 23l-103 51q-62 28 -90 28q-54 0 -104 -98h-111z" />
<glyph unicode="&#x169;" horiz-adv-x="1251" d="M104 252q0 50 13 113l157 741h287l-137 -641q-8 -35 -12 -100q0 -75 39.5 -114.5t115.5 -39.5q100 0 174.5 73.5t100.5 198.5l133 623h287l-236 -1106h-287l33 154q-80 -89 -168 -130.5t-201 -41.5q-135 0 -217 73.5t-82 196.5zM438 1262q35 115 99.5 177t148.5 62 q38 0 66 -6.5t79 -28.5l103 -43q10 -4 22.5 -10t17 -7.5t11.5 -2.5t16 0q68 0 111 104h111q-35 -126 -107.5 -188t-165.5 -62q-63 0 -104 23l-103 51q-64 29 -90 29q-54 0 -104 -98h-111z" />
<glyph unicode="&#x16a;" horiz-adv-x="1478" d="M166 365q0 73 22 180l203 948h307l-211 -989q-10 -41 -10 -92q0 -82 66 -128t186 -46q140 0 219.5 64t108.5 202l211 989h307l-211 -989q-56 -257 -241 -393t-451 -136q-232 0 -369 105.5t-137 284.5zM707 1667l34 164h615l-35 -164h-614z" />
<glyph unicode="&#x16b;" horiz-adv-x="1251" d="M104 252q0 50 13 113l157 741h287l-137 -641q-8 -35 -12 -100q0 -75 39.5 -114.5t115.5 -39.5q100 0 174.5 73.5t100.5 198.5l133 623h287l-236 -1106h-287l33 154q-80 -89 -168 -130.5t-201 -41.5q-135 0 -217 73.5t-82 196.5zM508 1300l35 164h614l-35 -164h-614z" />
<glyph unicode="&#x16c;" horiz-adv-x="1478" d="M166 365q0 73 22 180l203 948h307l-211 -989q-10 -41 -10 -92q0 -82 66 -128t186 -46q140 0 219.5 64t108.5 202l211 989h307l-211 -989q-56 -257 -241 -393t-451 -136q-232 0 -369 105.5t-137 284.5zM745 1882h105q-4 -30 2.5 -50.5t17.5 -31t39 -16t47 -6t61 -0.5h15 q100 0 161.5 23t90.5 81h102q-25 -114 -137 -189t-258 -75q-145 0 -218 80t-28 184z" />
<glyph unicode="&#x16d;" horiz-adv-x="1251" d="M104 252q0 50 13 113l157 741h287l-137 -641q-8 -35 -12 -100q0 -75 39.5 -114.5t115.5 -39.5q100 0 174.5 73.5t100.5 198.5l133 623h287l-236 -1106h-287l33 154q-80 -89 -168 -130.5t-201 -41.5q-135 0 -217 73.5t-82 196.5zM586 1460q0 36 12 80h86v-16q0 -55 40 -86 t112 -31q158 0 211 133h86q-22 -128 -118.5 -220.5t-215.5 -92.5q-95 0 -154 67.5t-59 165.5z" />
<glyph unicode="&#x16e;" horiz-adv-x="1478" d="M166 365q0 73 22 180l203 948h307l-211 -989q-10 -41 -10 -92q0 -82 66 -128t186 -46q140 0 219.5 64t108.5 202l211 989h307l-211 -989q-56 -257 -241 -393t-451 -136q-232 0 -369 105.5t-137 284.5zM836 1724q0 97 76.5 171.5t174.5 74.5q70 0 116 -45.5t46 -114.5 q0 -96 -76.5 -170.5t-175.5 -74.5q-70 0 -115.5 45t-45.5 114zM944 1749q0 -31 22 -51.5t56 -20.5q46 0 81.5 34t35.5 77q0 31 -21 50.5t-53 19.5q-46 0 -83.5 -33.5t-37.5 -75.5z" />
<glyph unicode="&#x16f;" horiz-adv-x="1251" d="M104 252q0 50 13 113l157 741h287l-137 -641q-8 -35 -12 -100q0 -75 39.5 -114.5t115.5 -39.5q100 0 174.5 73.5t100.5 198.5l133 623h287l-236 -1106h-287l33 154q-80 -89 -168 -130.5t-201 -41.5q-135 0 -217 73.5t-82 196.5zM631 1339q0 97 77 171.5t175 74.5 q70 0 115.5 -45.5t45.5 -114.5q0 -97 -76.5 -171t-174.5 -74q-70 0 -116 45t-46 114zM741 1364q0 -31 21.5 -51.5t54.5 -20.5q46 0 81.5 34t35.5 77q0 31 -21 50.5t-53 19.5q-46 0 -82.5 -33t-36.5 -76z" />
<glyph unicode="&#x170;" horiz-adv-x="1478" d="M166 365q0 73 22 180l203 948h307l-211 -989q-10 -41 -10 -92q0 -82 66 -128t186 -46q140 0 219.5 64t108.5 202l211 989h307l-211 -989q-56 -257 -241 -393t-451 -136q-232 0 -369 105.5t-137 284.5zM711 1612l211 315h258l-295 -315h-174zM1116 1612l211 315h258 l-295 -315h-174z" />
<glyph unicode="&#x171;" horiz-adv-x="1251" d="M104 252q0 50 13 113l157 741h287l-137 -641q-8 -35 -12 -100q0 -75 39.5 -114.5t115.5 -39.5q100 0 174.5 73.5t100.5 198.5l133 623h287l-236 -1106h-287l33 154q-80 -89 -168 -130.5t-201 -41.5q-135 0 -217 73.5t-82 196.5zM508 1225l211 315h258l-295 -315h-174z M913 1225l211 315h258l-295 -315h-174z" />
<glyph unicode="&#x172;" horiz-adv-x="1478" d="M166 365q0 73 22 180l203 948h307l-211 -989q-10 -41 -10 -92q0 -82 66 -128t186 -46q140 0 219.5 64t108.5 202l211 989h307l-211 -989q-40 -192 -157.5 -318t-291.5 -178q-85 -24 -144.5 -86t-59.5 -135q0 -74 96 -74h129l-31 -184h-137q-126 0 -194 41t-68 123 q0 151 184 282h-18q-232 0 -369 105.5t-137 284.5z" />
<glyph unicode="&#x173;" horiz-adv-x="1251" d="M104 252q0 50 13 113l157 741h287l-137 -641q-8 -35 -12 -100q0 -75 39.5 -114.5t115.5 -39.5q100 0 174.5 73.5t100.5 198.5l133 623h287l-236 -1106q-125 -16 -215 -106q-59 -59 -59 -107q0 -74 96 -74h129l-31 -184h-137q-126 0 -194 41t-68 123q0 73 47 143 q60 94 145 164l33 154q-80 -89 -168 -130.5t-201 -41.5q-135 0 -217 73.5t-82 196.5z" />
<glyph unicode="&#x174;" horiz-adv-x="1933" d="M262 1493h320v-1118l458 1118h318v-1122l461 1122h325l-731 -1493h-285v1137l-485 -1137h-276zM834 1614l342 270h264l176 -270h-176l-168 108l-252 -108h-186z" />
<glyph unicode="&#x175;" horiz-adv-x="1593" d="M164 1106h307v-774l326 774h295v-774l333 774h297l-540 -1106h-308v778l-339 -778h-295zM629 1225l286 315h261l145 -315h-180l-135 157l-201 -157h-176z" />
<glyph unicode="&#x176;" horiz-adv-x="1366" d="M291 1493h342l168 -645l424 645h342l-672 -940l-119 -553h-307l119 553zM575 1614l343 270h264l176 -270h-176l-168 108l-252 -108h-187z" />
<glyph unicode="&#x177;" d="M-6 -440l47 223q23 -4 57 -4q106 0 169 51.5t63 138.5l-158 1137h315l74 -805l400 805h294l-733 -1307q-45 -81 -88 -129.5t-97 -75t-110 -35t-143 -8.5q-50 0 -90 9zM401 1225l287 315h260l146 -315h-181l-135 157l-200 -157h-177z" />
<glyph unicode="&#x178;" horiz-adv-x="1366" d="M291 1493h342l168 -645l424 645h342l-672 -940l-119 -553h-307l119 553zM643 1632l51 236h258l-51 -236h-258zM1042 1632l52 236h258l-52 -236h-258z" />
<glyph unicode="&#x179;" horiz-adv-x="1251" d="M-20 0l55 256l971 981h-764l55 256h1122l-55 -256l-971 -981h764l-55 -256h-1122zM774 1610l250 276h352l-389 -276h-213z" />
<glyph unicode="&#x17a;" horiz-adv-x="1024" d="M-39 0l49 231l684 643h-510l49 232h863l-49 -232l-680 -643h561l-49 -231h-918zM588 1225l209 315h319l-323 -315h-205z" />
<glyph unicode="&#x17b;" horiz-adv-x="1251" d="M-20 0l55 256l971 981h-764l55 256h1122l-55 -256l-971 -981h764l-55 -256h-1122zM743 1616l56 268h286l-55 -268h-287z" />
<glyph unicode="&#x17c;" horiz-adv-x="1024" d="M-39 0l49 231l684 643h-510l49 232h863l-49 -232l-680 -643h561l-49 -231h-918zM553 1249l55 269h287l-55 -269h-287z" />
<glyph unicode="&#x17d;" horiz-adv-x="1251" d="M-20 0l55 256l971 981h-764l55 256h1122l-55 -256l-971 -981h764l-55 -256h-1122zM551 1884h176l168 -108l252 108h186l-342 -270h-264z" />
<glyph unicode="&#x17e;" horiz-adv-x="1024" d="M-39 0l49 231l684 643h-510l49 232h863l-49 -232l-680 -643h561l-49 -231h-918zM410 1540h180l135 -158l201 158h176l-287 -315h-260z" />
<glyph unicode="&#x17f;" horiz-adv-x="681" d="M102 0l258 1217q31 143 115.5 209.5t235.5 66.5l157 -6l-45 -215q-73 8 -86 8q-76 0 -94 -88l-254 -1192h-287z" />
<glyph unicode="&#x18e;" horiz-adv-x="1366" d="M80 0l55 256h809l82 387h-715l56 256h714l72 338h-774l53 256h1081l-317 -1493h-1116z" />
<glyph unicode="&#x192;" d="M-125 -406l100 236q56 -43 107 -43q56 0 96.5 50t87.5 177l285 770h-252l43 205h283l47 121q83 214 196.5 314t274.5 100q82 0 188 -35l-90 -234q-62 33 -106 33q-59 0 -111.5 -54.5t-91.5 -160.5l-31 -84h252l-43 -205h-281l-286 -782q-88 -240 -205.5 -346.5 t-286.5 -106.5q-96 0 -176 45z" />
<glyph unicode="&#x1a0;" horiz-adv-x="1638" d="M141 563q-5 157 63 335.5t187 318.5q249 301 629 301q171 0 298.5 -59.5t201.5 -172.5q129 68 168 207h-144l55 256h279l-47 -223q-52 -247 -260 -344q43 -107 43 -250q0 -363 -246 -649q-132 -156 -285 -228.5t-350 -72.5q-274 0 -433 156t-159 425zM446 606 q0 -167 90.5 -264.5t245.5 -97.5q236 0 389 215q138 193 138 436q0 169 -87 264.5t-241 95.5q-237 0 -393 -213q-67 -93 -107 -215t-35 -221z" />
<glyph unicode="&#x1a1;" horiz-adv-x="1388" d="M92 391q-5 111 39 248t117 233q91 122 224.5 187t291.5 65q152 0 259 -59.5t157 -167.5q130 70 168 209h-144l56 256h278l-47 -223q-57 -259 -281 -353q7 -44 7 -71q0 -130 -41.5 -257t-114.5 -225q-189 -251 -524 -251q-203 0 -324 111t-121 298zM385 449 q0 -109 55.5 -173.5t147.5 -64.5q80 0 148.5 46t115.5 132q72 126 72 266q0 109 -55.5 174.5t-149.5 65.5q-90 0 -168.5 -63t-123.5 -166t-42 -217z" />
<glyph unicode="&#x1af;" horiz-adv-x="1712" d="M168 371q0 73 22 180l201 942h307l-209 -983q-10 -55 -10 -92q0 -82 66 -128t186 -46q140 0 219.5 64t108.5 202l209 983h307l-51 -242q202 63 250 242h-144l56 256h278l-47 -223q-18 -81 -53 -146.5t-75.5 -106t-94 -71t-98.5 -46t-99 -26.5l-131 -620 q-28 -128 -80 -218t-139 -159q-193 -151 -473 -151q-232 0 -369 105.5t-137 283.5z" />
<glyph unicode="&#x1b0;" horiz-adv-x="1478" d="M104 252q0 50 13 113l157 741h287l-137 -641q-12 -70 -12 -100q0 -75 39.5 -114.5t115.5 -39.5q100 0 174.5 73.5t100.5 198.5l133 623h287l-52 -240q192 61 242 240h-143l55 256h278l-47 -223q-18 -80 -51.5 -144.5t-73 -105.5t-91.5 -71.5t-97 -46t-98 -26.5l-158 -745 h-287l37 168q-83 -98 -171 -142t-202 -44q-135 0 -217 73.5t-82 196.5z" />
<glyph unicode="&#x1dd;" d="M49 387q0 113 35 242h743q2 19 2 78q0 85 -53 136.5t-141 51.5q-70 0 -132.5 -30t-90.5 -70h-283q81 152 229.5 240.5t331.5 88.5q194 0 315 -111.5t121 -299.5q0 -144 -44 -275t-124.5 -233t-203.5 -162.5t-271 -60.5q-199 0 -316.5 116t-117.5 289zM340 408 q0 -105 45 -151t133 -46q211 0 273 227h-451v-30z" />
<glyph unicode="&#x1e6;" horiz-adv-x="1593" d="M139 549q0 187 69.5 363.5t188 310t287 214.5t354.5 81q250 0 403.5 -120.5t153.5 -314.5q0 -9 -4 -67h-282q-12 115 -97 177t-231 62q-154 0 -277.5 -87.5t-191.5 -238.5t-68 -335q0 -157 99.5 -256.5t251.5 -99.5q94 0 179 32t155.5 103.5t103.5 173.5h-340l55 256h598 l-172 -803h-184l16 193q-112 -120 -221 -169t-254 -49q-271 0 -431.5 154t-160.5 420zM725 1884h176l168 -108l252 108h186l-342 -270h-264z" />
<glyph unicode="&#x1e7;" horiz-adv-x="1251" d="M-29 -197q0 27 6 64h295l-2 -25q0 -44 50.5 -74t125.5 -30q112 0 194.5 62.5t104.5 162.5l35 164q-97 -81 -169.5 -113t-166.5 -32q-157 0 -259.5 103.5t-102.5 270.5q0 199 79 375t220.5 284.5t310.5 108.5q179 0 260 -188l37 170h273l-244 -1143 q-41 -196 -202.5 -302.5t-416.5 -106.5q-201 0 -314.5 66t-113.5 183zM375 426q0 -104 47.5 -159.5t128.5 -55.5q138 0 235 124.5t97 309.5q0 114 -51.5 182t-137.5 68q-83 0 -156.5 -64t-118 -173t-44.5 -232zM524 1540h181l135 -158l200 158h177l-287 -315h-260z" />
<glyph unicode="&#x1ea;" horiz-adv-x="1593" d="M137 547q0 176 66.5 351.5t187.5 318.5q252 301 629 301q281 0 437.5 -154.5t156.5 -431.5q0 -180 -65.5 -352.5t-184.5 -313.5q-168 -197 -381 -258q-88 -26 -150.5 -87.5t-62.5 -133.5q0 -74 96 -74h129l-30 -184h-138q-126 0 -194 41t-68 123q0 151 187 282h-21 q-275 0 -434.5 152.5t-159.5 419.5zM442 590q0 -166 90.5 -259t247.5 -93q146 0 267.5 87t191.5 238t70 332q0 169 -87 264.5t-241 95.5q-149 0 -273.5 -92t-195 -245t-70.5 -328z" />
<glyph unicode="&#x1eb;" horiz-adv-x="1251" d="M88 377q0 211 85 381.5t240 268t351 97.5q211 0 332 -109.5t121 -299.5q0 -225 -94.5 -397t-260.5 -261q-57 -30 -96.5 -54.5t-82.5 -59t-65 -74t-22 -82.5q0 -74 96 -74h129l-30 -184h-138q-126 0 -194 41t-68 123q0 155 197 291q-16 -2 -51 -2q-205 0 -327 105 t-122 290zM381 434q0 -107 56.5 -165t150.5 -58q142 0 239 129.5t97 314.5q0 109 -55.5 174.5t-149.5 65.5q-139 0 -238.5 -134t-99.5 -327z" />
<glyph unicode="&#x1f4;" horiz-adv-x="1593" d="M139 549q0 187 69.5 363.5t188 310t287 214.5t354.5 81q250 0 403.5 -120.5t153.5 -314.5q0 -9 -4 -67h-282q-12 115 -97 177t-231 62q-154 0 -277.5 -87.5t-191.5 -238.5t-68 -335q0 -157 99.5 -256.5t251.5 -99.5q94 0 179 32t155.5 103.5t103.5 173.5h-340l55 256h598 l-172 -803h-184l16 193q-112 -120 -221 -169t-254 -49q-271 0 -431.5 154t-160.5 420zM950 1610l250 276h352l-389 -276h-213z" />
<glyph unicode="&#x1f5;" horiz-adv-x="1251" d="M-29 -197q0 27 6 64h295l-2 -25q0 -44 50.5 -74t125.5 -30q112 0 194.5 62.5t104.5 162.5l35 164q-97 -81 -169.5 -113t-166.5 -32q-157 0 -259.5 103.5t-102.5 270.5q0 199 79 375t220.5 284.5t310.5 108.5q179 0 260 -188l37 170h273l-244 -1143 q-41 -196 -202.5 -302.5t-416.5 -106.5q-201 0 -314.5 66t-113.5 183zM375 426q0 -104 47.5 -159.5t128.5 -55.5q138 0 235 124.5t97 309.5q0 114 -51.5 182t-137.5 68q-83 0 -156.5 -64t-118 -173t-44.5 -232zM702 1225l209 315h320l-324 -315h-205z" />
<glyph unicode="&#x1fa;" horiz-adv-x="1478" d="M-29 0l834 1493h354l199 -1493h-314l-36 301h-557l-166 -301h-314zM592 557h387l-72 580zM836 1724q0 97 76.5 171.5t174.5 74.5q70 0 116 -45.5t46 -114.5q0 -96 -76.5 -170.5t-175.5 -74.5q-70 0 -115.5 45t-45.5 114zM944 1749q0 -31 22 -51.5t56 -20.5q46 0 81.5 34 t35.5 77q0 31 -21 50.5t-53 19.5q-46 0 -83.5 -33.5t-37.5 -75.5zM987 2011l250 277h352l-389 -277h-213z" />
<glyph unicode="&#x1fb;" d="M23 236q0 152 109.5 261.5t301.5 139.5l119 18q28 4 61 9t45 7l27 4.5t21.5 5.5t14.5 6.5t19 10.5q31 15 50.5 46t19.5 63q0 46 -35.5 67t-113.5 21q-99 0 -151.5 -35t-78.5 -119h-268q43 200 173.5 291.5t371.5 91.5q191 0 292 -65.5t101 -181.5q0 -37 -12 -93 l-129 -614q-7 -28 -7 -43q0 -43 43 -92l-8 -35h-313q-14 32 -14 55q0 29 8 70q-89 -80 -167 -111.5t-171 -31.5q-143 0 -226 70t-83 184zM315 299q0 -49 38 -68.5t116 -19.5q103 0 175.5 68.5t98.5 193.5l11 49q-28 -15 -37.5 -18t-59.5 -10l-135 -23q-207 -36 -207 -172z M557 1337q0 97 77 171.5t175 74.5q70 0 116 -45.5t46 -114.5q0 -96 -76.5 -170.5t-175.5 -74.5q-70 0 -116 45t-46 114zM666 1362q0 -31 21.5 -51.5t55.5 -20.5q46 0 81.5 34t35.5 77q0 31 -21 50t-53 19q-46 0 -83 -33t-37 -75zM709 1624l249 277h353l-389 -277h-213z" />
<glyph unicode="&#x1fc;" horiz-adv-x="2048" d="M-80 0l860 1493h1399l-53 -256h-752l-74 -338h695l-53 -256h-695l-82 -387h791l-55 -256h-1098l65 311h-448l-174 -311h-326zM553 567h371l143 670h-135zM1190 1610l250 276h352l-389 -276h-213z" />
<glyph unicode="&#x1fd;" horiz-adv-x="1820" d="M31 231q0 155 109.5 265.5t301.5 140.5l117 18q29 5 61.5 9.5t45 6.5t27.5 4.5t22 5.5t15 6.5t20 10.5q30 15 49.5 45.5t19.5 63.5q0 46 -35.5 67t-113.5 21q-99 0 -151.5 -35t-78.5 -119h-268q43 208 175.5 295.5t373.5 87.5q233 0 330 -100q149 100 338 100 q193 0 310.5 -116.5t117.5 -288.5q0 -120 -37 -256h-742q-14 -62 -14 -105q5 -59 61.5 -103t141.5 -44q71 0 135 30t92 70h283q-78 -145 -234.5 -237t-337.5 -92q-135 0 -231 53t-139 151q-107 -115 -204 -159.5t-239 -44.5q-152 0 -236.5 63.5t-84.5 185.5zM324 299 q0 -49 37 -68.5t112 -19.5q107 0 180 67.5t99 192.5l10 49q-5 -2 -14.5 -7t-12.5 -6l-10.5 -3.5t-14.5 -3.5t-18 -2.5t-26 -3.5l-136 -23q-206 -36 -206 -172zM987 1225l209 315h320l-324 -315h-205zM1081 653h443v56q0 89 -45.5 137.5t-128.5 48.5q-99 0 -168 -62 t-101 -180z" />
<glyph unicode="&#x1fe;" horiz-adv-x="1593" d="M27 113l172 151q-62 127 -62 283q0 176 66.5 351.5t187.5 318.5q252 301 629 301q276 0 434 -152l162 145l113 -131l-175 -153q60 -129 60 -295q0 -180 -65.5 -352.5t-184.5 -313.5q-132 -155 -283 -223t-350 -68q-271 0 -430 150l-162 -143zM442 590q0 -46 11 -103 l768 674q-88 94 -240 94q-149 0 -273.5 -92t-195 -245t-70.5 -328zM535 330q92 -92 245 -92q146 0 267.5 87t191.5 238t70 332q0 45 -11 106zM948 1610l250 276h352l-389 -276h-213z" />
<glyph unicode="&#x1ff;" horiz-adv-x="1251" d="M20 113l105 88q-37 82 -37 176q0 211 85 381.5t240 268t351 97.5q203 0 321 -100l103 88l100 -119l-108 -92q37 -81 37 -186q0 -214 -85 -380.5t-240 -259.5t-355 -93q-195 0 -318 96l-98 -84zM381 434l2 -12l481 412q-55 61 -145 61q-139 0 -238.5 -134t-99.5 -327z M440 266q52 -55 148 -55q142 0 239 129.5t97 314.5v25zM702 1225l209 315h320l-324 -315h-205z" />
<glyph unicode="&#x200;" horiz-adv-x="1478" d="M-29 0l834 1493h354l199 -1493h-314l-36 301h-557l-166 -301h-314zM563 1927h258l78 -315h-174zM592 557h387l-72 580zM969 1927h258l78 -315h-175z" />
<glyph unicode="&#x201;" d="M23 236q0 152 109.5 261.5t301.5 139.5l119 18q28 4 61 9t45 7l27 4.5t21.5 5.5t14.5 6.5t19 10.5q31 15 50.5 46t19.5 63q0 46 -35.5 67t-113.5 21q-99 0 -151.5 -35t-78.5 -119h-268q43 200 173.5 291.5t371.5 91.5q191 0 292 -65.5t101 -181.5q0 -37 -12 -93 l-129 -614q-7 -28 -7 -43q0 -43 43 -92l-8 -35h-313q-14 32 -14 55q0 29 8 70q-89 -80 -167 -111.5t-171 -31.5q-143 0 -226 70t-83 184zM285 1540h258l78 -315h-175zM315 299q0 -49 38 -68.5t116 -19.5q103 0 175.5 68.5t98.5 193.5l11 49q-28 -15 -37.5 -18t-59.5 -10 l-135 -23q-207 -36 -207 -172zM690 1540h258l78 -315h-174z" />
<glyph unicode="&#x204;" horiz-adv-x="1366" d="M80 0l317 1493h1082l-56 -256h-774l-71 -338h714l-53 -256h-715l-82 -387h809l-55 -256h-1116zM518 1927h258l78 -315h-174zM924 1927h258l78 -315h-175z" />
<glyph unicode="&#x205;" d="M51 393q0 144 44 275t124.5 233t203.5 162.5t271 60.5q199 0 316.5 -116t117.5 -289q0 -117 -34 -242h-744q-2 -19 -2 -78q0 -85 53.5 -136.5t141.5 -51.5q70 0 132.5 30t90.5 70h283q-81 -151 -230 -240t-332 -89q-194 0 -315 111.5t-121 299.5zM303 1540h258l78 -315 h-174zM387 668h451v30q0 105 -45.5 151t-133.5 46q-103 0 -171 -54t-101 -173zM709 1540h258l77 -315h-174z" />
<glyph unicode="&#x208;" horiz-adv-x="569" d="M47 0l318 1493h307l-318 -1493h-307zM98 1927h258l78 -315h-174zM504 1927h258l78 -315h-174z" />
<glyph unicode="&#x209;" horiz-adv-x="569" d="M14 1540h258l78 -315h-174zM55 0l236 1106h287l-236 -1106h-287zM420 1540h258l78 -315h-174z" />
<glyph unicode="&#x20c;" horiz-adv-x="1593" d="M137 547q0 176 66.5 351.5t187.5 318.5q252 301 629 301q281 0 437.5 -154.5t156.5 -431.5q0 -180 -65.5 -352.5t-184.5 -313.5q-132 -155 -283 -223t-350 -68q-275 0 -434.5 152.5t-159.5 419.5zM442 590q0 -166 90.5 -259t247.5 -93q146 0 267.5 87t191.5 238t70 332 q0 169 -87 264.5t-241 95.5q-149 0 -273.5 -92t-195 -245t-70.5 -328zM594 1927h258l78 -315h-174zM999 1927h258l78 -315h-174z" />
<glyph unicode="&#x20d;" horiz-adv-x="1251" d="M88 377q0 211 85 381.5t240 268t351 97.5q211 0 332 -109.5t121 -299.5q0 -214 -85 -380.5t-240 -259.5t-355 -93q-205 0 -327 105t-122 290zM358 1540h258l78 -315h-174zM381 434q0 -107 56.5 -165t150.5 -58q142 0 239 129.5t97 314.5q0 109 -55.5 174.5t-149.5 65.5 q-139 0 -238.5 -134t-99.5 -327zM764 1540h258l78 -315h-174z" />
<glyph unicode="&#x210;" horiz-adv-x="1478" d="M82 0l317 1493h772q160 0 257.5 -86.5t97.5 -220.5q0 -154 -80.5 -265.5t-261.5 -199.5q159 -53 159 -168q0 -69 -57 -375q-6 -30 -6 -53q0 -43 37 -70l-12 -55h-326q-16 52 -16 84q-3 69 53 270q24 99 24 125q0 113 -174 113h-352l-125 -592h-307zM516 1927h258l78 -315 h-174zM569 848h371q126 0 203.5 68t77.5 178q0 143 -226 143h-344zM922 1927h258l77 -315h-174z" />
<glyph unicode="&#x211;" horiz-adv-x="796" d="M47 0l236 1106h286l-47 -217q72 112 166 173.5t193 61.5q18 0 34 -2l-61 -291q-56 9 -88 9q-254 0 -307 -252l-125 -588h-287zM147 1540h259l77 -315h-174zM553 1540h258l78 -315h-174z" />
<glyph unicode="&#x214;" horiz-adv-x="1478" d="M166 365q0 73 22 180l203 948h307l-211 -989q-10 -41 -10 -92q0 -82 66 -128t186 -46q140 0 219.5 64t108.5 202l211 989h307l-211 -989q-56 -257 -241 -393t-451 -136q-232 0 -369 105.5t-137 284.5zM563 1927h258l78 -315h-174zM969 1927h258l78 -315h-175z" />
<glyph unicode="&#x215;" horiz-adv-x="1251" d="M104 252q0 50 13 113l157 741h287l-137 -641q-8 -35 -12 -100q0 -75 39.5 -114.5t115.5 -39.5q100 0 174.5 73.5t100.5 198.5l133 623h287l-236 -1106h-287l33 154q-80 -89 -168 -130.5t-201 -41.5q-135 0 -217 73.5t-82 196.5zM358 1540h258l78 -315h-174zM764 1540h258 l78 -315h-174z" />
<glyph unicode="&#x218;" horiz-adv-x="1366" d="M78 379q0 35 8 90h299q-4 -36 -4 -47q0 -88 76.5 -136t216.5 -48q161 0 254.5 57.5t93.5 159.5q0 69 -50.5 99.5t-197.5 61.5l-201 41q-183 37 -264.5 110t-81.5 200q0 113 47 213.5t131.5 175.5t209 118.5t272.5 43.5q244 0 380 -93.5t136 -259.5q0 -46 -17 -127h-286 q4 36 4 47q0 83 -69.5 126.5t-200.5 43.5q-139 0 -220.5 -57.5t-81.5 -155.5q0 -58 51.5 -89t196.5 -60l224 -45q323 -66 323 -293q0 -263 -186.5 -421.5t-511.5 -158.5q-257 0 -404 106.5t-147 297.5zM301 -629l21 94q68 12 116.5 63t57.5 120h-138l50 229h249l-43 -196 q-15 -120 -105.5 -210.5t-207.5 -99.5z" />
<glyph unicode="&#x219;" d="M47 289q0 20 8 61h281q5 -139 217 -139q97 0 153 25t56 73q-2 25 -32.5 43.5t-125.5 48.5l-162 52q-264 84 -264 254q0 82 36.5 157t102.5 133t168.5 92.5t225.5 34.5q193 0 303 -79.5t110 -217.5q0 -31 -10 -77h-276q6 27 6 38q0 50 -48 78.5t-132 28.5 q-82 0 -131.5 -30t-49.5 -79q0 -31 27.5 -50t105.5 -42l197 -57q130 -37 191 -94t61 -146q0 -195 -151 -305t-414 -110q-203 0 -328 84t-125 223zM225 -629l21 94q68 12 116.5 63t57.5 120h-137l49 229h250l-43 -196q-15 -120 -106 -210.5t-208 -99.5z" />
<glyph unicode="&#x21a;" horiz-adv-x="1251" d="M209 1237l55 256h1196l-55 -256h-434l-264 -1237h-308l265 1237h-455zM291 -629l20 94q68 12 116.5 63t57.5 120h-137l49 229h250l-43 -196q-15 -120 -105.5 -210.5t-207.5 -99.5z" />
<glyph unicode="&#x21b;" horiz-adv-x="681" d="M104 -629l21 94q68 12 116.5 63t57.5 120h-137l49 229h250l-43 -196q-15 -120 -106 -210.5t-208 -99.5zM131 154q0 36 10 84l138 655h-142l41 190h141l64 297h287l-64 -297h160l-41 -190h-160l-121 -578q-12 -53 -12 -69q0 -23 21.5 -37t56.5 -14q24 0 68 6l-41 -201 q-110 -8 -172 -8q-234 0 -234 162z" />
<glyph unicode="&#x258;" d="M27 311h282q11 -40 60.5 -70t119.5 -30q88 0 164 51.5t113 136.5q1 3 9.5 23.5t19.5 54.5h-744q18 120 70 242q73 173 239.5 289t366.5 116q119 0 206 -39.5t133.5 -108.5t62 -161t-2.5 -199.5t-67 -222.5q-81 -188 -248.5 -299.5t-361.5 -111.5q-183 0 -293.5 88.5 t-128.5 240.5zM389 668h451q18 119 -27.5 173t-148.5 54q-89 0 -154 -46t-109 -151z" />
<glyph unicode="&#x259;" d="M49 387q0 113 35 242h743q2 19 2 78q0 85 -53 136.5t-141 51.5q-70 0 -132.5 -30t-90.5 -70h-283q81 152 229.5 240.5t331.5 88.5q194 0 315 -111.5t121 -299.5q0 -144 -44 -275t-124.5 -233t-203.5 -162.5t-271 -60.5q-199 0 -316.5 116t-117.5 289zM340 408 q0 -105 45 -151t133 -46q211 0 273 227h-451v-30z" />
<glyph unicode="&#x2be;" horiz-adv-x="946" d="M240 895q0 26 6 61q4 19 20 19h183q12 0 12 -12q1 -71 23 -97t75 -26q90 0 141.5 91t51.5 214q0 62 -27 89.5t-84 27.5q-52 0 -81 -20t-56 -81q-7 -14 -21 -14h-182q-8 0 -11.5 5.5t-0.5 12.5q43 142 142.5 212.5t240.5 70.5q148 0 228.5 -74t80.5 -196q0 -99 -39 -205.5 t-102 -181.5q-113 -138 -316 -138q-125 0 -204.5 69.5t-79.5 172.5z" />
<glyph unicode="&#x2bf;" horiz-adv-x="946" d="M250 924q0 99 38.5 205t100.5 182q113 137 316 137q125 0 204.5 -69.5t79.5 -172.5q2 -12 -4 -61q-4 -19 -20 -19h-183q-10 0 -14 13q-1 71 -23 97t-75 26q-90 0 -141.5 -91.5t-51.5 -214.5q1 -62 28 -89t83 -27q52 0 82 20t57 80q3 14 18 14h183q8 0 11.5 -5.5 t0.5 -12.5q-43 -142 -141.5 -212.5t-239.5 -70.5q-149 0 -230 74.5t-79 196.5z" />
<glyph unicode="&#x2c6;" horiz-adv-x="681" d="M174 1225l287 315h260l145 -315h-180l-135 157l-201 -157h-176z" />
<glyph unicode="&#x2c7;" horiz-adv-x="681" d="M240 1540h180l135 -158l201 158h176l-287 -315h-260z" />
<glyph unicode="&#x2d8;" horiz-adv-x="681" d="M301 1460q0 36 12 80h86v-16q0 -55 40 -86t112 -31q158 0 211 133h86q-22 -128 -118.5 -220.5t-215.5 -92.5q-95 0 -154 67.5t-59 165.5z" />
<glyph unicode="&#x2d9;" horiz-adv-x="681" d="M383 1249l55 269h287l-55 -269h-287z" />
<glyph unicode="&#x2da;" horiz-adv-x="681" d="M346 1339q0 97 77 171.5t175 74.5q70 0 116 -45.5t46 -114.5q0 -96 -76.5 -170.5t-175.5 -74.5q-70 0 -116 45t-46 114zM457 1364q0 -31 21 -51.5t54 -20.5q46 0 81.5 34t35.5 77q0 31 -21 50.5t-53 19.5q-46 0 -82 -33t-36 -76z" />
<glyph unicode="&#x2db;" horiz-adv-x="681" d="M92 -307q0 166 221 307h195q-211 -116 -211 -213q0 -74 96 -74h129l-30 -184h-138q-126 0 -194 41t-68 123z" />
<glyph unicode="&#x2dc;" horiz-adv-x="681" d="M154 1262q35 115 99.5 177t147.5 62q39 0 67.5 -6.5t78.5 -28.5l102 -43l22.5 -10t17.5 -7t11.5 -2.5t16.5 -0.5q67 0 110 104h111q-35 -126 -107 -188t-165 -62q-64 0 -105 23l-102 51q-64 29 -90 29q-55 0 -105 -98h-110z" />
<glyph unicode="&#x2dd;" horiz-adv-x="681" d="M223 1225l211 315h258l-295 -315h-174zM629 1225l211 315h258l-295 -315h-174z" />
<glyph unicode="&#x300;" horiz-adv-x="0" d="M-682 1540h320l75 -315h-205z" />
<glyph unicode="&#x301;" horiz-adv-x="0" d="M-492 1225l209 315h320l-324 -315h-205z" />
<glyph unicode="&#x302;" horiz-adv-x="0" d="M-735 1225l286 315h261l145 -315h-180l-135 157l-201 -157h-176z" />
<glyph unicode="&#x303;" horiz-adv-x="0" d="M-756 1262q35 115 99.5 177t148.5 62q39 0 67.5 -6.5t78.5 -28.5l102 -43q10 -4 22.5 -10t17 -7.5t11.5 -2.5t16 0q68 0 111 104h111q-35 -126 -107.5 -188t-165.5 -62q-63 0 -104 23l-103 51q-64 29 -90 29q-54 0 -104 -98h-111z" />
<glyph unicode="&#x304;" horiz-adv-x="0" d="M-686 1300l35 164h614l-35 -164h-614z" />
<glyph unicode="&#x306;" horiz-adv-x="0" d="M-608 1460q0 36 12 80h86v-16q0 -55 40 -86t112 -31q158 0 211 133h86q-22 -128 -118.5 -220.5t-215.5 -92.5q-95 0 -154 67.5t-59 165.5z" />
<glyph unicode="&#x307;" horiz-adv-x="0" d="M-526 1249l55 269h287l-56 -269h-286z" />
<glyph unicode="&#x308;" horiz-adv-x="0" d="M-711 1266l52 235h258l-52 -235h-258zM-311 1266l51 235h258l-51 -235h-258z" />
<glyph unicode="&#x309;" horiz-adv-x="0" d="M-582 1419q32 115 99.5 164t173.5 49q92 0 147.5 -39t55.5 -102q0 -66 -48 -117q-32 -34 -108 -69q-45 -22 -58 -36t-22 -52h-123q4 49 34.5 85.5t96.5 75.5q37 19 56.5 36.5t22.5 27t3 24.5q0 26 -20 41t-54 15q-91 0 -116 -103h-140z" />
<glyph unicode="&#x30a;" horiz-adv-x="0" d="M-563 1339q0 97 77 171.5t175 74.5q70 0 115.5 -45.5t45.5 -114.5q0 -97 -76.5 -171t-174.5 -74q-70 0 -116 45t-46 114zM-453 1364q0 -31 21.5 -51.5t54.5 -20.5q46 0 81.5 34t35.5 77q0 31 -21 50.5t-53 19.5q-46 0 -82.5 -33t-36.5 -76z" />
<glyph unicode="&#x30b;" horiz-adv-x="0" d="M-686 1225l211 315h258l-295 -315h-174zM-281 1225l211 315h258l-294 -315h-175z" />
<glyph unicode="&#x30c;" horiz-adv-x="0" d="M-670 1540h181l135 -158l200 158h177l-287 -315h-260z" />
<glyph unicode="&#x30f;" horiz-adv-x="0" d="M-836 1540h258l78 -315h-174zM-430 1540h258l78 -315h-174z" />
<glyph unicode="&#x311;" horiz-adv-x="0" d="M-662 1227q22 128 118.5 220.5t215.5 92.5q95 0 154 -67.5t59 -165.5q0 -36 -12 -80h-86v16q0 55 -40 86t-112 31q-157 0 -210 -133h-87z" />
<glyph unicode="&#x323;" horiz-adv-x="0" d="M-879 -410l56 269h286l-55 -269h-287z" />
<glyph unicode="&#x326;" horiz-adv-x="0" d="M-907 -629l20 94q68 12 116.5 63t57.5 120h-137l49 229h250l-43 -196q-15 -120 -105.5 -210.5t-207.5 -99.5z" />
<glyph unicode="&#x32e;" horiz-adv-x="0" d="M-999 -143h104q-5 -31 2.5 -51.5t18.5 -31t39 -16t48 -6t62 -0.5h12q100 0 161 23.5t91 81.5h103q-25 -114 -137.5 -189.5t-258.5 -75.5q-145 0 -217.5 80.5t-27.5 184.5z" />
<glyph unicode="&#x32f;" horiz-adv-x="0" d="M-1059 -408q25 114 137 189.5t258 75.5q145 0 218 -80.5t28 -184.5h-104q5 31 -2.5 51.5t-19 31t-40.5 16t-49 6t-62 0.5h-12q-100 0 -159.5 -23.5t-89.5 -81.5h-103z" />
<glyph unicode="&#x330;" horiz-adv-x="0" d="M-1108 -397q35 115 99.5 177t148.5 62q38 0 66 -6.5t79 -28.5l103 -43q10 -4 22.5 -10t17 -7.5t11.5 -2.5t16 0q68 0 111 104h110q-35 -126 -107 -187.5t-165 -61.5q-65 0 -104 22l-103 51q-64 29 -90 29q-54 0 -104 -98h-111z" />
<glyph unicode="&#x331;" horiz-adv-x="0" d="M-1040 -358l34 163h615l-35 -163h-614z" />
<glyph unicode="&#x332;" horiz-adv-x="0" d="M-1040 -358l34 163h615l-35 -163h-614z" />
<glyph unicode="&#x391;" horiz-adv-x="1478" d="M-29 0l834 1493h354l199 -1493h-314l-36 301h-557l-166 -301h-314zM592 557h387l-72 580z" />
<glyph unicode="&#x392;" horiz-adv-x="1478" d="M86 0l317 1493h666q195 0 302.5 -87.5t107.5 -236.5q0 -106 -61.5 -202t-178.5 -172q78 -61 111.5 -124.5t33.5 -148.5q0 -91 -45 -190t-120 -172q-86 -83 -196.5 -121.5t-264.5 -38.5h-672zM449 256h364q131 0 199.5 67.5t68.5 178.5q0 72 -45.5 106.5t-140.5 34.5h-365 zM584 899h336q129 0 191.5 59.5t62.5 151.5q0 66 -44 96.5t-139 30.5h-336z" />
<glyph unicode="&#x393;" horiz-adv-x="1251" d="M70 0l317 1493h1049l-56 -256h-741l-262 -1237h-307z" />
<glyph unicode="&#x394;" horiz-adv-x="1492" d="M-96 0l938 1448h262l321 -1448h-1521zM401 287h648l-166 743z" />
<glyph unicode="&#x395;" horiz-adv-x="1366" d="M80 0l317 1493h1082l-56 -256h-774l-71 -338h714l-53 -256h-715l-82 -387h809l-55 -256h-1116z" />
<glyph unicode="&#x396;" horiz-adv-x="1251" d="M-20 0l55 256l971 981h-764l55 256h1122l-55 -256l-971 -981h764l-55 -256h-1122z" />
<glyph unicode="&#x397;" horiz-adv-x="1478" d="M57 0l318 1493h307l-119 -559h590l119 559h309l-317 -1493h-308l144 678h-592l-143 -678h-308z" />
<glyph unicode="&#x398;" horiz-adv-x="1593" d="M137 547q0 176 66.5 351.5t187.5 318.5q252 301 629 301q281 0 437.5 -154.5t156.5 -431.5q0 -180 -65.5 -352.5t-184.5 -313.5q-132 -155 -283 -223t-350 -68q-275 0 -434.5 152.5t-159.5 419.5zM442 590q0 -166 90.5 -259t247.5 -93q146 0 267.5 87t191.5 238t70 332 q0 169 -87 264.5t-241 95.5q-149 0 -273.5 -92t-195 -245t-70.5 -328zM575 604l62 287h543l-62 -287h-543z" />
<glyph unicode="&#x399;" horiz-adv-x="569" d="M47 0l318 1493h307l-318 -1493h-307z" />
<glyph unicode="&#x39a;" horiz-adv-x="1478" d="M70 0l317 1493h307l-139 -655l725 655h365l-740 -653l481 -840h-366l-354 643l-187 -164l-102 -479h-307z" />
<glyph unicode="&#x39b;" horiz-adv-x="1478" d="M-29 0l834 1493h354l199 -1493h-314l-137 1137l-622 -1137h-314z" />
<glyph unicode="&#x39c;" horiz-adv-x="1705" d="M53 0l318 1493h485v-1147l520 1147h449l-318 -1493h-290l270 1268l-551 -1268h-322v1268l-270 -1268h-291z" />
<glyph unicode="&#x39d;" horiz-adv-x="1478" d="M57 0l318 1493h307l393 -1055l223 1055h291l-317 -1493h-303l-394 1071l-227 -1071h-291z" />
<glyph unicode="&#x39e;" horiz-adv-x="1478" d="M59 0l64 307h1198l-66 -307h-1196zM311 1186l66 307h1196l-66 -307h-1196zM502 604l59 287h569l-59 -287h-569z" />
<glyph unicode="&#x39f;" horiz-adv-x="1593" d="M137 547q0 176 66.5 351.5t187.5 318.5q252 301 629 301q281 0 437.5 -154.5t156.5 -431.5q0 -180 -65.5 -352.5t-184.5 -313.5q-132 -155 -283 -223t-350 -68q-275 0 -434.5 152.5t-159.5 419.5zM442 590q0 -166 90.5 -259t247.5 -93q146 0 267.5 87t191.5 238t70 332 q0 169 -87 264.5t-241 95.5q-149 0 -273.5 -92t-195 -245t-70.5 -328z" />
<glyph unicode="&#x3a0;" horiz-adv-x="1349" d="M-10 0l317 1493h1206l-317 -1493h-307l262 1237h-592l-262 -1237h-307z" />
<glyph unicode="&#x3a1;" horiz-adv-x="1366" d="M74 0l317 1493h631q206 0 316 -96t110 -250q0 -118 -44 -230.5t-119 -197t-182 -136t-226 -51.5h-383l-113 -532h-307zM549 788h313q132 0 206.5 78t74.5 209q0 72 -51 117t-134 45h-315z" />
<glyph unicode="&#x3a3;" horiz-adv-x="1253" d="M-10 0l59 276l569 472l-370 469l59 276h1108l-53 -256h-768l387 -489l-596 -492h768l-53 -256h-1110z" />
<glyph unicode="&#x3a4;" horiz-adv-x="1251" d="M209 1237l55 256h1196l-55 -256h-434l-264 -1237h-308l265 1237h-455z" />
<glyph unicode="&#x3a5;" horiz-adv-x="1366" d="M291 1493h342l168 -645l424 645h342l-672 -940l-119 -553h-307l119 553z" />
<glyph unicode="&#x3a6;" horiz-adv-x="1558" d="M201 748q40 186 210 313t394 162l57 270h307l-57 -270q100 -17 182 -57.5t138 -100t78.5 -141.5t2.5 -176q-27 -126 -117.5 -228.5t-216 -164.5t-270.5 -85l-57 -270h-307l57 270q-100 17 -182 57.5t-138 100.5t-78.5 142.5t-2.5 177.5zM487 748q-19 -87 27.5 -147.5 t138.5 -88.5l101 469q-103 -28 -176 -88t-91 -145zM961 512q103 28 175.5 88.5t90.5 147.5q19 85 -27.5 145t-138.5 88z" />
<glyph unicode="&#x3a7;" horiz-adv-x="1366" d="M-37 0l635 752l-297 741h365l161 -483l375 483h359l-621 -731l320 -762h-367l-184 510l-387 -510h-359z" />
<glyph unicode="&#x3a8;" horiz-adv-x="1523" d="M276 1106l82 387h287l-82 -387q-28 -125 3 -233t112 -162l166 782h307l-166 -782q103 53 179.5 161t103.5 234l82 387h286l-82 -387q-49 -232 -224 -413.5t-400 -237.5l-96 -455h-308l97 455q-201 56 -299.5 237.5t-47.5 413.5z" />
<glyph unicode="&#x3a9;" horiz-adv-x="1576" d="M-10 0l55 256h289l28 131q-129 142 -129 348q0 151 69 296t179.5 251t255.5 171t291 65q230 0 377 -146t147 -366q0 -178 -92 -342t-243 -277l-29 -131h291l-56 -256h-598l109 506q129 52 218 183t89 274q0 128 -72.5 213.5t-193.5 85.5q-110 0 -210.5 -71t-160 -183 t-59.5 -230q0 -94 39 -166.5t110 -105.5l-106 -506h-598z" />
<glyph unicode="&#x3b1;" horiz-adv-x="1589" d="M145 492q26 122 96 234t166.5 193.5t216 130t240.5 48.5q237 0 359 -236q45 104 86 178.5t98 139.5l197 -148q-61 -72 -109 -164t-95 -204t-83 -177q23 -272 84 -413l-260 -148q-40 90 -60 269q-220 -187 -448 -187q-115 0 -214.5 35.5t-168 97.5t-98 154t-7.5 197z M432 492q-24 -109 51.5 -179.5t198.5 -70.5q103 0 199.5 70.5t167.5 181.5q-5 61 -13.5 109t-25.5 99t-41 85t-63.5 55.5t-90.5 21.5q-133 0 -242 -110.5t-141 -261.5z" />
<glyph unicode="&#x3b2;" horiz-adv-x="1394" d="M27 -471l344 1614q34 160 181.5 255t362.5 95q187 0 300.5 -83t113.5 -218q0 -120 -68 -215t-182 -135q95 -22 148 -94t53 -181q0 -121 -47.5 -231t-126 -186.5t-182.5 -122t-213 -45.5q-164 0 -281 94l-117 -547h-286zM492 362q5 -60 47.5 -98.5t105.5 -38.5 q166 0 254 79.5t88 209.5q0 201 -231 201h-31l41 194q126 0 198 63t72 158q0 63 -48.5 98.5t-133.5 35.5q-172 0 -207 -164z" />
<glyph unicode="&#x3b3;" horiz-adv-x="1398" d="M274 1106h301l123 -715l428 715h301l-671 -1124l-97 -453h-286l96 453z" />
<glyph unicode="&#x3b4;" horiz-adv-x="1245" d="M74 354q0 172 113 296.5t298 193.5q-102 107 -102 246q0 92 46 169.5t121.5 127.5t169.5 78t193 28q109 0 201 -44.5t150 -125.5l-172 -156q-86 95 -228 95q-83 0 -136.5 -31t-53.5 -98q0 -26 7.5 -48t26 -41t34.5 -33t47.5 -30t49 -24t55.5 -24t52 -22 q115 -52 182.5 -149.5t67.5 -218.5q0 -36 -8 -80q-29 -139 -128.5 -250t-237.5 -171t-285 -60q-202 0 -332.5 99.5t-130.5 272.5zM397 422q0 -73 56.5 -113.5t144.5 -40.5q97 0 176.5 53.5t99.5 141.5q3 12 3 35q0 111 -84 168q-73 0 -140 -13.5t-126 -40.5t-94.5 -76 t-35.5 -114z" />
<glyph unicode="&#x3b5;" horiz-adv-x="1150" d="M115 348q35 157 202 244q-114 77 -86 219q33 154 180.5 256t319.5 102q70 0 151.5 -13.5t134.5 -27.5t144 -41l-90 -184q-52 15 -126 23t-124.5 9t-140.5 1q-55 0 -102.5 -36t-59.5 -89q-5 -22 -1 -40t19 -30t30.5 -21.5t44.5 -14.5t50 -8.5t59 -4.5t59 -1.5t61 -0.5 l-39 -186q-51 0 -88 -1.5t-84.5 -6t-81 -15.5t-66 -27.5t-53 -43t-27.5 -62.5q-15 -74 31 -126t123 -52q276 0 385 27l10 -183q-103 -25 -158 -38t-139.5 -26t-146.5 -13q-95 0 -175.5 30.5t-134.5 84t-77 131t-4 165.5z" />
<glyph unicode="&#x3b6;" horiz-adv-x="1189" d="M158 553q48 222 196 412.5t359 318.5h-400l41 189h1006l-41 -189h-195q-246 -56 -434.5 -263t-245.5 -468q-25 -120 29 -206.5t162 -86.5h80q103 0 181.5 -45.5t114.5 -127t15 -179.5q-20 -96 -90.5 -174.5t-168.5 -122t-200 -43.5l45 209q44 0 80 39t47 92 q11 48 -10.5 83.5t-64.5 35.5h-78q-145 0 -254.5 70t-156.5 191t-17 265z" />
<glyph unicode="&#x3b7;" horiz-adv-x="1251" d="M41 0l235 1106h287l-16 -78q133 70 266 70q121 0 217.5 -43.5t146 -127t27.5 -190.5l-258 -1208h-287l259 1208q11 58 -35.5 92.5t-118.5 34.5q-78 0 -153 -36t-128 -97l-155 -731h-287z" />
<glyph unicode="&#x3b8;" horiz-adv-x="1157" d="M161.5 483q2.5 98 24.5 201q26 122 64.5 233.5t95 216.5t123.5 182t155.5 123t186.5 46q99 0 168 -46t104 -122.5t47 -182t3 -217t-35 -233.5q-28 -130 -82.5 -249.5t-130 -215.5t-176.5 -153.5t-211 -57.5q-88 0 -155 37.5t-106 102.5t-58.5 151t-17 184zM432 444 q-4 -52 3 -101t35 -75t77 -26q40 0 74 18.5t57.5 47t44.5 73.5t34 87t27 99h-335q-13 -71 -17 -123zM498 801h338q13 63 20.5 112.5t12.5 103.5t1 94t-14.5 73t-34.5 50t-59 17q-41 0 -77.5 -26t-62.5 -66.5t-50 -103t-40.5 -120.5t-33.5 -134z" />
<glyph unicode="&#x3b9;" horiz-adv-x="894" d="M233 332l166 774h287l-166 -774q-4 -22 1.5 -38t24 -25.5t35.5 -15t50 -8t53 -3t57 -0.5l-49 -234q-80 0 -152.5 11.5t-135 37.5t-105.5 63t-61.5 91.5t-4.5 120.5z" />
<glyph unicode="&#x3ba;" d="M39 0l235 1106h287l-92 -430l457 430h325l-475 -422l264 -684h-335l-162 489l-140 -127l-77 -362h-287z" />
<glyph unicode="&#x3bb;" horiz-adv-x="1550" d="M41 0l805 1004l-15 65q-15 80 -76 128t-147 48l45 209q178 0 307.5 -80.5t159.5 -230.5l228 -1143h-304l-137 686l-547 -686h-319z" />
<glyph unicode="&#x3bc;" horiz-adv-x="1497" d="M63 -471l336 1577h287l-149 -700q14 -74 61 -119t121 -45q72 0 138 45t112 119l149 700h287l-236 -1106h-286l14 66q-113 -58 -229 -58q-117 0 -203 58l-115 -537h-287z" />
<glyph unicode="&#x3bd;" horiz-adv-x="1267" d="M213 1106h301l152 -830q126 82 213 203.5t116 257.5q41 201 60 369h286q-20 -179 -59 -369q-57 -263 -250.5 -480.5t-458.5 -317.5l-170 81z" />
<glyph unicode="&#x3be;" horiz-adv-x="1251" d="M143 487q24 104 95 189.5t176 144.5q-74 48 -107 120t-12 163q20 105 104 180h-86l41 189h1006l-41 -189h-483q-224 -36 -254 -180q-10 -47 9 -81.5t61.5 -53t93.5 -27t112 -8.5l-45 -209q-134 0 -246.5 -64.5t-136.5 -173.5q-20 -97 41 -162t164 -65h80 q103 0 181.5 -45.5t114.5 -127t15 -179.5q-20 -96 -90.5 -174.5t-168.5 -122t-200 -43.5l45 209q44 0 80 39t47 92q11 48 -10.5 83.5t-64.5 35.5h-78q-142 0 -253 58t-164 164.5t-26 237.5z" />
<glyph unicode="&#x3bf;" horiz-adv-x="1251" d="M88 377q0 211 85 381.5t240 268t351 97.5q211 0 332 -109.5t121 -299.5q0 -214 -85 -380.5t-240 -259.5t-355 -93q-205 0 -327 105t-122 290zM381 434q0 -107 56.5 -165t150.5 -58q142 0 239 129.5t97 314.5q0 109 -55.5 174.5t-149.5 65.5q-139 0 -238.5 -134 t-99.5 -327z" />
<glyph unicode="&#x3c0;" horiz-adv-x="1519" d="M129 655q28 131 74.5 217.5t122 138.5t173.5 73.5t238 21.5h865l-50 -232h-204l-187 -874h-287l187 874h-230l-186 -874h-287l187 874q-83 0 -122 -53t-63 -166h-231z" />
<glyph unicode="&#x3c1;" horiz-adv-x="1372" d="M-59 -471l217 1024q32 150 135.5 275.5t248 197.5t296.5 72q91 0 170.5 -27.5t138 -76.5t97.5 -117.5t48.5 -150t-8.5 -173.5q-31 -149 -134 -275t-247.5 -198t-296.5 -72q-142 0 -262 68l-117 -547h-286zM399 340q95 -98 256 -98q118 0 216.5 92t125.5 219 q28 126 -32 218.5t-177 92.5q-118 0 -217 -92t-127 -219z" />
<glyph unicode="&#x3c2;" horiz-adv-x="1251" d="M159 354q-24 98 1 209q31 145 129.5 268.5t238 195t285.5 71.5q156 0 261.5 -90.5t115.5 -237.5l-260 -70q-5 71 -50.5 117.5t-115.5 46.5q-109 0 -200 -89.5t-118 -211.5q-17 -80 0 -149t66.5 -111.5t122.5 -42.5h80q103 0 181.5 -45.5t114.5 -127t15 -179.5 q-20 -96 -90.5 -174.5t-168.5 -122t-200 -43.5l45 209q44 0 80 39t47 92q11 48 -10.5 83.5t-64.5 35.5h-78q-109 0 -200 42t-147 114.5t-80 170.5z" />
<glyph unicode="&#x3c3;" horiz-adv-x="1435" d="M141 377q0 211 85 381.5t240 268t351 97.5q111 0 197 -30q189 35 438 141l55 -221q-126 -55 -288 -88q51 -91 51 -211q0 -214 -85 -380.5t-240 -259.5t-355 -93q-205 0 -327 105t-122 290zM434 434q0 -107 56.5 -165t150.5 -58q142 0 239 129.5t97 314.5 q0 109 -55.5 174.5t-149.5 65.5q-139 0 -238.5 -134t-99.5 -327z" />
<glyph unicode="&#x3c4;" horiz-adv-x="985" d="M221 846l49 233h715l-49 -233h-215l-109 -514q-5 -22 0.5 -38t23.5 -25.5t35.5 -15t50 -8t52.5 -3t57 -0.5l-49 -234q-80 0 -152 11.5t-134.5 37.5t-105 63t-60.5 91.5t-4 120.5l108 514h-213z" />
<glyph unicode="&#x3c5;" horiz-adv-x="1251" d="M119 369l157 737h287l-157 -737q-13 -61 39.5 -94t132.5 -33q99 0 182.5 80t107.5 190q64 295 88 594h289q-23 -284 -90 -594q-29 -138 -124.5 -254t-229.5 -183t-275 -67q-126 0 -226 42.5t-152 126.5t-29 192z" />
<glyph unicode="&#x3c6;" horiz-adv-x="1839" d="M158 553q27 124 109 234t198 186t248 110l12 -204q-103 -28 -179 -120t-102 -206q-26 -126 61.5 -201.5t242.5 -99.5l55 260q25 114 81.5 220t133.5 187.5t176.5 130t202.5 48.5q133 0 225.5 -76t125.5 -200.5t3 -268.5q-24 -114 -97 -210.5t-178.5 -162t-230 -107.5 t-260.5 -57l-104 -487h-287l104 487q-130 15 -237.5 57t-184.5 107.5t-109.5 161.5t-8.5 211zM1034 252q108 15 195 50.5t152 100.5t83 150q13 60 14.5 114t-10 99t-42 71.5t-78.5 26.5q-52 0 -95.5 -30t-74.5 -83t-52 -111.5t-36 -127.5z" />
<glyph unicode="&#x3c7;" horiz-adv-x="1411" d="M-59 -471l591 788l-258 789h314l164 -498l374 498h314l-594 -789l260 -788h-313l-164 498l-375 -498h-313z" />
<glyph unicode="&#x3c8;" horiz-adv-x="1593" d="M119 369l157 737h287l-157 -737q-9 -44 21 -72t78 -39t118 -14l266 1249h287l-267 -1249q249 11 271 125l157 737h287l-158 -737q-18 -87 -75 -153t-142 -106.5t-180.5 -63.5t-208.5 -32l-102 -485h-287l102 485q-85 7 -156 22.5t-134.5 43.5t-104 66.5t-57.5 95.5 t-2 127z" />
<glyph unicode="&#x3c9;" horiz-adv-x="1615" d="M150 435q2 88 22 181q28 133 110.5 259t202.5 231h250q-209 -186 -276 -490q-12 -58 -18 -89t-14 -83t-6 -81t8.5 -60.5t26 -46t50.5 -14.5q126 0 199 184q0 157 34 311h287q-11 -52 -17.5 -84.5t-16 -84t-13 -85t-7 -75.5t1 -68t12 -50.5t24 -36t39.5 -11.5t43.5 8 t37.5 27t30 37t26 51.5t21 55.5t18.5 65t15 63.5t14.5 66.5q32 130 15.5 262t-84.5 228h252q74 -106 103 -232.5t1 -257.5q-25 -117 -75 -225t-118.5 -194t-160 -137.5t-189.5 -51.5q-173 0 -247 154q-134 -154 -295 -154q-79 0 -140 33.5t-97 92t-54 136t-16 165.5z" />
<glyph unicode="&#x3d1;" horiz-adv-x="1374" d="M119 369l80 368h286l-79 -368q-6 -31 7.5 -52.5t45 -31.5t64.5 -13.5t77 -3.5q217 0 238 101l92 430q-116 7 -205 21t-173 43t-134.5 70.5t-73 106.5t-4.5 150q24 111 107 203t198.5 143t235.5 51q135 0 237.5 -63.5t147 -174.5t16.5 -243l-27 -127h123l-41 -188l-123 2 l-90 -424q-24 -115 -115 -205t-214 -136t-254 -46t-235 46t-157.5 136t-29.5 205zM569 1190q-8 -40 8.5 -72t51 -54t89 -38t115.5 -25t136 -14l26 119q13 78 4 143t-50.5 107.5t-106.5 42.5q-93 0 -173 -60.5t-100 -148.5z" />
<glyph unicode="&#x3d5;" horiz-adv-x="1495" d="M158 553q43 203 212 356.5t384 198.5l82 385h294l-81 -385q196 -45 298.5 -198.5t59.5 -356.5q-42 -203 -210.5 -356.5t-385.5 -198.5l-98 -469h-293l98 469q-196 45 -299 198.5t-61 356.5zM444 553q-18 -86 21 -154t117 -102l108 512q-92 -33 -159 -101t-87 -155z M874 297q93 33 160.5 101t85.5 155q20 86 -18.5 154t-116.5 102z" />
<glyph unicode="&#x3d6;" horiz-adv-x="1615" d="M150 435q2 88 22 181q28 133 110.5 259t202.5 231h250q-209 -186 -276 -490q-12 -58 -18 -89t-14 -83t-6 -81t8.5 -60.5t26 -46t50.5 -14.5q126 0 199 184q0 157 34 311h287q-11 -52 -17.5 -84.5t-16 -84t-13 -85t-7 -75.5t1 -68t12 -50.5t24 -36t39.5 -11.5t43.5 8 t37.5 27t30 37t26 51.5t21 55.5t18.5 65t15 63.5t14.5 66.5q18 86 30 152.5t21 147.5t8 141.5t-13 120.5t-38 98t-71.5 62t-108.5 24q-249 0 -510 -137l-55 149q284 150 600 150q119 0 209.5 -50.5t144 -138t80 -203.5t23 -247t-32.5 -269q-25 -117 -75 -225t-118.5 -194 t-160 -137.5t-189.5 -51.5q-173 0 -247 154q-134 -154 -295 -154q-79 0 -140 33.5t-97 92t-54 136t-16 165.5z" />
<glyph unicode="&#x3f5;" d="M78 367q0 145 56.5 299t148.5 264q159 194 450 194q163 0 274 -83t130 -212h-306q-18 37 -52 51.5t-89 14.5q-94 0 -165 -65t-111 -173h403l-45 -208h-399l-2 -41q0 -104 46 -150.5t140 -46.5q61 0 100.5 13.5t73.5 51.5h293q-143 -294 -502 -294q-212 0 -328 106 t-116 279z" />
<glyph unicode="&#x400;" horiz-adv-x="1363" d="M80 0l317 1493h1080l-56 -256h-772l-71 -338h714l-53 -256h-715l-82 -387h809l-55 -256h-1116zM698 1948h244l92 -308h-129z" />
<glyph unicode="&#x401;" horiz-adv-x="1363" d="M80 0l317 1493h1080l-56 -256h-772l-71 -338h714l-53 -256h-715l-82 -387h809l-55 -256h-1116zM670 1638l53 250h225l-53 -250h-225zM1051 1638l53 250h225l-53 -250h-225z" />
<glyph unicode="&#x402;" horiz-adv-x="1652" d="M209 1237l55 256h1032l-55 -256h-354l-66 -305h336q225 0 326.5 -88.5t101.5 -251.5q0 -67 -16 -152l-94 -440q-14 -63 -30.5 -108.5t-48 -92t-75.5 -75t-113.5 -46.5t-160.5 -18h-213l45 219h112q50 0 83 8.5t51.5 26.5t27 37t14.5 49l99 459q12 70 12 96 q0 60 -39.5 90.5t-136.5 30.5h-334l-143 -676h-308l263 1237h-371z" />
<glyph unicode="&#x403;" horiz-adv-x="1251" d="M70 0l317 1493h1049l-56 -256h-741l-262 -1237h-307zM872 1640l209 308h258l-323 -308h-144z" />
<glyph unicode="&#x404;" horiz-adv-x="1509" d="M135 502q0 202 69 389t184.5 324.5t277 220t338.5 82.5q246 0 386 -121.5t140 -329.5q0 -57 -8 -106h-299q4 36 4 51q0 120 -70.5 184t-200.5 64q-159 0 -279.5 -111.5t-182.5 -314.5h598l-56 -256h-596v-19q0 -163 80 -253.5t225 -90.5q166 0 275 109q53 53 102 159h293 q-30 -99 -67 -166t-97 -129q-110 -114 -257 -174.5t-314 -60.5q-260 0 -402.5 145t-142.5 404z" />
<glyph unicode="&#x405;" horiz-adv-x="1366" d="M-78 446h299q-19 -120 53.5 -183.5t229.5 -63.5q140 0 232 53t112 147q20 90 -33 139t-201 78l-200 41q-218 43 -294.5 135.5t-39.5 266.5q46 218 219 338.5t442 120.5q328 0 447 -170q42 -62 51 -134t-14 -176h-287q17 114 -49.5 174t-212.5 60q-119 0 -199.5 -50 t-97.5 -135q-19 -81 31 -121.5t208 -72.5l226 -45q198 -40 271 -137.5t36 -274.5q-47 -227 -236.5 -355t-478.5 -128q-286 0 -418.5 127t-95.5 366z" />
<glyph unicode="&#x406;" horiz-adv-x="569" d="M-111 0l316 1493h307l-315 -1493h-308z" />
<glyph unicode="&#x407;" horiz-adv-x="569" d="M-111 0l316 1493h307l-315 -1493h-308zM86 1640l53 246h226l-54 -246h-225zM467 1640l53 246h225l-53 -246h-225z" />
<glyph unicode="&#x408;" d="M-112.5 211.5q-12.5 77.5 12.5 194.5l30 147h308l-31 -143q-22 -103 7.5 -149t117.5 -46q80 0 133 45t70 129l235 1104h307l-235 -1104q-44 -209 -193.5 -322.5t-378.5 -113.5q-210 0 -317 119q-53 62 -65.5 139.5z" />
<glyph unicode="&#x409;" horiz-adv-x="2111" d="M-145 0l61 297q104 -1 179 158.5t143 488.5l114 549h1071l-112 -532h383q170 0 265 -94.5t95 -260.5q0 -172 -74 -310t-210.5 -217t-311.5 -79h-659l262 1237h-455l-82 -389q-18 -85 -38 -159.5t-52 -163.5t-68.5 -161t-89 -142t-112.5 -117t-139.5 -76t-169.5 -29z M1161 256h287q138 0 216.5 83.5t78.5 213.5q0 152 -201 152h-287z" />
<glyph unicode="&#x40a;" horiz-adv-x="2228" d="M-100 0l315 1493h307l-112 -537h589l113 537h309l-112 -532h383q171 0 266.5 -95.5t95.5 -263.5q0 -262 -166.5 -432t-429.5 -170h-659l149 700h-592l-149 -700h-307zM1159 256h287q138 0 216.5 83.5t78.5 213.5q0 152 -199 152h-287z" />
<glyph unicode="&#x40b;" horiz-adv-x="1611" d="M209 1237l55 256h1032l-55 -256h-354l-66 -305h295q225 0 326.5 -88.5t101.5 -251.5q0 -67 -16 -152l-94 -440h-308l99 459q12 70 12 96q0 60 -39.5 90.5t-136.5 30.5h-293l-143 -676h-308l263 1237h-371z" />
<glyph unicode="&#x40c;" horiz-adv-x="1474" d="M70 0l317 1493h307l-121 -571l705 571h362l-903 -719l666 -774h-383l-518 584l-125 -584h-307zM975 1640l209 308h258l-324 -308h-143z" />
<glyph unicode="&#x40d;" horiz-adv-x="1478" d="M57 0l318 1493h307l-215 -1016l807 1016h315l-317 -1493h-307l219 1032l-819 -1032h-308zM743 1948h244l92 -308h-129z" />
<glyph unicode="&#x40e;" horiz-adv-x="1429" d="M197 0l331 463l-299 1030h334l203 -707l502 707h356l-1071 -1493h-356zM741 1853q0 32 13 80h86v-16q0 -56 39.5 -86.5t111.5 -30.5q158 0 211 133h86q-22 -126 -115.5 -209.5t-214.5 -83.5q-97 0 -157 59t-60 154z" />
<glyph unicode="&#x40f;" horiz-adv-x="1478" d="M-70 0l318 1493h307l-262 -1237h594l262 1237h307l-317 -1493h-471l-64 -307h-266l63 307h-471z" />
<glyph unicode="&#x410;" horiz-adv-x="1478" d="M-29 0l848 1493h340l199 -1493h-314l-36 301h-559l-164 -301h-314zM590 557h389l-72 584z" />
<glyph unicode="&#x411;" horiz-adv-x="1478" d="M86 0l317 1493h1049l-55 -256h-742l-71 -338h334q109 0 194 -25t134.5 -63.5t81.5 -91t43 -101.5t11 -102q0 -129 -61 -231.5t-164 -175.5q-79 -57 -174.5 -83t-224.5 -26h-672zM449 256h366q124 0 199.5 68.5t75.5 177.5q0 141 -193 141h-367z" />
<glyph unicode="&#x412;" horiz-adv-x="1480" d="M86 0l317 1493h666q120 0 198 -26t132 -83q82 -88 82 -215q0 -129 -75 -232t-202 -144q178 -70 178 -287q0 -118 -63 -222.5t-160 -174.5q-152 -109 -401 -109h-672zM449 256h366q124 0 199.5 68.5t75.5 177.5q0 141 -193 141h-367zM586 899h334q116 0 187 58.5t71 152.5 q0 127 -187 127h-334z" />
<glyph unicode="&#x413;" horiz-adv-x="1251" d="M70 0l317 1493h1049l-56 -256h-741l-262 -1237h-307z" />
<glyph unicode="&#x414;" horiz-adv-x="1880" d="M-184 -307l110 528h209q82 0 178 203.5t162 519.5l117 549h1069l-270 -1272h235l-110 -528h-267l64 307h-1168l-63 -307h-266zM541 256h551l208 981h-454l-84 -389q-82 -392 -221 -592z" />
<glyph unicode="&#x415;" horiz-adv-x="1363" d="M80 0l317 1493h1080l-56 -256h-772l-71 -338h714l-53 -256h-715l-82 -387h809l-55 -256h-1116z" />
<glyph unicode="&#x416;" horiz-adv-x="2158" d="M-37 0l895 774l-487 719h336l380 -571l121 571h308l-121 -571l622 571h336l-794 -719l567 -774h-367l-436 584l-125 -584h-307l125 584l-686 -584h-367z" />
<glyph unicode="&#x417;" horiz-adv-x="1349" d="M55 348q0 51 8 98h299q-4 -28 -4 -43q0 -99 76 -151.5t213 -52.5q156 0 252 68t96 190q0 79 -56 126.5t-179 47.5h-209l51 246h156q162 0 247 67.5t85 165.5q0 69 -61 115.5t-163 46.5q-146 0 -238 -60t-124 -174h-287q22 103 61.5 176t108.5 134q188 170 518 170 q231 0 355 -90.5t124 -258.5q0 -126 -56 -233t-146 -164q123 -75 123 -223q0 -127 -37 -228.5t-102.5 -169.5t-158 -113t-199 -65t-230.5 -20q-254 0 -388.5 102t-134.5 293z" />
<glyph unicode="&#x418;" horiz-adv-x="1478" d="M57 0l318 1493h307l-215 -1016l807 1016h315l-317 -1493h-307l219 1032l-819 -1032h-308z" />
<glyph unicode="&#x419;" horiz-adv-x="1478" d="M57 0l318 1493h307l-215 -1016l807 1016h315l-317 -1493h-307l219 1032l-819 -1032h-308zM797 1853q0 36 12 80h86v-16q0 -55 40 -86t112 -31q157 0 210 133h86q-22 -126 -115 -209.5t-214 -83.5q-97 0 -157 59t-60 154z" />
<glyph unicode="&#x41a;" horiz-adv-x="1474" d="M70 0l317 1493h307l-121 -571l705 571h362l-903 -719l666 -774h-383l-518 584l-125 -584h-307z" />
<glyph unicode="&#x41b;" horiz-adv-x="1478" d="M-145 0l61 297q104 -1 179 158.5t143 488.5l114 549h1069l-315 -1493h-307l262 1237h-455l-82 -389q-18 -85 -38 -159.5t-52 -163.5t-68.5 -161t-89 -142t-112.5 -117t-139.5 -76t-169.5 -29z" />
<glyph unicode="&#x41c;" horiz-adv-x="1726" d="M57 0l318 1493h459l18 -1188l514 1188h463l-318 -1493h-307l248 1163l-512 -1163h-307l-21 1163l-247 -1163h-308z" />
<glyph unicode="&#x41d;" horiz-adv-x="1478" d="M57 0l318 1493h307l-127 -600h590l127 600h309l-317 -1493h-308l136 637h-592l-135 -637h-308z" />
<glyph unicode="&#x41e;" horiz-adv-x="1593" d="M135 535q0 246 95.5 441t256.5 335q239 207 553 207q320 0 467 -207q109 -151 109 -379q0 -244 -96 -438.5t-256 -333.5q-238 -207 -555 -207q-319 0 -465 207q-109 148 -109 375zM446 573q0 -167 84.5 -262.5t235.5 -95.5q104 0 203 55.5t172.5 148t118.5 218.5t45 260 q0 169 -83 263.5t-235 94.5q-142 0 -267.5 -95t-199.5 -252.5t-74 -334.5z" />
<glyph unicode="&#x41f;" horiz-adv-x="1478" d="M57 0l318 1493h1206l-317 -1493h-308l263 1237h-592l-262 -1237h-308z" />
<glyph unicode="&#x420;" horiz-adv-x="1329" d="M57 0l318 1493h659q195 0 296.5 -84.5t101.5 -245.5q0 -126 -46.5 -242.5t-124 -201.5t-183 -136t-218.5 -51h-383l-112 -532h-308zM530 788h287q139 0 218 82.5t79 212.5q0 154 -201 154h-286z" />
<glyph unicode="&#x421;" horiz-adv-x="1714" d="M135 498q0 210 69 399.5t186 325.5t279.5 215.5t342.5 79.5q167 0 288.5 -61t184.5 -175q45 -83 45 -186q0 -31 -8 -109h-293q-3 106 -33 160q-64 108 -229 108q-144 0 -265 -98t-189.5 -261.5t-68.5 -354.5q0 -158 75.5 -244t213.5 -86q143 0 247 78.5t148 220.5h299 q-69 -256 -273 -406.5t-482 -150.5q-255 0 -396 144.5t-141 400.5z" />
<glyph unicode="&#x422;" horiz-adv-x="1251" d="M209 1237l55 256h1196l-55 -256h-436l-262 -1237h-308l263 1237h-453z" />
<glyph unicode="&#x423;" horiz-adv-x="1429" d="M197 0l331 463l-299 1030h334l203 -707l502 707h356l-1071 -1493h-356z" />
<glyph unicode="&#x424;" horiz-adv-x="1847" d="M-35 598q0 161 43 285t116.5 203t181 129.5t227 71t264.5 20.5l41 186h307l-41 -186q49 0 83.5 -1t83 -3.5t84 -8.5t78.5 -15.5t74.5 -25t64.5 -36t55.5 -49.5t41.5 -64.5t28 -82t9 -101.5q0 -164 -46.5 -291.5t-123.5 -208t-187 -133t-227.5 -73.5t-253.5 -21l-41 -193 h-307l41 193q-56 0 -96.5 1t-94 5.5t-92 12.5t-83.5 22.5t-76.5 35t-62.5 51.5t-49.5 70t-30 91.5t-11.5 115.5zM240 625q0 -69 22 -117t49.5 -71.5t83 -36t90.5 -14t105 -1.5h12l152 721q-514 0 -514 -481zM909 385q120 0 210 24t160.5 77.5t107 148.5t36.5 229 q0 39 -7.5 71.5t-19.5 56t-32.5 42t-39 30.5t-48 20t-51 12.5t-55.5 6.5t-54.5 2.5t-54.5 0.5z" />
<glyph unicode="&#x425;" horiz-adv-x="1359" d="M-37 0l592 758l-283 735h365l156 -451l368 451h342l-602 -741l291 -752h-344l-172 457l-357 -457h-356z" />
<glyph unicode="&#x426;" horiz-adv-x="1495" d="M57 0l318 1493h307l-262 -1237h592l262 1237h307l-270 -1272h286l-112 -528h-266l65 307h-1227z" />
<glyph unicode="&#x427;" horiz-adv-x="1374" d="M248 901q0 67 16 152l94 440h308l-99 -459q-12 -70 -12 -96q0 -60 39.5 -90.5t136.5 -30.5h293l143 676h310l-318 -1493h-307l119 561h-295q-225 0 -326.5 88.5t-101.5 251.5z" />
<glyph unicode="&#x428;" horiz-adv-x="2254" d="M57 0l318 1493h307l-262 -1237h530l262 1237h308l-263 -1237h531l262 1237h307l-317 -1493h-1983z" />
<glyph unicode="&#x429;" horiz-adv-x="2414" d="M57 0l318 1493h307l-262 -1237h530l262 1237h308l-263 -1237h531l262 1237h307l-270 -1272h287l-113 -528h-266l65 307h-2003z" />
<glyph unicode="&#x42a;" horiz-adv-x="1671" d="M209 1237l53 256h778l-112 -532h383q171 0 265.5 -94.5t94.5 -260.5q0 -172 -74 -310t-210.5 -217t-311.5 -79h-659l264 1237h-471zM778 256h287q138 0 216.5 83.5t78.5 213.5q0 152 -201 152h-287z" />
<glyph unicode="&#x42b;" horiz-adv-x="1923" d="M53 0l318 1493h307l-113 -532h383q171 0 266 -95t95 -260q0 -172 -74 -310t-210.5 -217t-311.5 -79h-660zM416 256h286q138 0 216.5 83.5t78.5 213.5q0 152 -200 152h-287zM1417 0l318 1493h307l-318 -1493h-307z" />
<glyph unicode="&#x42c;" horiz-adv-x="1308" d="M53 0l318 1493h307l-113 -532h383q171 0 266 -95t95 -260q0 -172 -74 -310t-210.5 -217t-311.5 -79h-660zM416 256h286q138 0 216.5 83.5t78.5 213.5q0 152 -200 152h-287z" />
<glyph unicode="&#x42d;" horiz-adv-x="1509" d="M135 403q0 58 8 107h299q-4 -36 -4 -51q0 -120 70.5 -184t200.5 -64q159 0 279.5 111.5t182.5 314.5h-598l56 256h596v18q0 163 -80 253.5t-225 90.5q-167 0 -275 -108q-52 -52 -102 -160h-293q30 99 67 166t97 129q111 114 257.5 175t313.5 61q260 0 402.5 -145 t142.5 -404q0 -202 -68.5 -389t-184.5 -324.5t-277 -220t-338 -82.5q-246 0 -386.5 121t-140.5 329z" />
<glyph unicode="&#x42e;" horiz-adv-x="2226" d="M53 0l318 1493h307l-127 -600h285q95 251 286 418q236 207 551 207q319 0 469 -207q107 -150 107 -375q0 -246 -96.5 -442t-256.5 -334q-235 -207 -553 -207q-317 0 -466 207q-107 147 -107 368q0 54 6 109h-278l-138 -637h-307zM1079 573q0 -167 84 -262.5t236 -95.5 q108 0 208 56t172.5 149t116 219t43.5 260q0 168 -83.5 262t-235.5 94q-142 0 -267.5 -95t-199.5 -252.5t-74 -334.5z" />
<glyph unicode="&#x42f;" horiz-adv-x="1413" d="M-37 0l617 535q-143 14 -223.5 105.5t-80.5 250.5q0 171 74.5 308t211 215.5t310.5 78.5h660l-318 -1493h-307l113 532h-68l-622 -532h-367zM588 940q0 -152 200 -152h287l94 449h-286q-138 0 -216.5 -83.5t-78.5 -213.5z" />
<glyph unicode="&#x430;" horiz-adv-x="1134" d="M23 199q0 177 107 288.5t302 145.5l119 20q147 25 203.5 55.5t56.5 100.5q0 84 -145 84q-105 0 -156 -33t-80 -119h-276q108 383 555 383q389 0 389 -252q0 -31 -11 -88l-131 -614q-4 -32 -4 -41q0 -48 41 -94l-6 -35h-311q-19 32 -19 55q0 4 9 56q-187 -158 -369 -158 q-117 0 -195.5 63.5t-78.5 182.5zM322 285q0 -46 35 -73.5t96 -27.5q104 0 180 68.5t102 191.5l17 78q-48 -21 -129 -35l-101 -18q-200 -41 -200 -184z" />
<glyph unicode="&#x431;" horiz-adv-x="1251" d="M74 360q0 120 34 269.5t95 299t159 279t213 193.5q30 16 66 28.5t86 21t79.5 12.5t94.5 11t82 9q27 3 50.5 15.5t37.5 27.5t23.5 29t13.5 24l4 10l213 2q-9 -42 -15.5 -66t-20 -58.5t-33.5 -60t-48 -42.5q-54 -34 -111.5 -50t-107 -20t-99.5 -8t-106.5 -21t-109.5 -53 q-48 -32 -99.5 -94t-78.5 -108l-27 -47q133 161 338 161q101 0 185 -48t124 -130q49 -101 49 -246q0 -204 -88 -375.5t-243 -271.5t-342 -100q-418 0 -418 407zM365 422q0 -106 48 -167.5t134 -61.5q84 0 160 66t121.5 172.5t45.5 221.5q0 107 -48 169.5t-132 62.5 q-85 0 -161.5 -65.5t-122 -173t-45.5 -224.5z" />
<glyph unicode="&#x432;" horiz-adv-x="1261" d="M41 0l235 1106h570q147 0 226 -61.5t79 -178.5q0 -215 -184 -280q67 -32 99 -88.5t32 -124.5q0 -160 -132.5 -266.5t-328.5 -106.5h-596zM375 225h250q192 0 192 150q0 44 -35 63t-108 19h-250zM473 682h217q91 0 133.5 29t42.5 94q0 42 -32.5 59t-102.5 17h-217z" />
<glyph unicode="&#x433;" horiz-adv-x="972" d="M41 0l235 1106h713l-49 -232h-426l-186 -874h-287z" />
<glyph unicode="&#x434;" horiz-adv-x="1646" d="M-127 -256l98 463h197q39 1 81 49t75 118.5t57 138t35 118.5l102 475h899l-192 -899h188l-98 -463h-225l55 256h-991l-56 -256h-225zM539 231h405l137 643h-325l-58 -268q-60 -267 -159 -375z" />
<glyph unicode="&#x435;" horiz-adv-x="1130" d="M49 352q0 151 52 293t140 247t210.5 168.5t257.5 63.5q188 0 299.5 -103t111.5 -296q0 -99 -24 -213q-2 -15 -13 -49h-741q-12 -79 -12 -123q0 -82 50.5 -125t129.5 -43q78 0 143.5 36.5t106.5 102.5h282q-83 -163 -243 -260.5t-346 -97.5q-193 0 -298.5 104.5 t-105.5 294.5zM387 653h440q4 46 4 62q0 95 -45.5 142.5t-128.5 47.5q-187 0 -270 -252z" />
<glyph unicode="&#x436;" horiz-adv-x="1587" d="M-49 0l565 606l-256 500h303l189 -387l82 387h286l-82 -387l353 387h303l-469 -500l307 -606h-367l-194 406l-86 -406h-287l86 406l-367 -406h-366z" />
<glyph unicode="&#x437;" d="M33 244q0 39 8 78h281v-17q0 -34 12 -58t29.5 -37t45 -20.5t51 -9.5t56.5 -2q242 0 242 156q0 92 -146 92h-188l49 225h182q53 0 88.5 14t51 39t21 47t5.5 50q0 40 -40.5 69t-106.5 29q-101 0 -156 -36.5t-72 -112.5h-276q40 176 184.5 275t366.5 99q183 0 284 -76 t101 -210q0 -94 -34.5 -169.5t-96.5 -113.5q80 -59 80 -154q0 -132 -76.5 -235t-206.5 -158t-289 -55q-221 0 -335.5 75t-114.5 216z" />
<glyph unicode="&#x438;" horiz-adv-x="1302" d="M41 0l235 1106h287l-149 -703l534 703h318l-236 -1106h-287l150 702l-535 -702h-317z" />
<glyph unicode="&#x439;" horiz-adv-x="1302" d="M41 0l235 1106h287l-149 -703l534 703h318l-236 -1106h-287l150 702l-535 -702h-317zM582 1464q0 36 12 80h86v-16q0 -56 39.5 -86.5t111.5 -30.5q158 0 211 133h86q-22 -126 -115 -209.5t-214 -83.5q-97 0 -157 59t-60 154z" />
<glyph unicode="&#x43a;" horiz-adv-x="1083" d="M39 0l235 1106h287l-82 -387l414 387h303l-545 -500l389 -606h-372l-256 406l-86 -406h-287z" />
<glyph unicode="&#x43b;" horiz-adv-x="1245" d="M-139 0l57 276q32 0 59 12t46.5 28.5t37 47t28.5 55t23 68t18.5 70t16.5 74.5l101 475h899l-234 -1106h-286l184 874h-326l-55 -268q-21 -102 -55.5 -191.5t-85 -166t-113 -131.5t-143 -86t-172.5 -31z" />
<glyph unicode="&#x43c;" horiz-adv-x="1427" d="M41 0l235 1106h287l150 -569l391 569h287l-236 -1106h-287l113 526l-279 -374h-143l-119 374l-112 -526h-287z" />
<glyph unicode="&#x43d;" horiz-adv-x="1302" d="M41 0l235 1106h287l-82 -385h416l82 385h287l-236 -1106h-287l109 485h-416l-108 -485h-287z" />
<glyph unicode="&#x43e;" horiz-adv-x="1251" d="M86 371q0 206 91.5 379t250 273.5t346.5 100.5q215 0 330 -108.5t115 -308.5q0 -155 -54 -294.5t-146 -240.5t-220 -160t-271 -59q-213 0 -327.5 109.5t-114.5 308.5zM379 424q0 -110 53 -175t146 -65q90 0 170.5 65.5t128 174t47.5 229.5q0 113 -51 176.5t-146 63.5 q-90 0 -171 -66t-129 -174.5t-48 -228.5z" />
<glyph unicode="&#x43f;" horiz-adv-x="1302" d="M41 0l235 1106h990l-236 -1106h-287l187 874h-416l-186 -874h-287z" />
<glyph unicode="&#x440;" horiz-adv-x="1251" d="M-131 -446l332 1552h286l-34 -164q139 182 346 182q99 0 183 -48t122 -126q51 -102 51 -243q0 -149 -52 -289.5t-136 -242t-194.5 -163t-223.5 -61.5q-104 0 -170 44t-100 136l-123 -577h-287zM352 420q0 -106 48.5 -168t134.5 -62q82 0 158 65t122.5 173.5t46.5 226.5 q0 107 -47.5 168.5t-132.5 61.5t-162 -66.5t-122.5 -174.5t-45.5 -224z" />
<glyph unicode="&#x441;" horiz-adv-x="1134" d="M76 354q0 206 87 382.5t241.5 282t340.5 105.5t289 -93t103 -259q0 -29 -7 -80h-274q-2 109 -38.5 155t-123.5 46q-126 0 -198 -94q-53 -69 -90 -178t-37 -218q0 -106 44 -162.5t132 -56.5q83 0 139 45.5t107 153.5h274q-61 -198 -215.5 -314t-355.5 -116 q-200 0 -309 106.5t-109 294.5z" />
<glyph unicode="&#x442;" horiz-adv-x="929" d="M125 874l49 232h840l-49 -232h-277l-186 -874h-287l186 874h-276z" />
<glyph unicode="&#x443;" horiz-adv-x="1130" d="M-6 -440l45 215q45 -13 74 -13q76 0 148.5 56t72.5 123l-2 14l-168 1151h313l92 -764l387 764h271l-684 -1313q-51 -91 -105.5 -135t-130.5 -72q-93 -35 -213 -35q-38 0 -100 9z" />
<glyph unicode="&#x444;" horiz-adv-x="2025" d="M66 371q0 192 80 365t221 280.5t305 107.5q204 0 268 -182l113 531h286l-112 -531q142 182 346 182q100 0 184.5 -48t122.5 -126q49 -94 49 -241q0 -120 -33.5 -235.5t-92.5 -208.5t-134.5 -164.5t-165.5 -110.5t-180 -39q-104 0 -170 44t-98 136l-123 -577h-287l123 577 q-140 -180 -346 -180q-161 0 -258.5 119.5t-97.5 300.5zM358 420q0 -105 48.5 -167.5t132.5 -62.5t160 65t121.5 172t45.5 226q0 107 -47.5 169.5t-132.5 62.5t-161.5 -66t-121.5 -174t-45 -225zM1128 420q0 -107 47.5 -168.5t133.5 -61.5q84 0 160 64.5t121.5 171 t45.5 225.5q0 109 -47 171.5t-133 62.5q-84 0 -160.5 -65.5t-122 -173.5t-45.5 -226z" />
<glyph unicode="&#x445;" horiz-adv-x="1134" d="M-49 0l479 553l-235 553h329l123 -297l242 297h342l-475 -559l227 -547h-332l-114 303l-242 -303h-344z" />
<glyph unicode="&#x446;" horiz-adv-x="1355" d="M41 0l235 1106h287l-186 -875h416l186 875h287l-193 -899h246l-98 -463h-226l56 256h-1010z" />
<glyph unicode="&#x447;" horiz-adv-x="1241" d="M178 633q0 55 15 123l73 350h287l-78 -363q-10 -48 -10 -75q0 -50 33 -74.5t114 -24.5h191l115 537h286l-235 -1106h-287l72 338h-174q-402 0 -402 295z" />
<glyph unicode="&#x448;" horiz-adv-x="1912" d="M41 0l235 1106h287l-186 -875h366l187 875h287l-187 -875h373l186 875h287l-236 -1106h-1599z" />
<glyph unicode="&#x449;" horiz-adv-x="1966" d="M41 0l233 1106h287l-184 -875h366l185 875h286l-184 -875h373l184 875h287l-191 -899h246l-98 -463h-225l55 256h-1620z" />
<glyph unicode="&#x44a;" horiz-adv-x="1380" d="M123 874l49 232h637l-90 -424h207q194 0 293.5 -68t99.5 -200q0 -186 -125 -300t-340 -114h-565l184 874h-350zM623 225h231q91 0 135.5 35.5t44.5 110.5q0 48 -41 67t-121 19h-200z" />
<glyph unicode="&#x44b;" horiz-adv-x="1667" d="M41 0l235 1106h287l-90 -424h186q194 0 292 -72.5t98 -208.5q0 -184 -126 -292.5t-337 -108.5h-545zM377 225h198q93 0 142 43t49 117q0 43 -32.5 57.5t-108.5 14.5h-199zM1108 0l235 1106h287l-235 -1106h-287z" />
<glyph unicode="&#x44c;" horiz-adv-x="1140" d="M41 0l235 1106h287l-90 -424h217q194 0 291.5 -72.5t97.5 -208.5q0 -183 -128 -292t-335 -109h-575zM375 225h229q95 0 144 39t49 113q0 44 -35 62t-109 18h-229z" />
<glyph unicode="&#x44d;" horiz-adv-x="1177" d="M86 317q0 20 4 66h275q5 -108 41.5 -153.5t119.5 -45.5q91 0 163.5 63t115.5 177h-361l50 231h356q3 88 -14 144q-31 94 -158 94q-88 0 -144.5 -46t-103.5 -155h-274q58 202 210 317t359 115q202 0 309 -104.5t107 -300.5q0 -207 -81.5 -381t-234.5 -279.5t-346 -105.5 q-185 0 -289 95.5t-104 268.5z" />
<glyph unicode="&#x44e;" horiz-adv-x="1818" d="M41 0l235 1106h287l-96 -451h238q77 221 244 345t392 124q215 0 329 -107t114 -306q0 -207 -90.5 -381t-249.5 -275.5t-350 -101.5q-212 0 -326.5 110t-114.5 308q0 35 2 53h-237l-90 -424h-287zM946 424q0 -111 52 -175.5t145 -64.5q90 0 171 66.5t129 176t48 230.5 q0 110 -52 173t-145 63q-90 0 -171 -66t-129 -174.5t-48 -228.5z" />
<glyph unicode="&#x44f;" horiz-adv-x="1302" d="M-6 0l414 446q-98 29 -150.5 97t-52.5 162q0 180 127 290.5t338 110.5h596l-236 -1106h-287l91 424h-91l-383 -424h-366zM489 741q0 -92 144 -92h250l49 232h-250q-97 0 -145 -34t-48 -106z" />
<glyph unicode="&#x450;" horiz-adv-x="1130" d="M49 352q0 151 52 293t140 247t210.5 168.5t257.5 63.5q188 0 299.5 -103t111.5 -296q0 -99 -24 -213q-2 -15 -13 -49h-741q-12 -79 -12 -123q0 -82 50.5 -125t129.5 -43q78 0 143.5 36.5t106.5 102.5h282q-83 -163 -243 -260.5t-346 -97.5q-193 0 -298.5 104.5 t-105.5 294.5zM387 653h440q4 46 4 62q0 95 -45.5 142.5t-128.5 47.5q-187 0 -270 -252zM463 1554h244l92 -307h-129z" />
<glyph unicode="&#x451;" horiz-adv-x="1130" d="M49 352q0 151 52 293t140 247t210.5 168.5t257.5 63.5q188 0 299.5 -103t111.5 -296q0 -99 -24 -213q-2 -15 -13 -49h-741q-12 -79 -12 -123q0 -82 50.5 -125t129.5 -43q78 0 143.5 36.5t106.5 102.5h282q-83 -163 -243 -260.5t-346 -97.5q-193 0 -298.5 104.5 t-105.5 294.5zM387 653h440q4 46 4 62q0 95 -45.5 142.5t-128.5 47.5q-187 0 -270 -252zM432 1247l53 246h226l-54 -246h-225zM813 1247l53 246h226l-54 -246h-225z" />
<glyph unicode="&#x452;" horiz-adv-x="1251" d="M55 0l254 1192h-133l35 164h133l29 137h286l-28 -137h297l-35 -164h-297l-64 -295q81 96 170.5 141t198.5 45q134 0 215.5 -74.5t81.5 -195.5q0 -55 -12 -113l-150 -700q-58 -270 -297 -270h-166l25 118q68 0 101 38t49 118l131 596q12 64 12 98q0 75 -39 115.5 t-111 40.5q-98 0 -173 -74t-101 -198l-125 -582h-287z" />
<glyph unicode="&#x453;" horiz-adv-x="972" d="M41 0l235 1106h713l-49 -232h-426l-186 -874h-287zM592 1247l209 307h258l-324 -307h-143z" />
<glyph unicode="&#x454;" horiz-adv-x="1177" d="M86 358q0 207 81.5 381t234.5 279.5t346 105.5q185 0 289 -95.5t104 -268.5q0 -20 -4 -66h-275q-5 107 -42 153t-120 46q-90 0 -162.5 -63t-115.5 -177h360l-49 -231h-356q-3 -87 14 -143q31 -95 158 -95q88 0 144.5 46t103.5 155h274q-58 -202 -210 -317t-359 -115 q-202 0 -309 104.5t-107 300.5z" />
<glyph unicode="&#x455;" d="M-70 322h281q0 -44 7.5 -66t27.5 -39q48 -39 162 -39q100 0 162 29t73 80q7 34 -10 53.5t-68 36.5l-319 106q-73 26 -105 44.5t-55 47.5q-48 66 -23 181q35 170 178.5 269t354.5 99q222 0 328.5 -99.5t72.5 -274.5h-276q14 75 -29.5 112t-146.5 37q-75 0 -126.5 -28 t-60.5 -74q-7 -34 9 -50.5t73 -35.5l340 -105q204 -64 158 -278q-17 -81 -67.5 -154t-122.5 -123q-140 -98 -373 -98q-252 0 -364.5 93.5t-80.5 275.5z" />
<glyph unicode="&#x456;" horiz-adv-x="569" d="M55 0l236 1106h287l-236 -1106h-287zM317 1237l56 256h286l-55 -256h-287z" />
<glyph unicode="&#x457;" horiz-adv-x="569" d="M55 0l236 1106h287l-236 -1106h-287zM137 1241l49 236h258l-49 -236h-258zM537 1241l49 236h258l-49 -236h-258z" />
<glyph unicode="&#x458;" horiz-adv-x="569" d="M-170 -436l49 227q11 -8 51 -8q46 0 70.5 20.5t34.5 69.5l262 1233h287l-277 -1299q-28 -133 -119 -193t-266 -60q-56 0 -92 10zM324 1237l55 256h287l-56 -256h-286z" />
<glyph unicode="&#x459;" horiz-adv-x="1761" d="M-139 0l57 276q32 0 59 12t46.5 28.5t37 47t28.5 55t23 68t18.5 70t16.5 74.5l101 475h901l-90 -424h237q194 0 292 -72.5t98 -208.5q0 -183 -128 -292t-335 -109h-596l184 874h-326l-55 -268q-21 -102 -55.5 -191.5t-85 -166t-113 -131.5t-143 -86t-172.5 -31zM961 225 h249q95 0 144 39t49 113q0 44 -34.5 62t-108.5 18h-250z" />
<glyph unicode="&#x45a;" horiz-adv-x="1685" d="M-70 0l234 1106h287l-91 -428h416l90 428h289l-90 -424h184q194 0 291.5 -72.5t97.5 -208.5q0 -183 -127.5 -292t-334.5 -109h-543l96 457h-416l-96 -457h-287zM967 225h196q95 0 144 39t49 113q0 44 -35 62t-109 18h-196z" />
<glyph unicode="&#x45b;" horiz-adv-x="1251" d="M55 0l254 1192h-133l35 164h133l29 137h286l-28 -137h297l-35 -164h-297l-64 -295q81 96 170.5 141t198.5 45q134 0 215.5 -74.5t81.5 -195.5q0 -55 -12 -113l-150 -700h-286l129 600q12 64 12 98q0 75 -39 115.5t-111 40.5q-98 0 -173 -74t-101 -198l-125 -582h-287z " />
<glyph unicode="&#x45c;" horiz-adv-x="1083" d="M39 0l235 1106h287l-82 -387l414 387h303l-545 -500l389 -606h-372l-256 406l-86 -406h-287zM694 1247l209 307h258l-323 -307h-144z" />
<glyph unicode="&#x45d;" horiz-adv-x="1302" d="M41 0l235 1106h287l-149 -703l534 703h318l-236 -1106h-287l150 702l-535 -702h-317zM530 1554h244l92 -307h-129z" />
<glyph unicode="&#x45e;" horiz-adv-x="1130" d="M-6 -440l45 215q45 -13 74 -13q76 0 148.5 56t72.5 123l-2 14l-168 1151h313l92 -764l387 764h271l-684 -1313q-51 -91 -105.5 -135t-130.5 -72q-93 -35 -213 -35q-38 0 -100 9zM518 1460q0 36 12 80h86v-16q0 -55 40 -86t112 -31q158 0 211 133h86 q-22 -126 -115.5 -209.5t-214.5 -83.5q-97 0 -157 59t-60 154z" />
<glyph unicode="&#x45f;" horiz-adv-x="1245" d="M-49 0l235 1106h287l-186 -875h418l186 875h287l-236 -1106h-383l-55 -256h-225l55 256h-383z" />
<glyph unicode="&#x48c;" horiz-adv-x="1308" d="M53 0l240 1128h-154l35 164h154l43 201h307l-43 -201h153l-34 -164h-154l-35 -167h383q171 0 266 -95t95 -260q0 -172 -74 -310t-210.5 -217t-311.5 -79h-660zM416 256h286q138 0 216.5 83.5t78.5 213.5q0 152 -200 152h-287z" />
<glyph unicode="&#x48d;" horiz-adv-x="1267" d="M41 0l174 815h-149l30 164h154l26 127h287l-26 -127h170l-31 -164h-174l-29 -133h186q194 0 292 -72.5t98 -208.5q0 -183 -128 -292t-335 -109h-545zM375 225h198q94 0 143.5 42.5t49.5 117.5q0 43 -33.5 57.5t-109.5 14.5h-199z" />
<glyph unicode="&#x48e;" horiz-adv-x="1329" d="M57 0l318 1493h659q233 0 331.5 -119.5t51.5 -343.5q-44 -199 -162 -323l127 -127l-141 -91l-113 113q-124 -70 -268 -70h-383l-112 -532h-308zM530 788h287q61 0 111 15l-121 121l141 90l115 -115q28 48 43 113q25 115 -22.5 170t-170.5 55h-286z" />
<glyph unicode="&#x48f;" horiz-adv-x="1251" d="M-131 -446l332 1552h286l-34 -164q139 182 346 182q99 0 183 -48t122 -126q40 -77 49 -186.5t-16 -226.5q-37 -172 -133 -314l149 -149l-141 -90l-115 114q-163 -147 -348 -147q-104 0 -170 44t-100 136l-123 -577h-287zM367 537q-34 -155 13 -251t155 -96q101 0 184 86 l-141 142l141 90l92 -92q30 78 37 116q34 158 -11.5 255.5t-154.5 97.5q-107 0 -195 -96.5t-120 -251.5z" />
<glyph unicode="&#x490;" horiz-adv-x="1251" d="M-119 0l318 1493l741 -2l59 278h308l-113 -532h-741l-265 -1237h-307z" />
<glyph unicode="&#x491;" horiz-adv-x="929" d="M-96 0l235 1106h451l55 258h262l-104 -490h-426l-187 -874h-286z" />
<glyph unicode="&#x492;" horiz-adv-x="1251" d="M70 0l170 797h-158l35 164h157l113 532h1049l-56 -256h-741l-59 -276h151l-35 -164h-151l-168 -797h-307z" />
<glyph unicode="&#x493;" horiz-adv-x="972" d="M-12 541l35 164h167l86 401h713l-49 -232h-426l-37 -169h160l-35 -164h-160l-114 -541h-287l115 541h-168z" />
<glyph unicode="&#x494;" horiz-adv-x="1251" d="M70 0l317 1493h1049l-56 -256h-741l-66 -305h295q225 0 326.5 -88.5t101.5 -251.5q0 -67 -16 -152l-94 -440q-14 -63 -30.5 -108.5t-48 -92t-75.5 -75t-113.5 -46.5t-160.5 -18h-213l45 219h112q94 0 129.5 30t47.5 91l98 459q12 70 12 96q0 60 -39.5 90.5t-136.5 30.5 h-293l-143 -676h-307z" />
<glyph unicode="&#x495;" horiz-adv-x="972" d="M41 0l235 1106h713l-49 -232h-426l-51 -262h221q134 0 215.5 -74.5t81.5 -195.5q0 -54 -12 -113l-49 -229q-58 -270 -297 -270h-166l37 180q70 0 99.5 29.5t45.5 105.5l37 148q10 54 10 69q0 121 -125 121h-151l-82 -383h-287z" />
<glyph unicode="&#x496;" horiz-adv-x="2158" d="M-37 0l895 774l-487 719h336l380 -571l121 571h308l-121 -571l622 571h336l-794 -719l405 -553h209l-113 -528h-266l66 307h-101l-436 584l-125 -584h-307l125 584l-686 -584h-367z" />
<glyph unicode="&#x497;" horiz-adv-x="1587" d="M-49 0l565 606l-256 500h303l189 -387l82 387h286l-82 -387l353 387h303l-469 -500l202 -399h148l-98 -463h-226l56 256h-142l-194 406l-86 -406h-287l86 406l-367 -406h-366z" />
<glyph unicode="&#x498;" horiz-adv-x="1349" d="M55 348q0 51 8 98h299q-4 -28 -4 -43q0 -99 76 -151.5t213 -52.5q156 0 252 68t96 190q0 79 -56 126.5t-179 47.5h-209l51 246h156q162 0 247 67.5t85 165.5q0 69 -61 115.5t-163 46.5q-146 0 -238 -60t-124 -174h-287q22 103 61.5 176t108.5 134q188 170 518 170 q231 0 355 -90.5t124 -258.5q0 -126 -56 -233t-146 -164q123 -75 123 -223q0 -119 -32.5 -215.5t-90 -163.5t-140 -114t-178.5 -71t-209 -30q16 -7 72 -43q64 -44 100.5 -106.5t36.5 -127.5q0 -72 -73.5 -113.5t-200.5 -41.5q-59 0 -158 18l-20 107q67 -23 145 -23 q102 0 102 82q0 71 -69 158q-24 30 -43.5 46t-69.5 46q-207 20 -314.5 120t-107.5 271z" />
<glyph unicode="&#x499;" d="M33 244q0 39 8 78h281v-17q0 -34 12 -58t29.5 -37t45 -20.5t51 -9.5t56.5 -2q242 0 242 156q0 92 -146 92h-188l49 225h182q53 0 88.5 14t51 39t21 47t5.5 50q0 40 -40.5 69t-106.5 29q-101 0 -156 -36.5t-72 -112.5h-276q40 176 184.5 275t366.5 99q183 0 284 -76 t101 -210q0 -94 -34.5 -169.5t-96.5 -113.5q80 -59 80 -154q0 -182 -138 -302.5t-352 -141.5q41 -21 74 -45q64 -44 100.5 -106.5t36.5 -127.5q0 -72 -73.5 -113.5t-200.5 -41.5q-59 0 -158 18l-20 107q67 -23 145 -23q102 0 102 82q0 71 -69 158q-24 30 -43.5 46t-69.5 46 q-176 15 -266 88.5t-90 198.5z" />
<glyph unicode="&#x49a;" horiz-adv-x="1474" d="M70 0l317 1493h307l-121 -571l705 571h362l-903 -719l463 -553h225l-112 -528h-266l65 307h-100l-510 584l-125 -584h-307z" />
<glyph unicode="&#x49b;" horiz-adv-x="1083" d="M39 0l235 1106h287l-82 -387l414 387h303l-545 -500l256 -399h176l-98 -463h-225l55 256h-147l-256 406l-86 -406h-287z" />
<glyph unicode="&#x49c;" horiz-adv-x="1474" d="M70 0l317 1493h307l-121 -571l78 63l70 326h225l-22 -105l354 287h362l-788 -629l-39 -178l590 -686h-383l-285 322l-24 -117h-226l68 319l-51 60l-125 -584h-307z" />
<glyph unicode="&#x49d;" horiz-adv-x="1083" d="M39 0l235 1106h287l-82 -387l68 63l57 265h184l-10 -50l115 109h303l-491 -451l-21 -100l356 -555h-372l-76 121l-10 -43h-185l56 262l-41 66l-86 -406h-287z" />
<glyph unicode="&#x49e;" horiz-adv-x="1474" d="M70 0l254 1192h-150l35 164h149l29 137h307l-28 -137h157l-35 -164h-157l-58 -270l705 571h362l-903 -719l666 -774h-383l-518 584l-125 -584h-307z" />
<glyph unicode="&#x49f;" horiz-adv-x="1083" d="M39 0l184 864h-102l35 164h102l16 78h287l-16 -78h84l-35 -164h-84l-31 -145l414 387h303l-545 -500l389 -606h-372l-256 406l-86 -406h-287z" />
<glyph unicode="&#x4a0;" horiz-adv-x="1820" d="M209 1237l53 256h778l-120 -571l704 571h363l-904 -719l666 -774h-383l-518 584l-125 -584h-307l262 1237h-469z" />
<glyph unicode="&#x4a1;" horiz-adv-x="1331" d="M123 874l49 232h637l-82 -387l414 387h303l-545 -500l389 -606h-373l-256 406l-86 -406h-284l184 874h-350z" />
<glyph unicode="&#x4a2;" horiz-adv-x="1478" d="M57 0l318 1493h307l-127 -600h590l127 600h309l-272 -1272h268l-113 -528h-266l66 307h-308l136 637h-592l-135 -637h-308z" />
<glyph unicode="&#x4a3;" horiz-adv-x="1302" d="M41 0l235 1106h287l-82 -385h416l82 385h287l-193 -899h225l-98 -463h-225l55 256h-287l109 485h-416l-108 -485h-287z" />
<glyph unicode="&#x4a4;" horiz-adv-x="2031" d="M57 0l318 1493h307l-127 -600h590l125 600h946l-55 -256h-639l-262 -1237h-304l136 637h-592l-135 -637h-308z" />
<glyph unicode="&#x4a5;" horiz-adv-x="1652" d="M41 0l235 1106h287l-82 -385h416l80 385h692l-49 -232h-406l-186 -874h-285l109 485h-416l-108 -485h-287z" />
<glyph unicode="&#x4a6;" horiz-adv-x="2185" d="M57 0l318 1493h1206l-119 -561h295q225 0 326.5 -88.5t101.5 -251.5q0 -67 -16 -152l-94 -440q-14 -63 -30.5 -108.5t-48 -92t-75.5 -75t-113.5 -46.5t-160.5 -18h-213l45 219h112q50 0 83 8.5t51.5 26.5t27 37t14.5 49l99 459q12 70 12 96q0 60 -39.5 90.5t-136.5 30.5 h-293l-143 -676h-310l263 1237h-592l-262 -1237h-308z" />
<glyph unicode="&#x4a7;" horiz-adv-x="1794" d="M41 0l235 1106h990l-101 -494h221q134 0 215.5 -74.5t81.5 -195.5q0 -54 -12 -113l-49 -229q-58 -270 -297 -270h-166l37 180q70 0 99.5 29.5t45.5 105.5l37 148q11 59 11 69q0 121 -125 121h-152l-82 -383h-287l187 874h-416l-186 -874h-287z" />
<glyph unicode="&#x4a8;" horiz-adv-x="1714" d="M135 498q0 210 69 399.5t186 325.5t279.5 215.5t342.5 79.5q167 0 288.5 -61t184.5 -175q45 -83 45 -186q0 -31 -8 -109h-293q-3 106 -33 160q-64 108 -229 108q-144 0 -265 -98t-189.5 -261.5t-68.5 -354.5q0 -158 75.5 -244t213.5 -86q143 0 247 78.5t148 220.5h299 q-69 -256 -273 -406.5t-482 -150.5q-255 0 -396 144.5t-141 400.5z" />
<glyph unicode="&#x4a9;" horiz-adv-x="1134" d="M76 354q0 206 87 382.5t241.5 282t340.5 105.5t289 -93t103 -259q0 -29 -7 -80h-274q-2 109 -38.5 155t-123.5 46q-126 0 -198 -94q-53 -69 -90 -178t-37 -218q0 -106 44 -162.5t132 -56.5q83 0 139 45.5t107 153.5h274q-61 -198 -215.5 -314t-355.5 -116 q-200 0 -309 106.5t-109 294.5z" />
<glyph unicode="&#x4aa;" horiz-adv-x="1714" d="M135 498q0 210 69 399.5t186 325.5t279.5 215.5t342.5 79.5q167 0 288.5 -61t184.5 -175q45 -83 45 -186q0 -31 -8 -109h-293q-3 106 -33 160q-64 108 -229 108q-144 0 -265 -98t-189.5 -261.5t-68.5 -354.5q0 -158 75.5 -244t213.5 -86q143 0 247 78.5t148 220.5h299 q-64 -236 -243.5 -383.5t-427.5 -169.5q38 -19 73 -45q64 -44 101 -106.5t37 -127.5q0 -72 -73.5 -113.5t-201.5 -41.5q-58 0 -157 18l-21 107q67 -23 145 -23q103 0 103 82q0 70 -70 158q-24 30 -43.5 46.5t-70.5 47.5q-212 26 -327.5 167t-115.5 372z" />
<glyph unicode="&#x4ab;" horiz-adv-x="1134" d="M76 354q0 206 87 382.5t241.5 282t340.5 105.5t289 -93t103 -259q0 -29 -7 -80h-274q-2 109 -38.5 155t-123.5 46q-126 0 -198 -94q-53 -69 -90 -178t-37 -218q0 -106 44 -162.5t132 -56.5q83 0 139 45.5t107 153.5h274q-55 -176 -184.5 -288.5t-302.5 -135.5 q24 -11 77 -47q64 -44 101 -106.5t37 -127.5q0 -72 -73.5 -113.5t-201.5 -41.5q-59 0 -158 18l-20 107q67 -23 145 -23q103 0 103 82q0 70 -70 158q-24 30 -44 46t-73 48q-157 25 -241 128t-84 267z" />
<glyph unicode="&#x4ac;" horiz-adv-x="1251" d="M209 1237l55 256h1196l-55 -256h-436l-217 -1016h268l-113 -528h-266l66 307h-308l263 1237h-453z" />
<glyph unicode="&#x4ad;" horiz-adv-x="929" d="M125 874l49 232h840l-49 -232h-277l-143 -667h225l-98 -463h-226l56 256h-287l186 874h-276z" />
<glyph unicode="&#x4ae;" horiz-adv-x="1366" d="M291 1493h342l168 -645l424 645h342l-672 -940l-119 -553h-307l119 553z" />
<glyph unicode="&#x4af;" horiz-adv-x="1366" d="M246 1106h342l151 -660l316 660h344l-545 -940l-78 -553h-307l78 553z" />
<glyph unicode="&#x4b0;" horiz-adv-x="1366" d="M127 297l45 213h410l8 43l-299 940h342l168 -659l422 659h344l-670 -940l-8 -43h409l-45 -213h-409l-62 -297h-307l62 297h-410z" />
<glyph unicode="&#x4b1;" horiz-adv-x="1366" d="M111 -47l28 213h410l-303 940h342l151 -660l316 660h344l-543 -940h410l-29 -213h-410l-49 -340h-307l49 340h-409z" />
<glyph unicode="&#x4b2;" horiz-adv-x="1359" d="M-37 0l631 752l-297 741h365l157 -492l379 492h356l-616 -731l225 -541h140l-113 -528h-266l65 307h-98l-176 518l-396 -518h-356z" />
<glyph unicode="&#x4b3;" horiz-adv-x="1134" d="M-49 0l487 557l-243 549h344l108 -334l250 334h344l-477 -549l156 -350h139l-98 -463h-226l56 256h-121l-113 344l-262 -344h-344z" />
<glyph unicode="&#x4b4;" horiz-adv-x="1769" d="M209 1237l51 256h1069l-51 -256h-375l-209 -981h592l262 1237h307l-270 -1272h287l-113 -528h-266l66 307h-1225l262 1237h-387z" />
<glyph unicode="&#x4b5;" horiz-adv-x="1488" d="M125 874l49 232h758l-49 -232h-236l-137 -643h416l186 875h287l-193 -899h246l-98 -463h-226l56 256h-1010l186 874h-235z" />
<glyph unicode="&#x4b6;" horiz-adv-x="1521" d="M248 901q0 67 16 152l94 440h308l-99 -459q-12 -70 -12 -96q0 -60 39.5 -90.5t136.5 -30.5h293l143 676h310l-271 -1272h287l-113 -528h-266l66 307h-328l119 561h-295q-225 0 -326.5 88.5t-101.5 251.5z" />
<glyph unicode="&#x4b7;" horiz-adv-x="1241" d="M178 633q0 55 15 123l73 350h287l-78 -363q-10 -48 -10 -75q0 -50 33 -74.5t114 -24.5h191l115 537h286l-190 -899h243l-98 -463h-225l55 256h-307l72 338h-174q-402 0 -402 295z" />
<glyph unicode="&#x4b8;" horiz-adv-x="1374" d="M248 901q0 67 16 152l94 440h308l-99 -459q-12 -70 -12 -96q0 -53 30 -82.5t103 -36.5l64 307h202l-65 -309h135l143 676h310l-318 -1493h-307l119 561h-135l-64 -295h-203l64 295q-385 16 -385 340z" />
<glyph unicode="&#x4b9;" horiz-adv-x="1241" d="M178 633q0 55 15 123l73 350h287l-78 -363q-10 -48 -10 -75q0 -77 78 -93l39 183h161l-41 -189h101l115 537h286l-235 -1106h-287l72 338h-101l-41 -195h-161l43 199q-316 29 -316 291z" />
<glyph unicode="&#x4ba;" horiz-adv-x="1374" d="M248 0l317 1493h307l-118 -561h295q225 0 326.5 -88.5t101.5 -251.5q0 -68 -19 -152l-92 -440h-307l96 459q12 53 12 96q0 60 -38.5 90.5t-135.5 30.5h-293l-143 -676h-309z" />
<glyph unicode="&#x4bb;" horiz-adv-x="1241" d="M178 0l236 1106h286l-71 -338h174q401 0 401 -295q0 -60 -14 -123l-74 -350h-287l78 362q11 53 11 76q0 50 -33.5 74.5t-114.5 24.5h-190l-115 -537h-287z" />
<glyph unicode="&#x4bc;" horiz-adv-x="1714" d="M-244 1090q0 124 52 230t145 169t205 63q110 0 171.5 -56.5t61.5 -156.5q0 -31 -2 -47h-166q0 66 -22 93.5t-74 27.5q-77 0 -119 -57q-33 -41 -55.5 -106.5t-22.5 -131.5q0 -131 109 -131h190q112 242 318 386.5t454 144.5q167 0 289 -61t185 -175q24 -43 39.5 -105.5 t15.5 -115.5q0 -198 -27 -313h-1046q-23 -108 -23 -207q0 -158 75.5 -244t213.5 -86q143 0 247 78.5t148 220.5h299q-69 -256 -273 -406.5t-482 -150.5q-255 0 -396 144.5t-141 400.5q0 130 27 250q-101 4 -180 37t-124.5 84t-68.5 107.5t-23 113.5zM549 987h670 q-3 106 -33 160q-64 108 -230 108q-123 0 -229 -71.5t-178 -196.5z" />
<glyph unicode="&#x4bd;" horiz-adv-x="1130" d="M-209 762q0 126 77.5 216.5t190.5 90.5q75 0 116.5 -36.5t41.5 -102.5q0 -9 -4 -33h-109q-2 43 -16 61.5t-49 18.5q-50 0 -80 -37q-20 -28 -34.5 -72t-14.5 -86q0 -88 72 -88h139q81 192 239.5 311t348.5 119q188 0 299.5 -103t111.5 -296q0 -86 -18 -172q-3 -21 -12 -49 h-742q-7 -15 -11 -33t-5.5 -40t-2 -34t0.5 -35v-22q0 -82 50.5 -125t129.5 -43q78 0 143.5 36.5t106.5 102.5h282q-83 -163 -243 -260.5t-346 -97.5q-193 0 -298.5 104.5t-105.5 294.5q0 85 14 154q-69 8 -123.5 36.5t-85.5 66.5t-47 77.5t-16 75.5zM399 694h428q1 12 3 12 q1 1 1 9q0 95 -45.5 142.5t-128.5 47.5q-91 0 -151.5 -53.5t-106.5 -157.5z" />
<glyph unicode="&#x4be;" horiz-adv-x="1714" d="M-244 1090q0 124 52 230t145 169t205 63q110 0 171.5 -56.5t61.5 -156.5q0 -31 -2 -47h-166q0 66 -22 93.5t-74 27.5q-77 0 -119 -57q-33 -41 -55.5 -106.5t-22.5 -131.5q0 -131 109 -131h190q112 242 318 386.5t454 144.5q167 0 289 -61t185 -175q24 -43 39.5 -105.5 t15.5 -115.5q0 -198 -27 -313h-1046q-23 -108 -23 -207q0 -158 75.5 -244t213.5 -86q143 0 247 78.5t148 220.5h299q-64 -236 -244 -383.5t-428 -169.5q41 -21 74 -45q64 -44 100.5 -106.5t36.5 -127.5q0 -72 -73.5 -113.5t-200.5 -41.5q-59 0 -158 18l-20 107 q67 -23 145 -23q103 0 103 82q0 70 -70 158q-24 30 -43.5 46t-71.5 48q-212 26 -327 167t-115 372q0 130 27 250q-101 4 -180 37t-124.5 84t-68.5 107.5t-23 113.5zM549 987h670q-3 106 -33 160q-64 108 -230 108q-123 0 -229 -71.5t-178 -196.5z" />
<glyph unicode="&#x4bf;" horiz-adv-x="1130" d="M-209 762q0 126 77.5 216.5t190.5 90.5q75 0 116.5 -36.5t41.5 -102.5q0 -9 -4 -33h-109q-2 43 -16 61.5t-49 18.5q-50 0 -80 -37q-20 -28 -34.5 -72t-14.5 -86q0 -88 72 -88h139q81 192 239.5 311t348.5 119q188 0 299.5 -103t111.5 -296q0 -86 -18 -172q-3 -21 -12 -49 h-742q-7 -15 -11 -33t-5.5 -40t-2 -34t0.5 -35v-22q0 -82 50.5 -125t129.5 -43q78 0 143.5 36.5t106.5 102.5h282q-73 -145 -211 -239.5t-303 -114.5q41 -20 76 -45q64 -44 100.5 -106.5t36.5 -127.5q0 -72 -73.5 -113.5t-200.5 -41.5q-59 0 -158 18l-20 107q67 -23 145 -23 q103 0 103 82q0 70 -70 158q-25 31 -46 48.5t-75 49.5q-145 28 -221 128t-76 261q0 85 14 154q-69 8 -123.5 36.5t-85.5 66.5t-47 77.5t-16 75.5zM399 694h428q1 12 3 12q1 1 1 9q0 95 -45.5 142.5t-128.5 47.5q-91 0 -151.5 -53.5t-106.5 -157.5z" />
<glyph unicode="&#x4c0;" horiz-adv-x="569" d="M47 0l318 1493h307l-318 -1493h-307z" />
<glyph unicode="&#x4c1;" horiz-adv-x="2158" d="M-37 0l895 774l-487 719h336l380 -571l121 571h308l-121 -571l622 571h336l-794 -719l567 -774h-367l-436 584l-125 -584h-307l125 584l-686 -584h-367zM1176 1853q0 36 12 80h86v-16q0 -56 39.5 -86.5t111.5 -30.5q158 0 211 133h86q-22 -126 -115 -209.5t-214 -83.5 q-97 0 -157 59t-60 154z" />
<glyph unicode="&#x4c2;" horiz-adv-x="1587" d="M-49 0l565 606l-256 500h303l189 -387l82 387h286l-82 -387l353 387h303l-469 -500l307 -606h-367l-194 406l-86 -406h-287l86 406l-367 -406h-366zM791 1460q0 36 12 80h86v-16q0 -56 39.5 -86.5t111.5 -30.5q158 0 211 133h86q-22 -126 -115 -209.5t-214 -83.5 q-97 0 -157 59t-60 154z" />
<glyph unicode="&#x4c3;" horiz-adv-x="1474" d="M70 0l317 1493h307l-121 -571l705 571h362l-903 -719h230q225 0 326.5 -88.5t101.5 -251.5q0 -61 -17 -151l-59 -277q-14 -63 -30.5 -108.5t-48 -92t-75.5 -75t-113.5 -46.5t-160.5 -18h-213l45 219h113q50 0 83 8.5t51.5 26.5t27 37t14.5 49l63 295q12 70 12 96 q0 60 -39.5 90.5t-136.5 30.5h-424l-110 -518h-307z" />
<glyph unicode="&#x4c4;" horiz-adv-x="1083" d="M39 0l235 1106h287l-82 -387l414 387h303l-545 -500l33 2q134 0 215.5 -72.5t81.5 -193.5q0 -54 -12 -113l-49 -229q-58 -270 -297 -270h-166l37 180q70 0 99.5 29.5t45.5 105.5l37 148q10 54 10 69q0 121 -125 121h-151l-82 -383h-289z" />
<glyph unicode="&#x4c7;" horiz-adv-x="1478" d="M57 0l318 1493h307l-127 -600h590l127 600h309l-317 -1493q-14 -63 -30.5 -108.5t-48 -92t-75.5 -75t-113.5 -46.5t-160.5 -18h-213l45 219h112q50 0 83 8.5t51.5 26.5t27 37t14.5 49l136 637h-592l-135 -637h-308z" />
<glyph unicode="&#x4c8;" horiz-adv-x="1302" d="M41 0l235 1106h287l-82 -385h416l82 385h287l-236 -1106q-58 -270 -293 -270h-166l37 180q116 0 135 90l109 485h-416l-108 -485h-287z" />
<glyph unicode="&#x4cb;" horiz-adv-x="1374" d="M248 901q0 67 16 152l94 440h308l-99 -459q-12 -70 -12 -96q0 -60 39.5 -90.5t136.5 -30.5h293l143 676h310l-318 -1493h-328l-65 -307h-266l112 528h287l72 340h-295q-225 0 -326.5 88.5t-101.5 251.5z" />
<glyph unicode="&#x4cc;" horiz-adv-x="1241" d="M178 633q0 55 15 123l73 350h287l-78 -363q-10 -48 -10 -75q0 -50 33 -74.5t114 -24.5h191l115 537h286l-235 -1106h-307l-56 -256h-225l98 463h246l29 131h-174q-402 0 -402 295z" />
<glyph unicode="&#x4d0;" horiz-adv-x="1478" d="M-29 0l848 1493h340l199 -1493h-314l-36 301h-559l-164 -301h-314zM590 557h389l-72 584zM803 1853q0 36 12 80h86v-16q0 -55 40 -86t112 -31q158 0 211 133h86q-22 -126 -115.5 -209.5t-214.5 -83.5q-97 0 -157 59t-60 154z" />
<glyph unicode="&#x4d1;" horiz-adv-x="1134" d="M23 199q0 177 107 288.5t302 145.5l119 20q147 25 203.5 55.5t56.5 100.5q0 84 -145 84q-105 0 -156 -33t-80 -119h-276q108 383 555 383q389 0 389 -252q0 -31 -11 -88l-131 -614q-4 -32 -4 -41q0 -48 41 -94l-6 -35h-311q-19 32 -19 55q0 4 9 56q-187 -158 -369 -158 q-117 0 -195.5 63.5t-78.5 182.5zM322 285q0 -46 35 -73.5t96 -27.5q104 0 180 68.5t102 191.5l17 78q-48 -21 -129 -35l-101 -18q-200 -41 -200 -184zM518 1460q0 36 12 80h86v-16q0 -55 40 -86t112 -31q158 0 211 133h86q-22 -126 -115.5 -209.5t-214.5 -83.5 q-97 0 -157 59t-60 154z" />
<glyph unicode="&#x4d2;" horiz-adv-x="1478" d="M-29 0l848 1493h340l199 -1493h-314l-36 301h-559l-164 -301h-314zM590 557h389l-72 584zM717 1640l53 246h225l-53 -246h-225zM1098 1640l53 246h225l-53 -246h-225z" />
<glyph unicode="&#x4d3;" horiz-adv-x="1134" d="M23 199q0 177 107 288.5t302 145.5l119 20q147 25 203.5 55.5t56.5 100.5q0 84 -145 84q-105 0 -156 -33t-80 -119h-276q108 383 555 383q389 0 389 -252q0 -31 -11 -88l-131 -614q-4 -32 -4 -41q0 -48 41 -94l-6 -35h-311q-19 32 -19 55q0 4 9 56q-187 -158 -369 -158 q-117 0 -195.5 63.5t-78.5 182.5zM322 285q0 -46 35 -73.5t96 -27.5q104 0 180 68.5t102 191.5l17 78q-48 -21 -129 -35l-101 -18q-200 -41 -200 -184zM432 1247l53 246h226l-54 -246h-225zM813 1247l53 246h226l-54 -246h-225z" />
<glyph unicode="&#x4d4;" horiz-adv-x="2048" d="M-80 0l860 1493h1399l-53 -256h-752l-74 -338h695l-53 -256h-695l-82 -387h791l-55 -256h-1098l65 311h-448l-174 -311h-326zM553 567h371l143 670h-135z" />
<glyph unicode="&#x4d5;" horiz-adv-x="1820" d="M29 217q0 95 46 182.5t128 145.5q97 69 239 92l117 18q111 15 135 20.5t56 22.5q30 15 49.5 45.5t19.5 63.5q0 46 -35.5 67t-113.5 21q-99 0 -151.5 -35t-78.5 -119h-268q20 97 49 155.5t80 102.5q140 125 420 125q233 0 330 -100q149 100 338 100q220 0 333 -141 q44 -54 69.5 -124t25.5 -140q0 -120 -37 -256h-742q-14 -62 -14 -105q0 -78 54.5 -127t142.5 -49q75 0 138.5 35t94.5 94h283q-82 -164 -238 -261t-340 -97q-135 0 -231.5 53.5t-139.5 151.5q-107 -115 -204 -160t-238 -45q-149 0 -233 70t-84 194zM322 285q0 -103 145 -103 q107 0 178.5 67t99.5 193l17 78q-28 -14 -53 -20q-4 0 -18.5 -2.5t-24.5 -3.5l-33 -7l-103 -16q-100 -17 -154 -65.5t-54 -120.5zM1081 653h443v56q0 89 -45.5 137.5t-128.5 48.5q-99 0 -168 -62t-101 -180z" />
<glyph unicode="&#x4d6;" horiz-adv-x="1363" d="M80 0l317 1493h1080l-56 -256h-772l-71 -338h714l-53 -256h-715l-82 -387h809l-55 -256h-1116zM752 1853q0 36 12 80h86v-16q0 -56 39.5 -86.5t111.5 -30.5q158 0 211 133h86q-22 -126 -115 -209.5t-214 -83.5q-97 0 -157 59t-60 154z" />
<glyph unicode="&#x4d7;" horiz-adv-x="1130" d="M49 352q0 151 52 293t140 247t210.5 168.5t257.5 63.5q188 0 299.5 -103t111.5 -296q0 -99 -24 -213q-2 -15 -13 -49h-741q-12 -79 -12 -123q0 -82 50.5 -125t129.5 -43q78 0 143.5 36.5t106.5 102.5h282q-83 -163 -243 -260.5t-346 -97.5q-193 0 -298.5 104.5 t-105.5 294.5zM387 653h440q4 46 4 62q0 95 -45.5 142.5t-128.5 47.5q-187 0 -270 -252zM518 1460q0 36 12 80h86v-16q0 -55 40 -86t112 -31q158 0 211 133h86q-22 -126 -115.5 -209.5t-214.5 -83.5q-97 0 -157 59t-60 154z" />
<glyph unicode="&#x4d8;" horiz-adv-x="1714" d="M125 410q0 198 27 313h1046q23 108 23 207q0 158 -75.5 244t-213.5 86q-143 0 -247 -78.5t-148 -220.5h-299q69 256 273 406.5t482 150.5q255 0 396 -144.5t141 -400.5q0 -210 -69 -399.5t-186 -325.5t-279.5 -215.5t-342.5 -79.5q-167 0 -288.5 60.5t-184.5 174.5 q-24 43 -39.5 106t-15.5 116zM436 483q1 -60 8.5 -94t24.5 -65q65 -109 229 -109q123 0 229.5 71.5t178.5 196.5h-670z" />
<glyph unicode="&#x4d9;" horiz-adv-x="1130" d="M49 352q0 82 19 172q3 21 12 49h741q19 44 19 164q0 82 -50.5 125t-130.5 43q-78 0 -143 -36.5t-106 -102.5h-283q83 163 243.5 260.5t346.5 97.5q193 0 298 -104.5t105 -294.5q0 -152 -52 -293.5t-139.5 -246.5t-210 -168.5t-257.5 -63.5q-188 0 -300 103t-112 296z M338 362q0 -95 45.5 -142.5t128.5 -47.5q91 0 151.5 53.5t106.5 157.5h-428q-1 -12 -3 -12l-0.5 -0.5t-0.5 -2.5v-6z" />
<glyph unicode="&#x4da;" horiz-adv-x="1714" d="M125 410q0 198 27 313h1046q23 108 23 207q0 158 -75.5 244t-213.5 86q-143 0 -247 -78.5t-148 -220.5h-299q69 256 273 406.5t482 150.5q255 0 396 -144.5t141 -400.5q0 -210 -69 -399.5t-186 -325.5t-279.5 -215.5t-342.5 -79.5q-167 0 -288.5 60.5t-184.5 174.5 q-24 43 -39.5 106t-15.5 116zM436 483q1 -60 8.5 -94t24.5 -65q65 -109 229 -109q123 0 229.5 71.5t178.5 196.5h-670zM717 1640l53 246h225l-53 -246h-225zM1098 1640l53 246h225l-53 -246h-225z" />
<glyph unicode="&#x4db;" horiz-adv-x="1130" d="M49 352q0 82 19 172q3 21 12 49h741q19 44 19 164q0 82 -50.5 125t-130.5 43q-78 0 -143 -36.5t-106 -102.5h-283q83 163 243.5 260.5t346.5 97.5q193 0 298 -104.5t105 -294.5q0 -152 -52 -293.5t-139.5 -246.5t-210 -168.5t-257.5 -63.5q-188 0 -300 103t-112 296z M338 362q0 -95 45.5 -142.5t128.5 -47.5q91 0 151.5 53.5t106.5 157.5h-428q-1 -12 -3 -12l-0.5 -0.5t-0.5 -2.5v-6zM440 1247l54 246h225l-53 -246h-226zM821 1247l53 246h226l-53 -246h-226z" />
<glyph unicode="&#x4dc;" horiz-adv-x="2158" d="M-37 0l895 774l-487 719h336l380 -571l121 571h308l-121 -571l622 571h336l-794 -719l567 -774h-367l-436 584l-125 -584h-307l125 584l-686 -584h-367zM1090 1640l53 246h225l-53 -246h-225zM1470 1640l54 246h225l-53 -246h-226z" />
<glyph unicode="&#x4dd;" horiz-adv-x="1587" d="M-49 0l565 606l-256 500h303l189 -387l82 387h286l-82 -387l353 387h303l-469 -500l307 -606h-367l-194 406l-86 -406h-287l86 406l-367 -406h-366zM705 1247l53 246h225l-53 -246h-225zM1085 1247l54 246h225l-53 -246h-226z" />
<glyph unicode="&#x4de;" horiz-adv-x="1349" d="M55 348q0 51 8 98h299q-4 -28 -4 -43q0 -99 76 -151.5t213 -52.5q156 0 252 68t96 190q0 79 -56 126.5t-179 47.5h-209l51 246h156q162 0 247 67.5t85 165.5q0 69 -61 115.5t-163 46.5q-146 0 -238 -60t-124 -174h-287q22 103 61.5 176t108.5 134q188 170 518 170 q231 0 355 -90.5t124 -258.5q0 -126 -56 -233t-146 -164q123 -75 123 -223q0 -127 -37 -228.5t-102.5 -169.5t-158 -113t-199 -65t-230.5 -20q-254 0 -388.5 102t-134.5 293zM629 1640l53 246h225l-53 -246h-225zM1010 1640l53 246h225l-53 -246h-225z" />
<glyph unicode="&#x4df;" d="M33 244q0 39 8 78h281v-17q0 -34 12 -58t29.5 -37t45 -20.5t51 -9.5t56.5 -2q242 0 242 156q0 92 -146 92h-188l49 225h182q53 0 88.5 14t51 39t21 47t5.5 50q0 40 -40.5 69t-106.5 29q-101 0 -156 -36.5t-72 -112.5h-276q40 176 184.5 275t366.5 99q183 0 284 -76 t101 -210q0 -94 -34.5 -169.5t-96.5 -113.5q80 -59 80 -154q0 -132 -76.5 -235t-206.5 -158t-289 -55q-221 0 -335.5 75t-114.5 216zM455 1247l53 246h225l-53 -246h-225zM836 1247l53 246h225l-53 -246h-225z" />
<glyph unicode="&#x4e0;" horiz-adv-x="1349" d="M55 348q0 51 8 98h299q-4 -28 -4 -43q0 -99 76 -151.5t213 -52.5q156 0 252 68t96 190q0 79 -56 126.5t-179 47.5h-209l51 246h156q162 0 247 67.5t85 165.5q0 69 -61 115.5t-163 46.5q-146 0 -238 -60t-124 -174h-287q22 103 61.5 176t108.5 134q188 170 518 170 q231 0 355 -90.5t124 -258.5q0 -126 -56 -233t-146 -164q123 -75 123 -223q0 -127 -37 -228.5t-102.5 -169.5t-158 -113t-199 -65t-230.5 -20q-254 0 -388.5 102t-134.5 293z" />
<glyph unicode="&#x4e1;" d="M33 244q0 39 8 78h281v-17q0 -34 12 -58t29.5 -37t45 -20.5t51 -9.5t56.5 -2q242 0 242 156q0 92 -146 92h-188l49 225h182q53 0 88.5 14t51 39t21 47t5.5 50q0 40 -40.5 69t-106.5 29q-101 0 -156 -36.5t-72 -112.5h-276q40 176 184.5 275t366.5 99q183 0 284 -76 t101 -210q0 -94 -34.5 -169.5t-96.5 -113.5q80 -59 80 -154q0 -132 -76.5 -235t-206.5 -158t-289 -55q-221 0 -335.5 75t-114.5 216z" />
<glyph unicode="&#x4e2;" horiz-adv-x="1478" d="M57 0l318 1493h307l-215 -1016l807 1016h315l-317 -1493h-307l219 1032l-819 -1032h-308zM707 1640l34 164h615l-35 -164h-614z" />
<glyph unicode="&#x4e3;" horiz-adv-x="1302" d="M41 0l235 1106h287l-149 -703l534 703h318l-236 -1106h-287l150 702l-535 -702h-317zM494 1247l34 164h615l-35 -164h-614z" />
<glyph unicode="&#x4e4;" horiz-adv-x="1478" d="M57 0l318 1493h307l-215 -1016l807 1016h315l-317 -1493h-307l219 1032l-819 -1032h-308zM711 1640l53 246h225l-53 -246h-225zM1092 1640l53 246h225l-53 -246h-225z" />
<glyph unicode="&#x4e5;" horiz-adv-x="1302" d="M41 0l235 1106h287l-149 -703l534 703h318l-236 -1106h-287l150 702l-535 -702h-317zM498 1247l53 246h225l-53 -246h-225zM879 1247l53 246h225l-53 -246h-225z" />
<glyph unicode="&#x4e6;" horiz-adv-x="1593" d="M135 535q0 246 95.5 441t256.5 335q239 207 553 207q320 0 467 -207q109 -151 109 -379q0 -244 -96 -438.5t-256 -333.5q-238 -207 -555 -207q-319 0 -465 207q-109 148 -109 375zM446 573q0 -167 84.5 -262.5t235.5 -95.5q104 0 203 55.5t172.5 148t118.5 218.5t45 260 q0 169 -83 263.5t-235 94.5q-142 0 -267.5 -95t-199.5 -252.5t-74 -334.5zM764 1640l53 246h225l-53 -246h-225zM1145 1640l53 246h225l-53 -246h-225z" />
<glyph unicode="&#x4e7;" horiz-adv-x="1251" d="M86 371q0 206 91.5 379t250 273.5t346.5 100.5q215 0 330 -108.5t115 -308.5q0 -155 -54 -294.5t-146 -240.5t-220 -160t-271 -59q-213 0 -327.5 109.5t-114.5 308.5zM379 424q0 -110 53 -175t146 -65q90 0 170.5 65.5t128 174t47.5 229.5q0 113 -51 176.5t-146 63.5 q-90 0 -171 -66t-129 -174.5t-48 -228.5zM498 1247l53 246h225l-53 -246h-225zM879 1247l53 246h225l-53 -246h-225z" />
<glyph unicode="&#x4e8;" horiz-adv-x="1593" d="M144.5 416.5q-22.5 150.5 13.5 318.5q35 168 121 318.5t208 257.5q239 207 553 207q320 0 467 -207q77 -108 99.5 -259.5t-13.5 -326.5q-34 -158 -122.5 -310t-206.5 -255q-238 -207 -555 -207q-319 0 -465 207q-77 106 -99.5 256.5zM453 662q-26 -204 58.5 -325.5 t254.5 -121.5q169 0 306.5 122.5t197.5 324.5h-817zM489 825h811q20 200 -62.5 315t-250.5 115q-167 0 -301.5 -116.5t-196.5 -313.5z" />
<glyph unicode="&#x4e9;" horiz-adv-x="1251" d="M104 539q59 272 238 428.5t432 156.5q259 0 371 -156.5t53 -437.5q-57 -266 -237.5 -421.5t-432.5 -155.5q-255 0 -368 156t-56 430zM379 455q-8 -124 46 -197.5t153 -73.5t182.5 73.5t128.5 197.5h-510zM414 618h510q9 127 -43 201t-154 74q-100 0 -184 -74.5 t-129 -200.5z" />
<glyph unicode="&#x4ea;" horiz-adv-x="1593" d="M144.5 416.5q-22.5 150.5 13.5 318.5q35 168 121 318.5t208 257.5q239 207 553 207q320 0 467 -207q77 -108 99.5 -259.5t-13.5 -326.5q-34 -158 -122.5 -310t-206.5 -255q-238 -207 -555 -207q-319 0 -465 207q-77 106 -99.5 256.5zM453 662q-26 -204 58.5 -325.5 t254.5 -121.5q169 0 306.5 122.5t197.5 324.5h-817zM489 825h811q20 200 -62.5 315t-250.5 115q-167 0 -301.5 -116.5t-196.5 -313.5zM764 1640l53 246h225l-53 -246h-225zM1145 1640l53 246h225l-53 -246h-225z" />
<glyph unicode="&#x4eb;" horiz-adv-x="1251" d="M104 539q59 272 238 428.5t432 156.5q259 0 371 -156.5t53 -437.5q-57 -266 -237.5 -421.5t-432.5 -155.5q-255 0 -368 156t-56 430zM379 455q-8 -124 46 -197.5t153 -73.5t182.5 73.5t128.5 197.5h-510zM414 618h510q9 127 -43 201t-154 74q-100 0 -184 -74.5 t-129 -200.5zM498 1247l53 246h225l-53 -246h-225zM879 1247l53 246h225l-53 -246h-225z" />
<glyph unicode="&#x4ec;" horiz-adv-x="1509" d="M135 403q0 58 8 107h299q-4 -36 -4 -51q0 -120 70.5 -184t200.5 -64q159 0 279.5 111.5t182.5 314.5h-598l56 256h596v18q0 163 -80 253.5t-225 90.5q-167 0 -275 -108q-52 -52 -102 -160h-293q30 99 67 166t97 129q111 114 257.5 175t313.5 61q260 0 402.5 -145 t142.5 -404q0 -202 -68.5 -389t-184.5 -324.5t-277 -220t-338 -82.5q-246 0 -386.5 121t-140.5 329zM709 1640l53 246h225l-53 -246h-225zM1090 1640l53 246h225l-53 -246h-225z" />
<glyph unicode="&#x4ed;" horiz-adv-x="1177" d="M86 317q0 20 4 66h275q5 -108 41.5 -153.5t119.5 -45.5q91 0 163.5 63t115.5 177h-361l50 231h356q3 88 -14 144q-31 94 -158 94q-88 0 -144.5 -46t-103.5 -155h-274q58 202 210 317t359 115q202 0 309 -104.5t107 -300.5q0 -207 -81.5 -381t-234.5 -279.5t-346 -105.5 q-185 0 -289 95.5t-104 268.5zM449 1247l53 246h225l-53 -246h-225zM829 1247l54 246h225l-53 -246h-226z" />
<glyph unicode="&#x4ee;" horiz-adv-x="1429" d="M197 0l331 463l-299 1030h334l203 -707l502 707h356l-1071 -1493h-356zM651 1640l35 164h614l-34 -164h-615z" />
<glyph unicode="&#x4ef;" horiz-adv-x="1130" d="M-6 -440l45 215q45 -13 74 -13q76 0 148.5 56t72.5 123l-2 14l-168 1151h313l92 -764l387 764h271l-684 -1313q-51 -91 -105.5 -135t-130.5 -72q-93 -35 -213 -35q-38 0 -100 9zM428 1247l35 164h614l-35 -164h-614z" />
<glyph unicode="&#x4f0;" horiz-adv-x="1429" d="M197 0l331 463l-299 1030h334l203 -707l502 707h356l-1071 -1493h-356zM655 1640l54 246h225l-53 -246h-226zM1036 1640l54 246h225l-53 -246h-226z" />
<glyph unicode="&#x4f1;" horiz-adv-x="1130" d="M-6 -440l45 215q45 -13 74 -13q76 0 148.5 56t72.5 123l-2 14l-168 1151h313l92 -764l387 764h271l-684 -1313q-51 -91 -105.5 -135t-130.5 -72q-93 -35 -213 -35q-38 0 -100 9zM432 1247l53 246h226l-54 -246h-225zM813 1247l53 246h226l-54 -246h-225z" />
<glyph unicode="&#x4f2;" horiz-adv-x="1429" d="M197 0l331 463l-299 1030h334l203 -707l502 707h356l-1071 -1493h-356zM694 1640l209 302h258l-323 -302h-144zM1079 1640l209 302h258l-323 -302h-144z" />
<glyph unicode="&#x4f3;" horiz-adv-x="1130" d="M-6 -440l45 215q45 -13 74 -13q76 0 148.5 56t72.5 123l-2 14l-168 1151h313l92 -764l387 764h271l-684 -1313q-51 -91 -105.5 -135t-130.5 -72q-93 -35 -213 -35q-38 0 -100 9zM471 1247l209 301h258l-324 -301h-143zM856 1247l209 301h258l-324 -301h-143z" />
<glyph unicode="&#x4f4;" horiz-adv-x="1374" d="M248 901q0 67 16 152l94 440h308l-99 -459q-12 -70 -12 -96q0 -60 39.5 -90.5t136.5 -30.5h293l143 676h310l-318 -1493h-307l119 561h-295q-225 0 -326.5 88.5t-101.5 251.5zM645 1640l53 246h226l-54 -246h-225zM1026 1640l53 246h226l-54 -246h-225z" />
<glyph unicode="&#x4f5;" horiz-adv-x="1241" d="M178 633q0 55 15 123l73 350h287l-78 -363q-10 -48 -10 -75q0 -50 33 -74.5t114 -24.5h191l115 537h286l-235 -1106h-287l72 338h-174q-402 0 -402 295zM463 1247l53 246h225l-53 -246h-225zM844 1247l53 246h225l-53 -246h-225z" />
<glyph unicode="&#x4f8;" horiz-adv-x="1923" d="M53 0l318 1493h307l-113 -532h383q171 0 266 -95t95 -260q0 -172 -74 -310t-210.5 -217t-311.5 -79h-660zM416 256h286q138 0 216.5 83.5t78.5 213.5q0 152 -200 152h-287zM934 1640l53 246h225l-53 -246h-225zM1315 1640l53 246h225l-53 -246h-225zM1417 0l318 1493h307 l-318 -1493h-307z" />
<glyph unicode="&#x4f9;" horiz-adv-x="1667" d="M41 0l235 1106h287l-90 -424h186q194 0 292 -72.5t98 -208.5q0 -184 -126 -292.5t-337 -108.5h-545zM377 225h198q93 0 142 43t49 117q0 43 -32.5 57.5t-108.5 14.5h-199zM707 1247l53 246h225l-53 -246h-225zM1087 1247l54 246h225l-53 -246h-226zM1108 0l235 1106h287 l-235 -1106h-287z" />
<glyph unicode="&#xe3f;" horiz-adv-x="1478" d="M86 0l317 1493h480l37 170h161l-34 -170h22q195 0 302.5 -87.5t107.5 -236.5q0 -106 -61.5 -202t-178.5 -172q78 -61 111.5 -124.5t33.5 -148.5q0 -91 -45 -190t-120 -172q-86 -83 -196.5 -121.5t-264.5 -38.5h-29l-37 -170h-164l37 170h-479zM449 256h172l81 387h-172z M584 899h172l71 338h-172zM782 256h31q131 0 199.5 67.5t68.5 178.5q0 72 -45.5 106.5t-140.5 34.5h-31zM920 899q129 0 191.5 59.5t62.5 151.5q0 66 -44 96.5t-139 30.5z" />
<glyph unicode="&#x1e0c;" horiz-adv-x="1478" d="M76 0l317 1493h584q278 0 404 -121.5t126 -390.5q0 -181 -60 -362t-169 -332q-113 -155 -254.5 -221t-364.5 -66h-583zM428 -410l55 269h287l-55 -269h-287zM438 256h275q134 0 217 48t149 163q53 91 88 232t35 262q0 276 -280 276h-277z" />
<glyph unicode="&#x1e0d;" horiz-adv-x="1251" d="M82 393q0 107 28.5 213.5t82.5 199t126.5 164t166 113t194.5 41.5q105 0 171 -39t101 -122l113 530h287l-318 -1493h-286l26 127q-139 -145 -336 -145q-162 0 -259 110t-97 301zM315 -410l56 269h286l-55 -269h-287zM375 436q0 -108 49 -166.5t133 -58.5q132 0 226 130 t94 321q0 107 -49 170t-132 63q-84 0 -158 -62.5t-118.5 -169t-44.5 -227.5z" />
<glyph unicode="&#x1e0e;" horiz-adv-x="1478" d="M76 0l317 1493h584q278 0 404 -121.5t126 -390.5q0 -181 -60 -362t-169 -332q-113 -155 -254.5 -221t-364.5 -66h-583zM268 -358l35 163h615l-35 -163h-615zM438 256h275q134 0 217 48t149 163q53 91 88 232t35 262q0 276 -280 276h-277z" />
<glyph unicode="&#x1e0f;" horiz-adv-x="1251" d="M82 393q0 107 28.5 213.5t82.5 199t126.5 164t166 113t194.5 41.5q105 0 171 -39t101 -122l113 530h287l-318 -1493h-286l26 127q-139 -145 -336 -145q-162 0 -259 110t-97 301zM154 -358l34 163h615l-35 -163h-614zM375 436q0 -108 49 -166.5t133 -58.5q132 0 226 130 t94 321q0 107 -49 170t-132 63q-84 0 -158 -62.5t-118.5 -169t-44.5 -227.5z" />
<glyph unicode="&#x1e24;" horiz-adv-x="1478" d="M57 0l318 1493h307l-119 -559h590l119 559h309l-317 -1493h-308l144 678h-592l-143 -678h-308zM432 -410l55 269h287l-55 -269h-287z" />
<glyph unicode="&#x1e25;" horiz-adv-x="1251" d="M55 0l318 1493h286l-118 -555q82 97 170.5 141.5t197.5 44.5q134 0 215.5 -74.5t81.5 -195.5q0 -54 -12 -113l-158 -741h-286l137 641q8 42 12 98q0 75 -38.5 115.5t-110.5 40.5q-99 0 -174 -74t-101 -198l-133 -623h-287zM317 -410l56 269h286l-55 -269h-287z" />
<glyph unicode="&#x1e26;" horiz-adv-x="1478" d="M57 0l318 1493h307l-119 -559h590l119 559h309l-317 -1493h-308l144 678h-592l-143 -678h-308zM680 1632l51 236h258l-51 -236h-258zM1079 1632l51 236h259l-52 -236h-258z" />
<glyph unicode="&#x1e27;" horiz-adv-x="1251" d="M55 0l318 1493h286l-118 -555q82 97 170.5 141.5t197.5 44.5q134 0 215.5 -74.5t81.5 -195.5q0 -54 -12 -113l-158 -741h-286l137 641q8 42 12 98q0 75 -38.5 115.5t-110.5 40.5q-99 0 -174 -74t-101 -198l-133 -623h-287zM561 1632l51 236h258l-51 -236h-258zM961 1632 l51 236h258l-51 -236h-258z" />
<glyph unicode="&#x1e2a;" horiz-adv-x="1478" d="M57 0l318 1493h307l-119 -559h590l119 559h309l-317 -1493h-308l144 678h-592l-143 -678h-308zM311 -143h105q-5 -31 2.5 -51.5t18.5 -31t39 -16t48 -6t62 -0.5h12q100 0 161 23.5t91 81.5h102q-25 -114 -137 -189.5t-258 -75.5q-145 0 -218 80.5t-28 184.5z" />
<glyph unicode="&#x1e2b;" horiz-adv-x="1251" d="M55 0l318 1493h286l-118 -555q82 97 170.5 141.5t197.5 44.5q134 0 215.5 -74.5t81.5 -195.5q0 -54 -12 -113l-158 -741h-286l137 641q8 42 12 98q0 75 -38.5 115.5t-110.5 40.5q-99 0 -174 -74t-101 -198l-133 -623h-287zM197 -143h104q-5 -31 2.5 -51.5t18.5 -31 t39 -16t48 -6t62 -0.5h12q100 0 161 23.5t91 81.5h103q-25 -114 -137.5 -189.5t-258.5 -75.5q-145 0 -217.5 80.5t-27.5 184.5z" />
<glyph unicode="&#x1e36;" horiz-adv-x="1251" d="M82 0l317 1493h308l-263 -1237h715l-55 -256h-1022zM365 -410l55 269h287l-56 -269h-286z" />
<glyph unicode="&#x1e37;" horiz-adv-x="569" d="M-27 -410l56 269h286l-55 -269h-287zM55 0l318 1493h286l-317 -1493h-287z" />
<glyph unicode="&#x1e38;" horiz-adv-x="1251" d="M82 0l317 1493h308l-263 -1237h715l-55 -256h-1022zM276 1667l35 164h615l-35 -164h-615zM365 -410l55 269h287l-56 -269h-286z" />
<glyph unicode="&#x1e39;" horiz-adv-x="569" d="M-27 -410l56 269h286l-55 -269h-287zM55 0l318 1493h286l-317 -1493h-287zM240 1667l34 164h615l-35 -164h-614z" />
<glyph unicode="&#x1e42;" horiz-adv-x="1705" d="M53 0l318 1493h485v-1147l520 1147h449l-318 -1493h-290l270 1268l-551 -1268h-322v1268l-270 -1268h-291zM543 -410l55 269h287l-56 -269h-286z" />
<glyph unicode="&#x1e43;" horiz-adv-x="1820" d="M41 0l235 1106h285l-35 -166q91 100 171 142t180 42q95 0 163 -45.5t90 -122.5q85 88 172 128t191 40q138 0 214.5 -68t76.5 -190q0 -41 -17 -125l-157 -741h-287l147 696q11 53 11 84q0 55 -31 85t-88 30q-97 0 -163 -60.5t-89 -170.5l-141 -664h-287l152 709q6 35 6 67 q0 54 -35 86.5t-94 32.5q-89 0 -154 -62t-88 -169l-141 -664h-287zM600 -410l55 269h287l-55 -269h-287z" />
<glyph unicode="&#x1e44;" horiz-adv-x="1478" d="M57 0l318 1493h307l393 -1055l223 1055h291l-317 -1493h-303l-394 1071l-227 -1071h-291zM868 1616l56 268h286l-55 -268h-287z" />
<glyph unicode="&#x1e45;" horiz-adv-x="1251" d="M47 0l236 1106h286l-37 -168q83 98 171 142t202 44q137 0 219 -73.5t82 -196.5q0 -54 -12 -113l-158 -741h-286l137 641q7 31 12 100q0 74 -39 114t-112 40q-104 0 -179.5 -73t-101.5 -199l-133 -623h-287zM668 1249l55 269h287l-56 -269h-286z" />
<glyph unicode="&#x1e46;" horiz-adv-x="1478" d="M57 0l318 1493h307l393 -1055l223 1055h291l-317 -1493h-303l-394 1071l-227 -1071h-291zM436 -410l56 269h286l-55 -269h-287z" />
<glyph unicode="&#x1e47;" horiz-adv-x="1251" d="M47 0l236 1106h286l-37 -168q83 98 171 142t202 44q137 0 219 -73.5t82 -196.5q0 -54 -12 -113l-158 -741h-286l137 641q7 31 12 100q0 74 -39 114t-112 40q-104 0 -179.5 -73t-101.5 -199l-133 -623h-287zM315 -410l56 269h286l-55 -269h-287z" />
<glyph unicode="&#x1e58;" horiz-adv-x="1478" d="M82 0l317 1493h772q160 0 257.5 -86.5t97.5 -220.5q0 -154 -80.5 -265.5t-261.5 -199.5q159 -53 159 -168q0 -69 -57 -375q-6 -30 -6 -53q0 -43 37 -70l-12 -55h-326q-16 52 -16 84q-3 69 53 270q24 99 24 125q0 113 -174 113h-352l-125 -592h-307zM569 848h371 q126 0 203.5 68t77.5 178q0 143 -226 143h-344zM821 1616l56 268h286l-55 -268h-287z" />
<glyph unicode="&#x1e59;" horiz-adv-x="796" d="M47 0l236 1106h286l-47 -217q72 112 166 173.5t193 61.5q18 0 34 -2l-61 -291q-56 9 -88 9q-254 0 -307 -252l-125 -588h-287zM457 1249l55 269h287l-56 -269h-286z" />
<glyph unicode="&#x1e5a;" horiz-adv-x="1478" d="M82 0l317 1493h772q160 0 257.5 -86.5t97.5 -220.5q0 -154 -80.5 -265.5t-261.5 -199.5q159 -53 159 -168q0 -69 -57 -375q-6 -30 -6 -53q0 -43 37 -70l-12 -55h-326q-16 52 -16 84q-3 69 53 270q24 99 24 125q0 113 -174 113h-352l-125 -592h-307zM389 -410l55 269h287 l-55 -269h-287zM569 848h371q126 0 203.5 68t77.5 178q0 143 -226 143h-344z" />
<glyph unicode="&#x1e5b;" horiz-adv-x="796" d="M-39 -410l55 269h287l-55 -269h-287zM47 0l236 1106h286l-47 -217q72 112 166 173.5t193 61.5q18 0 34 -2l-61 -291q-56 9 -88 9q-254 0 -307 -252l-125 -588h-287z" />
<glyph unicode="&#x1e5c;" horiz-adv-x="1478" d="M82 0l317 1493h772q160 0 257.5 -86.5t97.5 -220.5q0 -154 -80.5 -265.5t-261.5 -199.5q159 -53 159 -168q0 -69 -57 -375q-6 -30 -6 -53q0 -43 37 -70l-12 -55h-326q-16 52 -16 84q-3 69 53 270q24 99 24 125q0 113 -174 113h-352l-125 -592h-307zM389 -410l55 269h287 l-55 -269h-287zM569 848h371q126 0 203.5 68t77.5 178q0 143 -226 143h-344zM659 1667l35 164h615l-35 -164h-615z" />
<glyph unicode="&#x1e5d;" horiz-adv-x="796" d="M-39 -410l55 269h287l-55 -269h-287zM47 0l236 1106h286l-47 -217q72 112 166 173.5t193 61.5q18 0 34 -2l-61 -291q-56 9 -88 9q-254 0 -307 -252l-125 -588h-287zM301 1319l35 164h614l-35 -164h-614z" />
<glyph unicode="&#x1e62;" horiz-adv-x="1366" d="M78 379q0 35 8 90h299q-4 -36 -4 -47q0 -88 76.5 -136t216.5 -48q161 0 254.5 57.5t93.5 159.5q0 69 -50.5 99.5t-197.5 61.5l-201 41q-183 37 -264.5 110t-81.5 200q0 113 47 213.5t131.5 175.5t209 118.5t272.5 43.5q244 0 380 -93.5t136 -259.5q0 -46 -17 -127h-286 q4 36 4 47q0 83 -69.5 126.5t-200.5 43.5q-139 0 -220.5 -57.5t-81.5 -155.5q0 -58 51.5 -89t196.5 -60l224 -45q323 -66 323 -293q0 -263 -186.5 -421.5t-511.5 -158.5q-257 0 -404 106.5t-147 297.5zM334 -410l55 269h287l-55 -269h-287z" />
<glyph unicode="&#x1e63;" d="M47 289q0 20 8 61h281q5 -139 217 -139q97 0 153 25t56 73q-2 25 -32.5 43.5t-125.5 48.5l-162 52q-264 84 -264 254q0 82 36.5 157t102.5 133t168.5 92.5t225.5 34.5q193 0 303 -79.5t110 -217.5q0 -31 -10 -77h-276q6 27 6 38q0 50 -48 78.5t-132 28.5 q-82 0 -131.5 -30t-49.5 -79q0 -31 27.5 -50t105.5 -42l197 -57q130 -37 191 -94t61 -146q0 -195 -151 -305t-414 -110q-203 0 -328 84t-125 223zM258 -410l55 269h287l-55 -269h-287z" />
<glyph unicode="&#x1e6c;" horiz-adv-x="1251" d="M209 1237l55 256h1196l-55 -256h-434l-264 -1237h-308l265 1237h-455zM324 -410l55 269h287l-56 -269h-286z" />
<glyph unicode="&#x1e6d;" horiz-adv-x="681" d="M131 154q0 36 10 84l138 655h-142l41 190h141l64 297h287l-64 -297h160l-41 -190h-160l-121 -578q-12 -53 -12 -69q0 -23 21.5 -37t56.5 -14q24 0 68 6l-41 -201q-110 -8 -172 -8q-234 0 -234 162zM137 -410l56 269h286l-55 -269h-287z" />
<glyph unicode="&#x1e6e;" horiz-adv-x="1251" d="M164 -358l35 163h614l-35 -163h-614zM209 1237l55 256h1196l-55 -256h-434l-264 -1237h-308l265 1237h-455z" />
<glyph unicode="&#x1e6f;" horiz-adv-x="681" d="M-25 -358l35 163h615l-35 -163h-615zM131 154q0 36 10 84l138 655h-142l41 190h141l64 297h287l-64 -297h160l-41 -190h-160l-121 -578q-12 -53 -12 -69q0 -23 21.5 -37t56.5 -14q24 0 68 6l-41 -201q-110 -8 -172 -8q-234 0 -234 162z" />
<glyph unicode="&#x1e80;" horiz-adv-x="1933" d="M262 1493h320v-1118l458 1118h318v-1122l461 1122h325l-731 -1493h-285v1137l-485 -1137h-276zM848 1886h352l131 -276h-213z" />
<glyph unicode="&#x1e81;" horiz-adv-x="1593" d="M164 1106h307v-774l326 774h295v-774l333 774h297l-540 -1106h-308v778l-339 -778h-295zM684 1540h320l75 -315h-205z" />
<glyph unicode="&#x1e82;" horiz-adv-x="1933" d="M262 1493h320v-1118l458 1118h318v-1122l461 1122h325l-731 -1493h-285v1137l-485 -1137h-276zM1116 1610l250 276h352l-389 -276h-213z" />
<glyph unicode="&#x1e83;" horiz-adv-x="1593" d="M164 1106h307v-774l326 774h295v-774l333 774h297l-540 -1106h-308v778l-339 -778h-295zM872 1225l209 315h320l-324 -315h-205z" />
<glyph unicode="&#x1e84;" horiz-adv-x="1933" d="M262 1493h320v-1118l458 1118h318v-1122l461 1122h325l-731 -1493h-285v1137l-485 -1137h-276zM901 1632l51 236h258l-51 -236h-258zM1300 1632l52 236h258l-51 -236h-259z" />
<glyph unicode="&#x1e85;" horiz-adv-x="1593" d="M164 1106h307v-774l326 774h295v-774l333 774h297l-540 -1106h-308v778l-339 -778h-295zM653 1266l52 235h258l-52 -235h-258zM1053 1266l51 235h258l-51 -235h-258z" />
<glyph unicode="&#x1e92;" horiz-adv-x="1251" d="M-20 0l55 256l971 981h-764l55 256h1122l-55 -256l-971 -981h764l-55 -256h-1122zM311 -410l56 269h286l-55 -269h-287z" />
<glyph unicode="&#x1e93;" horiz-adv-x="1024" d="M-39 0l49 231l684 643h-510l49 232h863l-49 -232l-680 -643h561l-49 -231h-918zM201 -410l55 269h287l-56 -269h-286z" />
<glyph unicode="&#x1e97;" horiz-adv-x="681" d="M131 154q0 36 10 84l138 655h-142l41 190h141l64 297h287l-64 -297h160l-41 -190h-160l-121 -578q-12 -53 -12 -69q0 -23 21.5 -37t56.5 -14q24 0 68 6l-41 -201q-110 -8 -172 -8q-234 0 -234 162zM227 1520l52 235h258l-52 -235h-258zM627 1520l51 235h258l-51 -235 h-258z" />
<glyph unicode="&#x1ea0;" horiz-adv-x="1478" d="M-29 0l834 1493h354l199 -1493h-314l-36 301h-557l-166 -301h-314zM428 -410l55 269h287l-55 -269h-287zM592 557h387l-72 580z" />
<glyph unicode="&#x1ea1;" d="M23 236q0 152 109.5 261.5t301.5 139.5l119 18q28 4 61 9t45 7l27 4.5t21.5 5.5t14.5 6.5t19 10.5q31 15 50.5 46t19.5 63q0 46 -35.5 67t-113.5 21q-99 0 -151.5 -35t-78.5 -119h-268q43 200 173.5 291.5t371.5 91.5q191 0 292 -65.5t101 -181.5q0 -37 -12 -93 l-129 -614q-7 -28 -7 -43q0 -43 43 -92l-8 -35h-313q-14 32 -14 55q0 29 8 70q-89 -80 -167 -111.5t-171 -31.5q-143 0 -226 70t-83 184zM240 -410l55 269h287l-56 -269h-286zM315 299q0 -49 38 -68.5t116 -19.5q103 0 175.5 68.5t98.5 193.5l11 49q-28 -15 -37.5 -18 t-59.5 -10l-135 -23q-207 -36 -207 -172z" />
<glyph unicode="&#x1ea2;" horiz-adv-x="1478" d="M-29 0l834 1493h354l199 -1493h-314l-36 301h-557l-166 -301h-314zM592 557h387l-72 580zM817 1806q32 115 99.5 164t173.5 49q92 0 147 -39t55 -102q0 -67 -47 -117q-32 -34 -108 -69q-45 -22 -58 -36t-22 -52h-123q4 49 34.5 85.5t96.5 75.5q37 19 56.5 36.5t22.5 27 t3 24.5q0 26 -20 41t-54 15q-44 0 -74.5 -26.5t-42.5 -76.5h-139z" />
<glyph unicode="&#x1ea3;" d="M23 236q0 152 109.5 261.5t301.5 139.5l119 18q28 4 61 9t45 7l27 4.5t21.5 5.5t14.5 6.5t19 10.5q31 15 50.5 46t19.5 63q0 46 -35.5 67t-113.5 21q-99 0 -151.5 -35t-78.5 -119h-268q43 200 173.5 291.5t371.5 91.5q191 0 292 -65.5t101 -181.5q0 -37 -12 -93 l-129 -614q-7 -28 -7 -43q0 -43 43 -92l-8 -35h-313q-14 32 -14 55q0 29 8 70q-89 -80 -167 -111.5t-171 -31.5q-143 0 -226 70t-83 184zM315 299q0 -49 38 -68.5t116 -19.5q103 0 175.5 68.5t98.5 193.5l11 49q-28 -15 -37.5 -18t-59.5 -10l-135 -23q-207 -36 -207 -172z M539 1419q32 116 99 164.5t173 48.5q92 0 147.5 -39t55.5 -102q0 -67 -47 -117q-31 -33 -109 -69q-45 -22 -58 -36t-22 -52h-123q4 49 34.5 85.5t96.5 75.5q37 19 56.5 36.5t22.5 27t3 24.5q0 26 -19.5 41t-53.5 15q-44 0 -74.5 -26.5t-42.5 -76.5h-139z" />
<glyph unicode="&#x1ea4;" horiz-adv-x="1478" d="M-29 0l834 1493h354l199 -1493h-314l-36 301h-557l-166 -301h-314zM592 557h387l-72 580zM618 1614l343 270h264l176 -270h-176l-168 108l-252 -108h-187zM969 1925l250 277h352l-389 -277h-213z" />
<glyph unicode="&#x1ea5;" d="M23 236q0 152 109.5 261.5t301.5 139.5l119 18q28 4 61 9t45 7l27 4.5t21.5 5.5t14.5 6.5t19 10.5q31 15 50.5 46t19.5 63q0 46 -35.5 67t-113.5 21q-99 0 -151.5 -35t-78.5 -119h-268q43 200 173.5 291.5t371.5 91.5q191 0 292 -65.5t101 -181.5q0 -37 -12 -93 l-129 -614q-7 -28 -7 -43q0 -43 43 -92l-8 -35h-313q-14 32 -14 55q0 29 8 70q-89 -80 -167 -111.5t-171 -31.5q-143 0 -226 70t-83 184zM315 299q0 -49 38 -68.5t116 -19.5q103 0 175.5 68.5t98.5 193.5l11 49q-28 -15 -37.5 -18t-59.5 -10l-135 -23q-207 -36 -207 -172z M340 1227l342 270h264l176 -270h-176l-168 108l-252 -108h-186zM690 1538l250 277h352l-389 -277h-213z" />
<glyph unicode="&#x1ea6;" horiz-adv-x="1478" d="M-29 0l834 1493h354l199 -1493h-314l-36 301h-557l-166 -301h-314zM592 557h387l-72 580zM618 1614l343 270h264l176 -270h-176l-168 108l-252 -108h-187zM698 2202h353l131 -277h-213z" />
<glyph unicode="&#x1ea7;" d="M23 236q0 152 109.5 261.5t301.5 139.5l119 18q28 4 61 9t45 7l27 4.5t21.5 5.5t14.5 6.5t19 10.5q31 15 50.5 46t19.5 63q0 46 -35.5 67t-113.5 21q-99 0 -151.5 -35t-78.5 -119h-268q43 200 173.5 291.5t371.5 91.5q191 0 292 -65.5t101 -181.5q0 -37 -12 -93 l-129 -614q-7 -28 -7 -43q0 -43 43 -92l-8 -35h-313q-14 32 -14 55q0 29 8 70q-89 -80 -167 -111.5t-171 -31.5q-143 0 -226 70t-83 184zM315 299q0 -49 38 -68.5t116 -19.5q103 0 175.5 68.5t98.5 193.5l11 49q-28 -15 -37.5 -18t-59.5 -10l-135 -23q-207 -36 -207 -172z M340 1227l342 270h264l176 -270h-176l-168 108l-252 -108h-186zM420 1815h352l131 -277h-213z" />
<glyph unicode="&#x1ea8;" horiz-adv-x="1478" d="M-29 0l834 1493h354l199 -1493h-314l-36 301h-557l-166 -301h-314zM592 557h387l-72 580zM618 1614l343 270h264l176 -270h-176l-168 108l-252 -108h-187zM1040 2107q33 104 100 148.5t173 44.5q92 0 147.5 -36t55.5 -93q0 -60 -48 -105q-32 -30 -108 -61 q-45 -20 -58 -33.5t-22 -46.5h-123q4 44 34.5 77.5t96.5 68.5q37 17 56.5 33t22.5 24.5t3 21.5q0 23 -20 36.5t-54 13.5q-44 0 -74 -24t-42 -69h-140z" />
<glyph unicode="&#x1ea9;" d="M23 236q0 152 109.5 261.5t301.5 139.5l119 18q28 4 61 9t45 7l27 4.5t21.5 5.5t14.5 6.5t19 10.5q31 15 50.5 46t19.5 63q0 46 -35.5 67t-113.5 21q-99 0 -151.5 -35t-78.5 -119h-268q43 200 173.5 291.5t371.5 91.5q191 0 292 -65.5t101 -181.5q0 -37 -12 -93 l-129 -614q-7 -28 -7 -43q0 -43 43 -92l-8 -35h-313q-14 32 -14 55q0 29 8 70q-89 -80 -167 -111.5t-171 -31.5q-143 0 -226 70t-83 184zM315 299q0 -49 38 -68.5t116 -19.5q103 0 175.5 68.5t98.5 193.5l11 49q-28 -15 -37.5 -18t-59.5 -10l-135 -23q-207 -36 -207 -172z M340 1227l342 270h264l176 -270h-176l-168 108l-252 -108h-186zM762 1720q33 104 99.5 148.5t172.5 44.5q92 0 147.5 -36t55.5 -93q0 -61 -47 -105q-31 -29 -109 -61q-45 -20 -58 -33.5t-22 -46.5h-122q4 44 34 76.5t97 68.5q37 17 56.5 33t22.5 25t3 22q0 23 -20 36t-54 13 q-92 0 -117 -92h-139z" />
<glyph unicode="&#x1eaa;" horiz-adv-x="1478" d="M-29 0l834 1493h354l199 -1493h-314l-36 301h-557l-166 -301h-314zM592 557h387l-72 580zM618 1614l343 270h264l176 -270h-176l-168 108l-252 -108h-187zM709 1950q35 115 99.5 177t147.5 62q39 0 67.5 -6.5t78.5 -28.5l102 -43l22.5 -10t17.5 -7t11.5 -2.5t16.5 -0.5 q67 0 110 104h111q-35 -126 -107 -187.5t-165 -61.5q-66 0 -105 22l-102 51q-64 29 -90 29q-55 0 -105 -98h-110z" />
<glyph unicode="&#x1eab;" d="M23 236q0 152 109.5 261.5t301.5 139.5l119 18q28 4 61 9t45 7l27 4.5t21.5 5.5t14.5 6.5t19 10.5q31 15 50.5 46t19.5 63q0 46 -35.5 67t-113.5 21q-99 0 -151.5 -35t-78.5 -119h-268q43 200 173.5 291.5t371.5 91.5q191 0 292 -65.5t101 -181.5q0 -37 -12 -93 l-129 -614q-7 -28 -7 -43q0 -43 43 -92l-8 -35h-313q-14 32 -14 55q0 29 8 70q-89 -80 -167 -111.5t-171 -31.5q-143 0 -226 70t-83 184zM315 299q0 -49 38 -68.5t116 -19.5q103 0 175.5 68.5t98.5 193.5l11 49q-28 -15 -37.5 -18t-59.5 -10l-135 -23q-207 -36 -207 -172z M340 1227l342 270h264l176 -270h-176l-168 108l-252 -108h-186zM430 1563q35 115 99.5 177t148.5 62q38 0 66 -6.5t79 -28.5l103 -43q10 -4 22.5 -10t17 -7.5t11.5 -2.5t16 0q68 0 111 104h110q-35 -126 -107 -187.5t-165 -61.5q-65 0 -104 22l-103 51q-64 29 -90 29 q-54 0 -104 -98h-111z" />
<glyph unicode="&#x1eac;" horiz-adv-x="1478" d="M-29 0l834 1493h354l199 -1493h-314l-36 301h-557l-166 -301h-314zM428 -410l55 269h287l-55 -269h-287zM592 557h387l-72 580zM616 1614l342 270h265l176 -270h-176l-168 108l-252 -108h-187z" />
<glyph unicode="&#x1ead;" d="M23 236q0 152 109.5 261.5t301.5 139.5l119 18q28 4 61 9t45 7l27 4.5t21.5 5.5t14.5 6.5t19 10.5q31 15 50.5 46t19.5 63q0 46 -35.5 67t-113.5 21q-99 0 -151.5 -35t-78.5 -119h-268q43 200 173.5 291.5t371.5 91.5q191 0 292 -65.5t101 -181.5q0 -37 -12 -93 l-129 -614q-7 -28 -7 -43q0 -43 43 -92l-8 -35h-313q-14 32 -14 55q0 29 8 70q-89 -80 -167 -111.5t-171 -31.5q-143 0 -226 70t-83 184zM240 -410l55 269h287l-56 -269h-286zM315 299q0 -49 38 -68.5t116 -19.5q103 0 175.5 68.5t98.5 193.5l11 49q-28 -15 -37.5 -18 t-59.5 -10l-135 -23q-207 -36 -207 -172zM383 1225l287 315h260l145 -315h-180l-135 157l-201 -157h-176z" />
<glyph unicode="&#x1eae;" horiz-adv-x="1478" d="M-29 0l834 1493h354l199 -1493h-314l-36 301h-557l-166 -301h-314zM592 557h387l-72 580zM748 1882h104q-4 -30 2.5 -50.5t17.5 -31t39 -16t47 -6t61 -0.5h15q100 0 161.5 23t90.5 81h103q-25 -114 -137.5 -189t-258.5 -75q-145 0 -217.5 80t-27.5 184zM971 1944l250 276 h352l-389 -276h-213z" />
</font>
</defs>
</svg>
